osu file format v8

[General]
AudioFilename: Kukui - PICHIKATO Biyori.mp3
AudioLeadIn: 0
PreviewTime: 86830
Countdown: 0
SampleSet: Soft
StackLeniency: 0.7
Mode: 0
LetterboxInBreaks: 0

[Editor]
DistanceSpacing: 0.9
BeatDivisor: 4
GridSize: 8

[Metadata]
Title:PICHIKATO Biyori
Artist:Kukui
Creator:kioukiou
Version:Hard
Source:Rozen Maiden
Tags:

[Difficulty]
HPDrainRate:6
CircleSize:4
OverallDifficulty:6
ApproachRate:7
SliderMultiplier:1.6
SliderTickRate:1

[Events]
//Background and Video events
0,0,"BG.jpg"
//Break Periods
2,79590,86170
//Storyboard Layer 0 (Background)
//Storyboard Layer 1 (Fail)
//Storyboard Layer 2 (Pass)
//Storyboard Layer 3 (Foreground)
//Storyboard Sound Samples
//Background Colour Transformations
3,100,163,162,255

[TimingPoints]
670,480,4,2,1,75,1,0
27430,-100,4,2,1,65,0,0
41950,-80,4,2,1,75,0,0
42790,-80,4,2,1,85,0,0
58270,-100,4,2,1,75,0,0
62110,-200,4,2,1,50,0,0
63550,-100,4,2,1,50,0,0
63790,-100,4,2,1,65,0,0
86590,-100,4,2,1,75,0,0
98590,-200,4,2,1,65,0,0
99550,-100,4,2,1,65,0,0
116830,-80,4,2,1,75,0,0
117670,-80,4,2,1,85,0,0
148270,-100,4,2,1,65,0,0
161710,-80,4,2,1,75,0,0
163750,-80,4,2,1,85,0,0
179230,-100,4,2,1,75,0,0
183070,-200,4,2,1,50,0,0
184510,-100,4,2,1,50,0,0
184750,-100,4,2,1,75,0,0

[Colours]
Combo1 : 255,128,0
Combo2 : 255,255,255
Combo3 : 255,128,192
Combo4 : 240,5,5

[HitObjects]
192,72,12190,1,0
192,144,12430,2,0,B|176:200|120:216,2,80,0|2|0
256,112,13150,2,0,B|432:112,2,160,0|2|0
184,112,14350,1,0
112,112,14590,1,2
112,112,15070,2,0,B|16:112,2,80,0|0|2
112,256,16030,6,0,B|168:312,1,80
216,256,16510,2,0,B|272:312,1,80,2|0
320,256,16990,2,0,B|384:320,2,80,0|0|2
320,184,17710,2,0,B|264:104|332:17,1,160
392,32,18430,2,0,B|216:32,2,160,2|0|2
384,336,19870,5,0
448,304,20110,1,0
448,232,20350,1,2
384,192,20590,1,0
384,264,20830,2,0,B|304:312|225:267,1,160,0|2
232,344,21550,1,0
232,200,22030,2,0,B|232:120,2,80,0|2|0
232,272,22750,1,0
160,264,22990,1,0
88,272,23230,1,2
80,128,23710,6,0,B|104:72|144:64,1,80
160,136,24190,2,0,B|200:112|248:120,1,80,2|0
224,192,24670,2,0,B|304:240|384:200,1,160,0|2
376,131,25390,2,0,B|376:315,1,160
304,288,26110,1,2
448,288,26590,1,0
408,352,26830,1,0
336,352,27070,1,2
304,288,27310,1,0
232,288,27550,6,0,B|160:336|64:280,2,160,0|2|0
232,216,28750,1,0
232,144,28990,2,0,B|232:48,2,80,2|0|0
304,144,29710,1,0
304,216,29950,2,0,B|288:256|304:296,1,80,2|0
368,256,30430,2,0,B|384:296|368:336,2,80,0|0|2
224,256,31390,6,0,B|168:176|236:90,1,160,0|2
295,106,32110,1,0
295,106,32350,2,0,B|111:106,2,160,0|2|0
336,40,33550,2,0,B|416:0,1,80,0|2
376,104,34030,2,0,B|456:104,1,80,0|0
336,168,34510,2,0,B|416:208,1,80,0|2
256,352,35230,5,0
32,192,35710,1,2
256,32,36190,1,0
480,192,36670,1,2
424,240,36910,6,0,B|408:296|344:304,1,80
424,144,37390,2,0,B|408:88|344:80,1,80,0|2
352,192,37870,2,0,B|336:248|272:256,1,80
352,192,38350,2,0,B|336:136|272:128,1,80,0|2
256,192,38830,1,0
184,192,39070,2,0,B|128:176|80:232|24:184,2,160,0|2|0
256,192,40270,1,0
328,192,40510,1,2
256,352,40990,5,2
256,32,41470,1,2
80,192,42190,6,0,B|64:136|8:128,2,99.9999985098839
136,264,42910,2,0,B|216:336|328:288,2,199.999997019768,4|8|0
168,176,44110,1,0
240,120,44350,2,0,B|240:16,2,99.9999985098839,8|0|0
312,176,45070,1,0
240,232,45310,1,8
376,120,45790,2,0,B|400:72|464:72,2,99.9999985098839,0|0|8
120,232,46750,6,0,B|56:144|96:32,2,199.999997019768,0|8|0
200,272,47950,1,0
192,184,48190,2,0,B|160:136|176:64,1,99.9999985098839,8|0
256,128,48670,2,0,B|240:64|272:32,2,99.9999985098839,0|0|8
440,128,49630,1,0
448,216,49870,1,0
440,304,50110,1,8
264,312,50590,6,0,B|192:240,1,99.9999985098839
136,312,51070,2,0,B|64:240,1,99.9999985098839,8|0
136,192,51550,2,0,B|208:120,1,99.9999985098839
264,192,52030,2,0,B|336:120,2,99.9999985098839,8|0|0
264,280,52750,1,0
264,368,52990,1,8
416,272,53470,6,0,B|464:168|408:72,1,199.999997019768,0|8
328,40,54190,1,0
344,128,54430,2,0,B|374:181|337:239,1,99.9999985098839
304,304,54910,1,8
304,304,55390,1,0
216,312,55630,2,0,B|168:304|144:240,1,99.9999985098839,0|8
200,176,56110,2,0,B|184:120|120:104,1,99.9999985098839
72,176,56590,2,0,B|24:168|0:104,1,99.9999985098839,0|8
216,64,57310,5,0
304,40,57550,1,0
304,40,57670,1,0
304,40,57790,1,8
392,64,58030,1,0
464,112,58270,2,0,B|464:288,1,160
48,272,59230,2,0,B|48:96,1,160
216,40,60190,6,0,B|128:40,1,80,0|0
296,40,60670,2,0,B|384:40,1,80,0|0
424,128,61150,2,0,B|344:128,1,80,0|0
88,128,61630,2,0,B|168:128,1,80,0|0
256,128,62110,2,0,B|184:224|312:272|248:368,1,240,2|0
112,352,64030,6,0,B|56:272|128:184,1,160,0|2
185,202,64750,1,0
257,202,64990,2,0,B|313:122|241:34,1,160,0|2
112,56,65950,2,0,B|32:32,1,80
112,136,66430,2,0,B|32:112,1,80,2|0
112,216,66910,2,0,B|32:192,2,80,0|0|2
256,216,67870,5,0
320,176,68110,1,0
384,216,68350,1,2
320,248,68590,1,0
320,176,68830,2,0,B|320:352,2,160,0|2|0
320,104,70030,1,0
320,104,70150,1,0
320,104,70270,2,0,B|360:88|368:32,2,80,2|0|0
248,104,70990,1,0
176,104,71230,2,0,B|99:62|17:106,1,160,2|0
40,344,72190,5,2
112,320,72430,1,0
184,344,72670,1,0
112,192,73150,1,2
40,40,73630,1,0
112,64,73870,1,0
184,40,74110,2,0,B|272:40,2,80,2|0|0
184,112,74830,1,0
184,184,75070,1,2
328,184,75550,6,0,B|288:160|288:120,2,80,0|0|2
400,184,76270,1,0
472,184,76510,2,0,B|504:272|470:345,1,160,0|2
400,340,77230,1,0
328,340,77470,2,0,B|296:252|330:179,1,160,2|2
256,40,78910,5,2
256,112,79150,2,0,B|256:160,2,40,2|2|4
400,48,87070,6,0,B|424:96|376:144,1,80
336,80,87550,2,0,B|272:160|348:239,1,160,2|0
408,225,88270,2,0,B|492:225,2,80,0|2|0
264,224,89230,2,0,B|208:280,1,80,0|2
160,224,89710,2,0,B|104:280,1,80
56,224,90190,2,0,B|0:280,1,80,0|2
48,56,90910,5,0
120,80,91150,1,0
192,56,91390,1,2
120,80,91630,2,0,B|64:168|136:256,1,160
192,224,92350,1,2
256,256,92590,2,0,B|256:336,2,80
320,224,93310,1,2
256,96,93790,2,0,B|256:8,2,80,2|2|2
392,200,94750,6,0,B|432:288|392:360,1,160,0|2
328,328,95470,1,0
256,352,95710,1,0
256,352,96190,1,2
184,328,96430,1,0
112,352,96670,2,0,B|72:264|112:192,1,160,0|2
256,200,97630,1,0
256,128,97870,1,0
256,56,98110,1,2
400,48,98590,6,0,B|424:128|400:208,1,160,0|2
336,248,99790,1,0
272,208,100030,1,2
208,248,100270,2,0,B|104:248,2,80,0|2|0
272,280,100990,1,2
272,136,101470,2,0,B|272:48,1,80,0|0
192,120,101950,2,0,B|192:32,1,80,0|0
112,104,102430,6,0,B|64:192|120:272,1,160,0|2
182,256,103150,1,0
182,256,103390,2,0,B|14:256,2,160,0|2|0
256,256,104590,1,0
328,280,104830,1,2
400,256,105070,1,0
328,280,105310,2,0,B|328:368,2,80,0|0|2
328,136,106270,6,0,B|248:88|161:148,1,160,0|2
176,210,106990,1,0
176,282,107230,2,0,B|96:330|9:270,2,160,0|2|0
248,280,108430,1,0
320,280,108670,1,2
320,280,109150,2,0,B|320:376,2,80,0|0|2
256,32,110110,5,0
480,192,110590,1,2
256,352,111070,1,0
32,192,111550,1,2
72,128,111790,6,0,B|136:64,1,80
72,256,112270,2,0,B|136:320,1,80,0|2
168,248,112750,2,0,B|264:248,1,80
168,136,113230,2,0,B|264:136,1,80,0|2
472,192,113950,5,0
400,176,114190,1,0
328,192,114430,1,2
256,208,114670,1,0
184,192,114910,1,0
112,176,115150,1,0
40,192,115390,1,2
256,32,115870,5,2
256,352,116350,1,2
456,144,117070,6,0,B|496:112|480:48,2,99.9999985098839
376,192,117790,1,4
376,192,118270,1,8
304,240,118510,1,0
232,192,118750,1,0
232,192,119230,1,8
160,144,119470,1,0
88,192,119710,1,0
160,240,119950,1,0
160,328,120190,1,8
160,144,120670,2,0,B|160:32,2,99.9999985098839,0|0|8
416,352,121630,6,0,B|496:352|496:216|408:216,1,199.999997019768,0|8
352,280,122350,1,0
352,280,122590,2,0,B|272:280|272:144|360:144,1,199.999997019768,0|8
416,216,123310,1,0
416,216,123550,2,0,B|496:216|496:80|408:80,1,199.999997019768,0|8
256,40,124510,1,0
256,128,124750,1,0
256,216,124990,1,8
80,256,125470,6,0,B|48:304|80:352,2,99.9999985098839,0|0|8
160,304,126190,1,0
248,304,126430,2,0,B|352:344|449:303,1,199.999997019768,0|8
488,224,127150,1,0
444,145,127390,2,0,B|340:105|243:146,1,199.999997019768,0|8
160,144,128110,1,0
88,200,128350,1,0
16,144,128590,1,0
88,200,128830,6,0,B|88:312,1,99.9999985098839,8|0
168,256,129310,2,0,B|168:368,1,99.9999985098839
248,200,129790,2,0,B|248:320,1,99.9999985098839,8|0
328,256,130270,2,0,B|328:368,1,99.9999985098839
408,200,130750,2,0,B|408:320,1,99.9999985098839,8|0
488,256,131230,2,0,B|488:368,2,99.9999985098839,0|0|8
480,72,132190,5,0
400,32,132430,1,0
400,32,132550,1,0
400,32,132670,1,8
320,72,132910,1,0
240,112,133150,2,0,B|144:152|40:120,2,199.999997019768,4|8|0
320,160,134350,1,0
400,120,134590,1,8
480,160,134830,2,0,B|504:216|473:265,1,99.9999985098839,0|2
400,216,135310,2,0,B|376:272|407:321,1,99.9999985098839,0|2
224,312,136030,1,2
144,360,136270,1,0
64,320,136510,1,2
144,272,136750,1,0
144,360,136990,6,0,B|144:160,1,199.999997019768,4|8
232,160,137710,1,0
192,80,137950,1,0
104,80,138190,1,0
64,160,138430,1,8
64,160,138670,1,0
232,160,139150,1,0
232,160,139390,2,0,B|344:160,1,99.9999985098839,8|0
288,240,139870,2,0,B|400:240,1,99.9999985098839
344,320,140350,2,0,B|464:320,2,99.9999985098839,8|0|4
168,328,141310,5,8
88,296,141550,1,0
48,216,141790,2,0,B|0:120,2,99.9999985098839,0|0|8
256,192,142750,1,0
344,56,143230,1,8
424,88,143470,1,0
464,168,143710,2,0,B|512:264,2,99.9999985098839,0|0|8
256,352,144670,6,0,B|160:312|56:352,1,199.999997019768,0|8
56,256,145390,1,0
56,168,145630,2,0,B|152:208|256:168,1,199.999997019768,0|8
248,80,146350,2,0,B|336:16,1,99.9999985098839,4|0
328,120,146830,2,0,B|440:120,1,99.9999985098839,0|0
328,208,147310,2,0,B|440:208,1,99.9999985098839,0|2
248,256,147790,2,0,B|336:320,1,99.9999985098839,0|2
32,192,148510,5,4
256,32,148990,1,2
480,192,149470,1,0
256,352,149950,1,2
294,291,150190,6,0,B|319:247|286:204,1,80
219,218,150670,2,0,B|194:262|227:305,1,80,0|2
256,152,151390,1,0
256,152,151630,1,0
256,152,151870,1,2
480,192,152350,5,0
256,352,152830,1,2
32,192,153310,1,0
256,32,153790,1,2
294,93,154030,6,0,B|319:137|286:180,1,80
219,166,154510,2,0,B|194:122|227:79,1,80,0|2
256,232,155230,1,0
256,232,155470,1,0
256,232,155710,2,0,B|232:272|272:288|251:320,2,80,2|0|0
112,232,156670,6,0,B|56:152|128:64,1,160,2|0
186,82,157390,1,0
186,82,157630,2,0,B|18:82,2,160,2|0|2
328,80,159070,1,2
360,144,159310,1,0
328,208,159550,1,2
184,208,160030,1,2
152,272,160270,1,0
184,336,160510,1,2
328,336,160990,1,0
472,336,161470,1,2
400,296,161710,6,0,B|400:184,1,99.9999985098839
328,32,162190,2,0,B|328:136,1,99.9999985098839,0|2
264,296,162670,2,0,B|264:192,1,99.9999985098839,0|2
200,32,163150,2,0,B|200:136,1,99.9999985098839,0|2
136,296,163630,2,0,B|136:184,1,99.9999985098839,0|4
48,40,164350,5,8
24,128,164590,1,0
48,216,164830,1,0
208,304,165310,1,8
208,216,165550,1,0
328,80,166030,1,0
328,168,166270,1,8
464,344,166750,1,0
488,256,166990,1,0
464,168,167230,1,8
240,224,167710,6,0,B|239:311|104:311|109:214,1,199.999997019768,0|8
176,168,168430,1,0
112,104,168670,2,0,B|113:17|248:17|243:114,1,199.999997019768,0|8
344,96,169390,2,0,B|448:96,1,99.9999985098839
400,176,169870,2,0,B|512:176,1,99.9999985098839,0|8
344,256,170350,2,0,B|444:256,1,99.9999985098839
400,336,170830,2,0,B|500:336,2,99.9999985098839,0|8|0
312,336,171550,6,0,B|216:384|107:332,2,199.999997019768,0|8|0
360,256,172750,1,0
400,176,172990,1,8
376,88,173230,1,0
376,88,173710,1,0
296,48,173950,2,0,B|240:24|184:56,1,99.9999985098839,8|0
240,128,174430,2,0,B|184:128|136:176,1,99.9999985098839
176,248,174910,6,0,B|112:328,2,99.9999985098839,8|0|0
264,248,175630,1,0
352,248,175870,2,0,B|408:152|348:48,2,199.999997019768,8|0|8
312,328,177070,2,0,B|216:360,1,99.9999985098839
176,280,177550,2,0,B|72:304,1,99.9999985098839,0|8
112,200,178030,2,0,B|8:200,1,99.9999985098839
64,112,178510,2,0,B|-24:48,1,99.9999985098839,0|8
176,32,179230,6,0,B|336:32,1,160
328,352,180190,2,0,B|168:352,1,160
40,352,181150,6,0,B|104:264,1,80
40,32,181630,2,0,B|104:120,1,80
160,312,182110,2,0,B|224:224,1,80
160,72,182590,2,0,B|224:160,1,80
256,192,183070,2,0,B|320:144|408:256|493:184,1,240,2|0
256,352,184990,5,0
112,352,185470,1,2
184,232,185950,2,0,B|160:192|192:144,1,80
256,136,186430,2,0,B|256:88|256:40,2,80,2|0|0
328,152,187150,2,0,B|352:192|320:240,1,80,0|2
256,352,187870,1,0
256,280,188110,1,0
256,208,188350,1,2
464,56,188830,6,0,L|496:128|464:224,1,160,0|2
400,208,189550,1,0
328,208,189790,2,0,L|296:136|328:40,1,160,0|2
393,58,190510,1,0
249,58,190990,2,0,L|169:58,1,80,0|2
169,130,191470,2,0,L|87:130,1,80
89,202,191950,2,0,L|-1:202,1,80,0|2
256,288,192670,6,0,B|336:320|424:278,1,160,0|2
411,211,193390,1,0
411,211,193630,2,0,B|411:373,2,160,0|2|0
472,168,194830,1,0
408,136,195070,1,2
344,176,195310,1,0
408,136,195550,2,0,B|408:32,2,80,0|0|2
264,136,196510,6,0,B|200:200,1,80
160,136,196990,2,0,B|96:200,1,80,2|0
152,248,197470,2,0,B|224:320,1,80
256,248,197950,2,0,B|320:312,1,80,2|0
400,192,198670,1,0
400,192,198910,2,0,B|496:192,2,80,2|0|0
328,176,199630,1,0
256,192,199870,1,2
184,208,200110,1,0
112,192,200350,6,0,B|72:112|120:32,2,160,0|2|0
112,264,201550,1,0
112,264,201790,2,0,B|112:344,2,80,2|0|0
184,264,202510,1,0
184,264,202750,2,0,B|184:160,2,80,2|0|0
256,264,203470,1,0
320,296,203710,1,2
384,264,203950,1,0
320,224,204190,2,0,B|320:48,1,160,0|2
248,64,204910,5,0
184,32,205150,1,0
120,64,205390,1,0
184,104,205630,2,0,B|184:272,2,160,2|0|2
328,104,207070,6,0,B|374:82|424:112,1,80
368,168,207550,2,0,B|408:168|440:200,1,80,2|0
384,248,208030,2,0,B|456:288|504:368,2,160,0|2|0
320,288,209230,1,0
256,256,209470,1,2
192,288,209710,1,0
128,248,209950,2,0,B|56:288|8:368,2,160,0|2|0
192,208,211150,1,0
192,136,211390,1,2
440,72,211870,6,0,B|336:72,1,80
256,152,212350,2,0,B|352:152,1,80,2|0
232,232,212830,2,0,B|136:232,1,80
48,312,213310,2,0,B|136:312,1,80,2|0
432,312,214030,5,0
432,312,214270,1,2
432,72,214750,2,0,B|488:16,2,80,2|2|2
