osu file format v5

[General]
AudioFilename: Rozen Maiden Traumend - Kamp.mp3
AudioLeadIn: 0
PreviewTime: 72558
Countdown: 1
SampleSet: Soft
StackLeniency: 0.7
Mode: 0
LetterboxInBreaks: 1

[Metadata]
Title:Kamp
Artist:Kukui
Creator:SeymourLyon
Version:Normal
Source:Rozen Madien OST
Tags:Rozen Maiden Traumend kukui Kamp

[Difficulty]
HPDrainRate:3
CircleSize:3
OverallDifficulty:4
SliderMultiplier:1.4
SliderTickRate:1

[Events]
//Background and Video events
0,0,"suigintou2un1.jpg"
1,1562,"sugintou.avi"
//Break Periods
2,61746,68609
2,85127,97725
//Storyboard Layer 0 (Background)
//Storyboard Layer 1 (Failing)
//Storyboard Layer 2 (Passing)
//Storyboard Layer 3 (Foreground)
//Storyboard Sound Samples
//Background Colour Transformations
3,100,255,255,255

[TimingPoints]
3735,441.176470588235,4,2,0,75,1

[Colours]
Combo1 : 0,208,225
Combo2 : 238,2,9

[HitObjects]
256,192,3719,5,2
368,192,4176,1,2
192,336,5058,2,0,L|48:336,1,140
48,224,5940,1,0
160,224,6382,2,0,L|304:224,1,140
304,336,7264,6,2,L|448:336,1,140
448,112,8587,1,0
352,176,9029,1,0
256,112,9470,1,0
160,48,9911,2,0,L|48:160,1,140
64,256,10793,6,2,L|64:336,2,70
288,256,12117,1,0
176,256,12558,1,0
176,144,12999,1,0
288,144,13440,2,0,L|432:144,1,140
432,256,14323,6,2,L|432:336,2,70
208,256,15646,1,0
304,320,16087,1,0
400,256,16529,1,0
304,192,16970,1,0
208,256,17411,1,0
96,256,17852,6,2,L|96:112|240:112,1,280
464,192,20058,1,0
384,272,20499,1,0
304,192,20940,1,0
192,192,21382,2,2,L|32:192,2,140
272,272,22705,5,0
352,192,23146,1,0
272,112,23587,1,0
80,192,24911,6,2,L|224:192,1,140
336,192,25793,1,0
448,64,27117,2,2,L|368:64,2,70
448,184,27999,1,0
448,304,28440,2,2,L|160:304,2,280
256,80,31970,5,0
256,192,32411,1,0
328,280,32852,2,2,L|184:280,2,140
432,336,34176,6,0,L|432:192,1,140
432,80,35058,1,0
320,80,35499,2,2,L|216:184|312:280,3,280
64,192,39029,5,2
64,80,39470,1,2
176,80,39911,2,0,L|464:80,1,280
464,192,41234,6,0,L|464:272,2,70
352,192,42117,1,0
352,304,42558,2,2,L|208:304|208:160,2,280
464,304,44764,2,4,L|464:80|256:80,1,420
48,80,46970,5,2
48,192,47411,1,0
160,192,47852,1,2
160,304,48293,1,0
272,304,48734,1,2
336,208,49176,1,0
448,208,49617,6,4,L|448:64|160:64,1,420
416,304,52264,5,2
416,80,53146,1,2
224,192,54029,1,2
96,304,55793,5,2
96,80,56676,1,2
288,192,57558,1,2
64,192,58440,1,2
288,192,59323,6,6,L|432:192,5,140
256,192,69911,12,4,72558
64,192,73440,5,0
128,288,73882,1,0
192,192,74323,1,2
256,96,74764,1,0
320,192,75205,1,2
384,288,75646,1,0
448,192,76087,6,4,L|448:48|304:48,1,280
192,48,77411,1,0
288,112,77852,1,2
192,176,78293,1,0
288,240,78734,1,2
192,304,79176,1,0
96,352,79617,6,4,L|96:64,2,280
208,336,81823,1,0
208,224,82264,1,2
208,112,82705,1,0
312,48,83146,6,2,L|312:336,2,280
352,72,99029,6,2,L|432:72,2,70
96,72,100352,2,0,L|240:72,2,140,0|0|0
168,176,101676,1,0
168,304,102117,1,0
272,240,102558,6,2,L|272:320,2,70
96,64,103882,2,2,L|208:176,2,140
96,192,105205,1,0
96,320,105646,1,0
208,256,106087,6,2,L|272:320,2,70
448,336,107411,2,2,L|448:192,2,140
352,256,108735,1,0
352,128,109176,1,0
256,48,109617,6,2,L|256:128,2,70
424,200,110940,1,0
312,200,111382,1,2
200,200,111823,1,0
88,200,112264,2,4,L|88:352,2,140
304,192,114029,6,0,L|448:192,1,140
448,304,114911,2,2,L|304:304,1,140
304,192,115793,2,0,L|448:192,1,140
448,80,116676,2,2,L|160:80,1,280
96,160,117999,5,0
192,224,118440,1,2
96,288,118882,1,0
192,336,119323,1,2
304,336,119764,1,0
416,336,120205,6,4,L|416:192,2,140
304,336,121529,1,0
304,224,121970,1,2
304,112,122411,1,0
416,112,122852,1,2
416,224,123293,1,0
304,224,123735,6,4,L|160:224|160:80,2,280
416,224,125940,1,0
416,112,126382,1,2
416,224,126823,1,0
416,336,127264,2,4,L|96:336,2,280
256,192,129470,12,6,133771
