osu file format v5

[General]
AudioFilename: Rozen Maiden Traumend - Kamp.mp3
AudioLeadIn: 0
PreviewTime: 72558
Countdown: 1
SampleSet: Soft
StackLeniency: 0.4
Mode: 0
LetterboxInBreaks: 1

[Metadata]
Title:Kamp
Artist:Kukui
Creator:SeymourLyon
Version:Hard
Source:Rozen Madien OST
Tags:Rozen Maiden Traumend kukui Kamp

[Difficulty]
HPDrainRate:7
CircleSize:4
OverallDifficulty:7
SliderMultiplier:1.5
SliderTickRate:1

[Events]
//Background and Video events
0,0,"Rozen-Maiden_46651.jpg"
1,1562,"sugintou.avi"
//Break Periods
2,85095,98114
//Storyboard Layer 0 (Background)
//Storyboard Layer 1 (Failing)
//Storyboard Layer 2 (Passing)
//Storyboard Layer 3 (Foreground)
//Storyboard Sound Samples
//Background Colour Transformations
3,100,255,255,255

[TimingPoints]
3735,441.176470588235,4,2,0,70,1

[Colours]
Combo1 : 242,224,6
Combo2 : 255,13,19
Combo3 : 2,213,113
Combo4 : 0,210,234

[HitObjects]
48,192,3735,1,2
96,256,3955,1,2
144,192,4176,1,2
464,192,5058,5,0
368,336,5499,1,0
272,192,5940,1,0
368,48,6382,1,0
464,192,6823,1,0
320,128,7264,5,2
272,192,7484,1,2
320,256,7705,1,2
64,320,8587,6,0,L|64:144,2,150
192,224,9911,1,0
80,112,10352,1,0
224,112,10793,6,2,L|304:112,2,75
112,192,12117,5,0
256,192,12558,1,0
400,192,12999,1,0
400,48,13440,1,0
256,48,13882,1,0
112,48,14323,5,2
160,96,14543,1,2
114,146,14764,1,2
368,304,15646,6,0,L|368:144,2,150
256,200,16970,1,0
368,104,17411,1,0
480,192,17852,6,2,L|480:346|336:346|336:184,1,450
64,320,20058,5,2
144,320,20279,1,2
104,256,20499,1,2
104,104,20940,1,0
256,104,21382,2,2,L|256:256,2,150
392,48,22705,5,0
440,192,23146,1,0
400,336,23587,1,0
56,48,24911,5,2
208,48,25352,1,2
128,176,25793,1,2
56,304,26235,2,0,B|128:262|199:306,1,150
344,304,27117,5,2
288,248,27337,1,2
344,200,27558,1,2
344,48,27999,1,0
192,48,28440,2,2,B|104:56|56:128|40:208|80:304,2,300
344,48,30646,5,0
392,192,31087,1,0
344,336,31529,1,0
192,336,31970,6,2,B|88:192|240:280|256:184|200:120|128:104,2,300
344,336,34176,2,0,B|496:336,1,150
360,256,35058,2,2,B|368:176|424:176|433:260,4,150
256,144,37264,1,0
256,296,37705,1,0
128,64,39029,6,2,B|64:64|24:104|24:152,1,150
40,296,39911,2,0,B|192:296,2,150
184,320,41235,2,2,B|64:192|200:48,1,300
344,56,42558,2,2,B|416:104|416:168|320:136|280:120|264:152|296:192|392:224,2,300
256,176,44764,6,8,B|200:232,6,75
144,72,46529,5,0
56,192,46970,1,2
136,320,47411,1,2
224,192,47852,1,0
304,64,48293,5,0
384,192,48735,1,2
304,320,49176,1,2
224,192,49617,2,2,B|146:113|78:216,4,150
400,64,52264,5,0
104,64,53146,1,0
256,320,54029,2,2,B|256:240,4,75
104,64,55793,5,0
400,64,56676,1,0
256,328,57558,2,2,B|256:240,4,75
103,72,59323,6,0,B|271:72,1,150
403,72,60205,2,2,B|251:72,1,150
103,72,61087,6,0,B|271:72,1,150
403,72,61969,2,2,B|251:72,1,150
136,144,62852,5,0
408,228,63735,2,2,B|408:324,7,75,2|2|2|2|2|2|2|2
408,304,65499,6,4,B|104:304,2,300
256,192,67705,12,4,72117
32,192,72558,6,4,B|192:192,3,150
328,192,74323,2,4,B|488:192,3,150
456,40,76087,6,2,B|456:128,4,75
360,152,77411,1,0
256,40,77852,1,2
152,152,78293,1,2
48,40,78734,1,0
48,192,79176,1,0
144,264,79617,6,2,L|144:344,4,75
256,296,80940,1,0
200,184,81382,1,0
352,184,81823,2,2,B|400:184,2,37.5,2|2|2
352,104,82264,1,0
200,104,82705,1,0
48,104,83146,2,2,B|128:136|8:200|120:248,4,150
192,192,99029,5,2
256,152,99249,1,2
320,192,99470,1,2
112,192,100352,6,0,B|112:152,2,37.5
184,192,100793,2,0,B|184:152,2,37.5
256,192,101234,2,0,B|256:152,2,37.5
328,192,101676,2,0,B|328:152,2,37.5
400,192,102117,2,0,B|400:152,2,37.5
400,264,102558,5,2
336,312,102779,1,2
280,264,102999,1,2
64,56,103882,6,2,B|224:56,2,150
214,56,105205,2,0,B|366:56,1,150
232,128,106087,5,2
296,168,106308,1,2
360,128,106529,1,2
80,240,107411,6,0,B|80:200,2,37.5
152,240,107852,2,0,B|152:192,2,37.5
224,240,108293,2,0,B|224:184,2,37.5
296,240,108734,2,0,B|296:192,2,37.5
368,240,109176,2,0,B|368:192,2,37.5
440,240,109617,6,2,B|440:160,2,75
192,72,110940,5,0
88,176,111382,1,0
240,176,111823,1,0
136,280,112264,1,0
288,280,112705,1,0
416,200,113146,6,2,B|416:288,3,75
416,272,114029,2,0,B|416:312,2,37.5
368,216,114470,2,0,B|416:184,2,37.5
320,152,114911,6,2,B|288:184,2,37.5
272,96,115352,2,2,B|304:72,2,37.5
216,144,115793,6,2,B|192:104,2,37.5
264,200,116234,2,2,B|264:240,2,37.5
336,200,116676,2,2,L|336:280|256:288|176:280|176:200,1,300
176,220,117668,6,2,L|176:176,1,37.5
112,224,117999,2,2,L|112:72,1,150
112,74,118551,2,2,L|161:74,1,37.5
224,72,118882,6,2,L|264:72,2,37.5
224,144,119323,2,2,L|224:192,2,37.5
296,144,119764,2,2,L|296:104,2,37.5
368,144,120205,6,4,L|368:296,2,150
256,40,121529,1,0
208,184,121970,1,0
336,104,122411,1,0
184,104,122852,1,0
304,184,123293,1,0
256,328,123734,6,2,L|256:216,4,75
408,328,125058,1,0
328,200,125499,1,0
256,328,125940,1,0
176,200,126382,1,0
104,328,126823,1,0
256,192,127264,12,4,128587
