osu file format v14

[General]
AudioFilename: Orange (TV Size).mp3
AudioLeadIn: 2000
PreviewTime: 45423
Countdown: 0
SampleSet: Soft
StackLeniency: 0.5
Mode: 0
LetterboxInBreaks: 0
WidescreenStoryboard: 0

[Editor]
DistanceSpacing: 1.67
BeatDivisor: 4
GridSize: 4
TimelineZoom: 1.5

[Metadata]
Title:Orange
TitleUnicode:オレンジ
Artist:Kugimiya Rie. Horie Yui. Kitamura Eri
ArtistUnicode:釘宮理恵・堀江由衣・喜多村英梨
Creator:Doyak
Version:Insane
Source:とらドラ!
Tags:Sonnyc Startrick Taeyang Toradora! Ending ED 2 Aisaka Taiga Kushieda Minori Kawashima Ami
BeatmapID:777263
BeatmapSetID:352714

[Difficulty]
HPDrainRate:6
CircleSize:4
OverallDifficulty:7.2
ApproachRate:8
SliderMultiplier:1.7
SliderTickRate:1

[Events]
//Background and Video events
0,0,"1366x768-09092015052326toradora_wallpaper.jpg",0,0
Video,-900,"Orange.avi"
//Break Periods
//Storyboard Layer 0 (Background)
//Storyboard Layer 1 (Fail)
//Storyboard Layer 2 (Pass)
//Storyboard Layer 3 (Foreground)
//Storyboard Sound Samples

[TimingPoints]
48,428.571428571429,4,2,1,70,1,0
477,428.571428571429,4,2,1,70,1,0
14191,-125,4,2,1,50,0,0
27905,-100,4,2,2,70,0,0
45477,-166.666666666667,4,2,2,60,0,0
46762,-86.9565217391304,4,2,2,85,0,1
60048,-86.9565217391304,4,2,0,50,0,0
60477,-86.9565217391304,4,2,2,85,0,1
74191,-100,4,2,1,70,0,0
81048,-100,4,2,1,50,0,0

[Colours]
Combo1 : 197,163,66
Combo2 : 235,45,115
Combo3 : 247,123,59
Combo4 : 113,186,254

[HitObjects]
165,122,48,6,0,L|207:108,5,28.3333333333333
223,85,477,6,0,P|234:168|297:223,1,170,4|8,0:0|0:0,0:0:0:0:
340,111,1120,1,0,0:0:0:0:
429,246,1334,2,0,P|410:293|384:319,1,85
462,140,1763,1,8,0:0:0:0:
326,234,1977,1,0,0:0:0:0:
326,234,2084,1,0,0:0:0:0:
326,234,2191,6,0,L|241:234,1,85
129,272,2620,1,8,0:0:0:0:
213,125,2834,1,0,0:0:0:0:
253,340,3048,1,0,0:0:0:0:
384,283,3263,2,0,L|473:283,2,85,0|8|0,0:0|0:0|0:0,0:0:0:0:
199,359,3905,6,0,L|218:190,1,170,0|8,0:0|0:0,0:0:0:0:
88,240,4548,1,0,0:0:0:0:
142,83,4763,2,0,P|184:62|224:59,1,85
265,194,5191,1,8,0:0:0:0:
416,121,5405,6,0,L|331:121,1,85
351,290,5834,2,0,L|266:290,1,85,0|8,0:0|0:0,0:0:0:0:
180,151,6263,1,0,0:0:0:0:
115,313,6477,2,0,P|149:341|197:360,2,85,0|0|8,0:0|0:0|0:0,0:0:0:0:
52,175,7120,1,0,0:0:0:0:
46,150,7227,1,0,0:0:0:0:
41,124,7334,6,0,P|116:120|177:36,1,170,4|8,0:0|0:0,0:0:0:0:
74,25,7977,1,0,0:0:0:0:
261,130,8191,2,0,L|244:213,1,85
96,146,8620,1,8,0:0:0:0:
159,321,8834,1,0,0:0:0:0:
159,321,8941,1,0,0:0:0:0:
159,321,9048,6,0,P|200:346|253:349,1,85
325,212,9477,1,8,0:0:0:0:
180,109,9691,1,0,0:0:0:0:
126,283,9905,2,0,L|39:294,2,85,0|0|8,0:0|0:0|0:0,0:0:0:0:
180,109,10548,1,0,0:0:0:0:
255,254,10763,6,0,P|317:293|399:245,1,170,0|8,0:0|0:0,0:0:0:0:
443,70,11405,1,0,0:0:0:0:
316,127,11620,2,0,L|326:227,2,85,0|0|8,0:0|0:0|0:0,0:0:0:0:
199,29,12263,6,0,L|188:129,1,85
42,109,12691,2,0,L|31:209,1,85,0|8,0:0|0:0,0:0:0:0:
118,353,13120,1,0,0:0:0:0:
121,327,13227,1,0,0:0:0:0:
124,301,13334,1,0,0:0:0:0:
206,143,13548,1,0,0:0:0:0:
292,258,13763,1,8,0:0:0:0:
292,258,14191,6,0,L|316:119,1,136,6|0,0:0|0:0,0:0:0:0:
386,71,14834,1,0,0:0:0:0:
386,71,15048,2,0,P|420:69|463:49,2,68
196,75,15905,6,0,L|207:149,1,68,2|0,0:0|0:0,0:0:0:0:
148,209,16334,1,0,0:0:0:0:
73,162,16548,1,0,0:0:0:0:
7,349,17191,2,0,L|40:353,3,34
74,344,17620,6,0,P|138:327|209:345,1,136,2|0,0:0|0:0,0:0:0:0:
283,302,18263,1,0,0:0:0:0:
354,353,18477,2,0,P|369:318|366:273,1,68
382,92,19120,1,0,0:0:0:0:
382,92,19334,6,0,P|418:88|458:106,2,68,2|0|0,0:0|0:0|0:0,0:0:0:0:
337,166,19977,2,0,P|244:186|200:101,1,204
200,102,21048,6,0,L|187:245,1,136,2|0,0:0|0:0,0:0:0:0:
121,296,21691,1,0,0:0:0:0:
105,209,21905,2,0,L|113:133,2,68
292,292,22763,6,0,P|330:300|367:294,1,68,2|0,0:0|0:0,0:0:0:0:
424,237,23191,1,0,0:0:0:0:
424,237,23405,1,0,0:0:0:0:
290,68,24048,2,0,L|292:108,3,34
277,133,24477,6,0,P|219:177|160:169,1,136,2|0,0:0|0:0,0:0:0:0:
91,112,25120,1,0,0:0:0:0:
45,219,25334,2,0,L|38:296,2,68
256,41,26191,5,10,0:0:0:0:
333,325,26620,1,8,0:0:0:0:
422,265,26834,1,0,0:0:0:0:
429,231,26941,1,0,0:0:0:0:
436,197,27048,1,8,0:0:0:0:
115,227,27477,1,8,0:0:0:0:
115,227,27905,6,0,P|111:183|123:138,1,85,4|0,0:0|0:0,0:0:0:0:
186,55,28334,1,8,0:0:0:0:
258,198,28548,1,0,0:0:0:0:
258,198,28655,1,0,0:0:0:0:
258,198,28763,2,0,L|354:198,1,85
410,90,29191,1,8,0:0:0:0:
391,315,29405,6,0,L|306:315,1,85
173,198,29834,2,0,L|258:198,1,85,0|8,0:0|0:0,0:0:0:0:
125,315,30263,2,0,L|40:315,2,85
277,367,30905,1,8,0:0:0:0:
330,214,31120,1,0,0:0:0:0:
177,162,31334,6,0,P|166:209|173:256,1,85
250,90,31763,1,8,0:0:0:0:
302,252,31977,1,0,0:0:0:0:
430,195,32191,2,0,P|478:198|520:222,1,85
444,326,32620,1,8,0:0:0:0:
278,284,32834,6,0,L|187:284,1,85
117,129,33263,2,0,L|202:129,1,85,0|8,0:0|0:0,0:0:0:0:
354,129,33691,1,0,0:0:0:0:
278,284,33905,1,0,0:0:0:0:
432,284,34120,1,0,0:0:0:0:
286,192,34334,2,0,P|243:199|200:237,1,85,8|0,0:0|0:0,0:0:0:0:
96,332,34763,6,0,L|86:162,1,170,4|8,0:0|0:0,0:0:0:0:
133,58,35405,1,0,0:0:0:0:
280,107,35620,2,0,L|285:191,1,85
391,147,36048,1,8,0:0:0:0:
350,300,36263,6,0,P|311:317|262:316,1,85
92,259,36691,1,0,0:0:0:0:
164,167,36905,2,0,L|164:75,1,85,8|0,0:0|0:0,0:0:0:0:
264,232,37334,2,0,L|264:317,1,85
335,134,37763,1,8,0:0:0:0:
264,317,37977,6,0,P|198:329|114:266,1,170
298,182,38620,1,8,0:0:0:0:
391,258,38834,1,0,0:0:0:0:
391,258,38941,1,0,0:0:0:0:
391,258,39048,1,0,0:0:0:0:
432,159,39263,2,0,P|459:121|488:97,2,85,0|8|0,0:0|0:0|0:0,0:0:0:0:
243,250,39905,6,0,P|215:209|213:160,1,85
124,79,40334,1,8,0:0:0:0:
59,166,40548,1,0,0:0:0:0:
57,191,40655,1,0,0:0:0:0:
55,216,40763,1,0,0:0:0:0:
53,241,40870,1,0,0:0:0:0:
51,266,40978,1,0,0:0:0:0:
124,79,41191,1,8,0:0:0:0:
124,79,41620,6,0,P|164:100|217:94,1,85
337,32,42048,1,8,0:0:0:0:
420,145,42263,1,0,0:0:0:0:
420,145,42370,1,0,0:0:0:0:
420,145,42477,1,0,0:0:0:0:
403,274,42691,1,0,0:0:0:0:
295,346,42905,2,0,L|273:263,1,85,8|0,0:0|0:0,0:0:0:0:
201,126,43334,5,8,0:0:0:0:
182,109,43441,1,0,0:0:0:0:
158,99,43548,1,0,0:0:0:0:
132,97,43655,1,0,0:0:0:0:
106,104,43763,1,8,0:0:0:0:
86,120,43870,1,0,0:0:0:0:
72,142,43977,1,0,0:0:0:0:
65,167,44084,1,0,0:0:0:0:
69,192,44191,6,0,L|24:186,6,42.5,8|0|0|0|8|0|0,0:0|0:0|0:0|0:0|0:0|0:0|0:0,0:0:0:0:
106,280,45048,5,4,0:0:0:0:
324,198,45263,1,4,0:0:0:0:
295,308,45477,6,0,P|255:340|203:345,2,101.999996887207,2|2|2,0:0|0:0|0:0,0:0:0:0:
295,308,46763,6,0,L|284:209,1,97.7500018644333,4|0,0:0|0:0,0:0:0:0:
225,74,47191,1,8,0:0:0:0:
151,260,47405,1,0,0:0:0:0:
90,142,47620,2,0,P|74:89|80:32,1,97.7500018644333
292,202,48048,2,0,P|307:248|305:296,1,97.7500018644333,8|0,0:0|0:0,0:0:0:0:
151,260,48477,5,0,0:0:0:0:
334,328,48691,2,0,L|435:320,1,97.7500018644333,0|8,0:0|0:0,0:0:0:0:
451,100,49120,1,0,0:0:0:0:
292,202,49334,1,0,0:0:0:0:
261,89,49548,1,0,0:0:0:0:
409,209,49763,1,8,0:0:0:0:
360,25,49977,1,0,0:0:0:0:
353,267,50191,6,0,P|310:290|262:285,1,97.7500018644333
292,202,50620,1,8,0:0:0:0:
190,351,50834,2,0,B|155:310|159:256|188:223|188:223|166:168,1,195.500003728867
30,110,51477,1,8,0:0:0:0:
55,289,51691,6,0,B|151:320|151:247|243:289,1,195.500003728867
416,240,52334,1,8,0:0:0:0:
276,123,52548,1,0,0:0:0:0:
334,276,52763,2,0,L|334:339,2,48.8750009322167
367,79,53191,1,8,0:0:0:0:
367,79,53620,5,0,0:0:0:0:
277,218,53834,2,0,L|179:218,1,97.7500018644333,0|8,0:0|0:0,0:0:0:0:
122,88,54263,1,0,0:0:0:0:
62,301,54477,2,0,P|97:338|146:359,1,97.7500018644333
236,146,54905,1,8,0:0:0:0:
321,290,55120,1,0,0:0:0:0:
151,202,55334,6,0,L|54:202,1,97.7500018644333
262,146,55763,2,0,L|359:146,1,97.7500018644333,8|0,0:0|0:0,0:0:0:0:
247,322,56191,1,0,0:0:0:0:
172,104,56405,1,0,0:0:0:0:
149,322,56620,1,8,0:0:0:0:
262,146,56834,1,0,0:0:0:0:
359,277,57048,6,0,P|411:297|462:295,1,97.7500018644333
435,150,57477,1,8,0:0:0:0:
304,61,57691,2,0,L|283:263,1,195.500003728867
199,346,58334,2,0,L|187:242,1,97.7500018644333,8|0,0:0|0:0,0:0:0:0:
128,72,58763,5,4,0:0:0:0:
72,292,58977,1,4,0:0:0:0:
402,167,59405,5,4,0:0:0:0:
402,167,59834,5,4,0:0:0:0:
146,194,60048,1,4,0:0:0:0:
146,194,60477,6,0,L|174:304,1,97.7500018644333,4|0,0:0|0:0,0:0:0:0:
298,220,60905,1,8,0:0:0:0:
173,108,61120,2,0,P|121:108|81:132,1,97.7500018644333
274,44,61548,1,0,0:0:0:0:
332,222,61763,1,8,0:0:0:0:
500,140,61977,1,0,0:0:0:0:
391,342,62191,6,0,L|293:342,1,97.7500018644333
146,194,62620,1,8,0:0:0:0:
190,309,62834,1,0,0:0:0:0:
366,128,63048,1,0,0:0:0:0:
322,243,63262,1,0,0:0:0:0:
125,168,63477,2,0,L|25:168,1,97.7500018644333,8|0,0:0|0:0,0:0:0:0:
189,308,63905,6,0,P|199:256|235:208,1,97.7500018644333
323,131,64334,1,8,0:0:0:0:
348,309,64548,2,0,P|269:356|189:308,1,195.500003728867
143,72,65191,1,8,0:0:0:0:
93,178,65405,6,0,P|175:185|254:103,1,195.500003728867
409,154,66048,1,8,0:0:0:0:
360,309,66263,1,0,0:0:0:0:
204,265,66477,2,0,L|188:321,2,48.8750009322167
251,110,66905,1,8,0:0:0:0:
390,334,67334,6,0,L|498:334,1,97.7500018644333
409,154,67763,2,0,L|311:154,1,97.7500018644333,8|0,0:0|0:0,0:0:0:0:
243,321,68191,1,0,0:0:0:0:
52,242,68405,1,0,0:0:0:0:
185,192,68620,1,8,0:0:0:0:
110,371,68834,1,0,0:0:0:0:
252,237,69048,6,0,P|299:259|325:307,1,97.7500018644333
424,183,69477,2,0,P|377:161|351:113,1,97.7500018644333,8|0,0:0|0:0,0:0:0:0:
217,60,69905,1,0,0:0:0:0:
185,192,70120,1,0,0:0:0:0:
64,132,70334,1,8,0:0:0:0:
32,264,70549,1,0,0:0:0:0:
220,320,70763,6,0,L|422:307,1,195.500003728867,0|8,0:0|0:0,0:0:0:0:
492,136,71405,2,0,L|296:148,1,195.500003728867
192,288,72048,1,8,0:0:0:0:
145,65,72263,1,0,0:0:0:0:
81,244,72477,6,0,P|73:292|91:348,2,97.7500018644333,0|0|8,0:0|0:0|0:0,0:0:0:0:
129,109,73120,1,0,0:0:0:0:
192,288,73334,2,0,L|299:288,1,97.7500018644333
355,159,73763,2,0,L|257:159,1,97.7500018644333,8|0,0:0|0:0,0:0:0:0:
176,111,74191,6,0,P|165:141|173:199,1,85,2|0,0:0|0:0,0:0:0:0:
90,242,74620,2,0,P|110:266|164:288,1,85,8|0,0:0|0:0,0:0:0:0:
229,348,75048,2,0,L|325:340,1,85
279,253,75477,2,0,L|363:245,1,85,8|0,0:0|0:0,0:0:0:0:
444,199,75905,6,0,P|456:241|444:292,2,85,2|0|8,0:0|0:0|0:0,0:0:0:0:
444,199,76763,1,0,0:0:0:0:
375,135,76977,1,0,0:0:0:0:
289,172,77191,1,8,0:0:0:0:
304,79,77405,1,0,0:0:0:0:
375,135,77620,6,0,P|382:181|359:233,1,85,2|0,0:0|0:0,0:0:0:0:
392,307,78048,2,0,L|303:295,1,85,8|0,0:0|0:0,0:0:0:0:
228,245,78477,2,0,L|139:233,2,85,0|0|8,0:0|0:0|0:0,0:0:0:0:
311,202,79120,1,0,0:0:0:0:
307,295,79334,6,0,P|300:341|286:383,2,85,2|0|8,0:0|0:0|0:0,0:0:0:0:
307,295,80191,1,0,0:0:0:0:
311,202,80405,2,0,P|318:156|332:114,2,85,0|8|0,0:0|0:0|0:0,0:0:0:0:
256,192,81048,12,0,82763,0:0:0:0:
201,165,83620,6,0,P|194:122|182:82,2,85
205,258,84262,1,0,0:0:0:0:
256,192,84477,12,0,86191,0:0:0:0:
