osu file format v14

[General]
AudioFilename: Orange (TV Size).mp3
AudioLeadIn: 2000
PreviewTime: 45423
Countdown: 0
SampleSet: Soft
StackLeniency: 0.7
Mode: 0
LetterboxInBreaks: 0
WidescreenStoryboard: 0

[Editor]
DistanceSpacing: 1.67
BeatDivisor: 4
GridSize: 4
TimelineZoom: 1.5

[Metadata]
Title:Orange
TitleUnicode:オレンジ
Artist:Kugimiya Rie. Horie Yui. Kitamura Eri
ArtistUnicode:釘宮理恵・堀江由衣・喜多村英梨
Creator:Doyak
Version:Easy
Source:とらドラ!
Tags:Sonnyc Startrick Taeyang Toradora! Ending ED 2 Aisaka Taiga Kushieda Minori Kawashima Ami
BeatmapID:778396
BeatmapSetID:352714

[Difficulty]
HPDrainRate:3
CircleSize:3
OverallDifficulty:3
ApproachRate:3
SliderMultiplier:0.999999999999999
SliderTickRate:1

[Events]
//Background and Video events
0,0,"1366x768-09092015052326toradora_wallpaper.jpg",0,0
Video,-900,"Orange.avi"
//Break Periods
//Storyboard Layer 0 (Background)
//Storyboard Layer 1 (Fail)
//Storyboard Layer 2 (Pass)
//Storyboard Layer 3 (Foreground)
//Storyboard Sound Samples

[TimingPoints]
48,428.571428571429,4,2,1,70,1,0
477,428.571428571429,4,2,1,70,1,0
14191,-100,4,2,1,50,0,0
27905,-100,4,2,2,70,0,0
46762,-100,4,2,2,85,0,1
60048,-100,4,2,2,85,0,0
60477,-100,4,2,2,85,0,1
74191,-100,4,2,1,70,0,0
81262,-100,4,2,1,50,0,0

[Colours]
Combo1 : 197,163,66
Combo2 : 235,45,115
Combo3 : 247,123,59
Combo4 : 113,186,254

[HitObjects]
119,277,477,6,0,L|151:69,1,200,4|0,0:0|0:0,0:0:0:0:
237,30,1763,1,8,0:0:0:0:
308,97,2191,2,0,P|352:118|401:115,1,99.9999999999999,0|8,0:0|0:0,0:0:0:0:
497,86,3048,2,0,P|500:135|478:179,1,99.9999999999999,0|8,0:0|0:0,0:0:0:0:
410,252,3905,6,0,L|208:252,1,200
124,304,5191,1,8,0:0:0:0:
89,208,5620,2,0,P|74:160|85:112,2,99.9999999999999,0|8|0,0:0|0:0|0:0,0:0:0:0:
175,158,6905,1,8,0:0:0:0:
272,179,7334,6,0,P|363:178|460:232,1,200,4|0,0:0|0:0,0:0:0:0:
486,324,8620,1,8,0:0:0:0:
388,302,9048,2,0,L|288:302,1,99.9999999999999,0|8,0:0|0:0,0:0:0:0:
212,367,9905,2,0,P|189:322|192:273,1,99.9999999999999,0|8,0:0|0:0,0:0:0:0:
146,184,10763,6,0,P|258:158|318:101,1,200
412,70,12048,2,0,L|412:176,1,99.9999999999999,8|0,0:0|0:0,0:0:0:0:
330,228,12905,2,0,L|330:334,2,99.9999999999999,8|0|8,0:0|0:0|0:0,0:0:0:0:
238,270,14191,6,0,P|149:278|156:187,1,200,2|0,0:0|0:0,0:0:0:0:
314,78,15905,2,0,L|330:234,1,150,2|0,0:0|0:0,0:0:0:0:
80,202,17620,6,0,P|71:112|163:119,1,200,2|0,0:0|0:0,0:0:0:0:
250,291,19334,2,0,L|407:275,1,150,2|0,0:0|0:0,0:0:0:0:
170,174,21048,6,0,P|114:254|125:355,1,200,2|0,0:0|0:0,0:0:0:0:
254,200,22763,2,0,P|235:117|183:87,1,150,2|0,0:0|0:0,0:0:0:0:
219,334,24477,6,0,L|432:334,1,200,2|0,0:0|0:0,0:0:0:0:
465,139,26191,2,0,L|485:42,2,99.9999999999999,10|8|8,0:0|0:0|0:0,0:0:0:0:
446,236,27477,1,8,0:0:0:0:
373,168,27905,6,0,P|323:162|268:171,1,99.9999999999999,4|8,0:0|0:0,0:0:0:0:
198,235,28763,2,0,P|175:190|178:141,1,99.9999999999999,0|8,0:0|0:0,0:0:0:0:
132,52,29620,2,0,L|240:41,2,99.9999999999999,0|8|0,0:0|0:0|0:0,0:0:0:0:
52,112,30905,1,8,0:0:0:0:
92,203,31334,6,0,L|92:318,1,99.9999999999999,0|8,0:0|0:0,0:0:0:0:
183,344,32191,2,0,L|183:244,1,99.9999999999999,0|8,0:0|0:0,0:0:0:0:
274,203,33048,2,0,P|321:206|379:178,2,99.9999999999999,0|8|0,0:0|0:0|0:0,0:0:0:0:
307,108,34334,1,8,0:0:0:0:
391,54,34763,6,0,L|497:85,1,99.9999999999999,4|8,0:0|0:0,0:0:0:0:
460,178,35620,2,0,P|459:230|442:284,1,99.9999999999999,0|8,0:0|0:0,0:0:0:0:
382,353,36477,2,0,P|427:376|476:373,2,99.9999999999999,0|8|0,0:0|0:0|0:0,0:0:0:0:
289,314,37763,1,8,0:0:0:0:
352,237,38191,6,0,P|257:219|192:294,1,200
109,344,39477,1,8,0:0:0:0:
19,296,39905,2,0,P|1:199|20:101,1,200
91,31,41191,1,8,0:0:0:0:
163,101,41620,6,0,P|261:146|354:125,1,200
439,87,42905,1,8,0:0:0:0:
495,169,43334,2,0,L|495:273,2,99.9999999999999,0|8|0,0:0|0:0|0:0,0:0:0:0:
439,87,44619,1,8,0:0:0:0:
395,177,45048,1,4,0:0:0:0:
211,295,46763,6,0,L|110:295,2,99.9999999999999,4|8|0,0:0|0:0|0:0,0:0:0:0:
290,234,48048,1,8,0:0:0:0:
363,165,48477,2,0,P|299:141|272:112,1,99.9999999999999,0|8,0:0|0:0,0:0:0:0:
251,22,49334,1,0,0:0:0:0:
181,93,49763,1,8,0:0:0:0:
84,119,50191,6,0,L|66:14,2,99.9999999999999,0|8|0,0:0|0:0|0:0,0:0:0:0:
104,217,51477,1,8,0:0:0:0:
74,312,51905,2,0,L|184:311,1,99.9999999999999,0|8,0:0|0:0,0:0:0:0:
253,372,52763,2,0,P|273:326|266:276,1,99.9999999999999,0|8,0:0|0:0,0:0:0:0:
226,185,53620,6,0,P|219:135|239:90,2,99.9999999999999,0|8|0,0:0|0:0|0:0,0:0:0:0:
319,149,54905,1,8,0:0:0:0:
396,212,55334,2,0,L|423:317,1,99.9999999999999,0|8,0:0|0:0,0:0:0:0:
342,371,56191,2,0,L|317:274,1,99.9999999999999,0|8,0:0|0:0,0:0:0:0:
237,213,57048,5,0,0:0:0:0:
160,277,57477,2,0,P|111:273|66:246,2,99.9999999999999,8|0|8,0:0|0:0|0:0,0:0:0:0:
237,213,58763,2,0,P|218:141|244:61,2,150,4|4|4,0:0|0:0|0:0,0:0:0:0:
305,285,60477,6,0,L|407:285,2,99.9999999999999,4|8|0,0:0|0:0|0:0,0:0:0:0:
228,350,61763,1,8,0:0:0:0:
169,268,62191,2,0,P|159:207|164:165,1,99.9999999999999,0|8,0:0|0:0,0:0:0:0:
173,69,63048,1,0,0:0:0:0:
82,25,63477,1,8,0:0:0:0:
89,124,63905,6,0,P|39:116|1:83,2,99.9999999999999,0|8|0,0:0|0:0|0:0,0:0:0:0:
173,69,65191,1,8,0:0:0:0:
245,137,65620,2,0,L|266:250,1,99.9999999999999,0|8,0:0|0:0,0:0:0:0:
357,269,66477,2,0,L|338:170,1,99.9999999999999,0|8,0:0|0:0,0:0:0:0:
400,92,67334,6,0,P|459:103|501:95,2,99.9999999999999,0|8|0,0:0|0:0|0:0,0:0:0:0:
313,40,68620,1,8,0:0:0:0:
222,82,69048,2,0,L|203:181,1,99.9999999999999,0|8,0:0|0:0,0:0:0:0:
183,277,69905,1,0,0:0:0:0:
108,210,70334,1,8,0:0:0:0:
183,277,70762,6,0,P|222:308|270:318,1,99.9999999999999,0|8,0:0|0:0,0:0:0:0:
364,282,71620,1,0,0:0:0:0:
453,327,72048,2,0,L|473:222,1,99.9999999999999,8|0,0:0|0:0,0:0:0:0:
436,134,72905,1,8,0:0:0:0:
345,176,73334,2,0,P|261:187|263:83,1,200,0|8,0:0|0:0,0:0:0:0:
87,207,75048,6,0,L|87:317,2,99.9999999999999,8|0|8,0:0|0:0|0:0,0:0:0:0:
255,315,76763,2,0,P|351:300|437:228,1,200,8|8,0:0|0:0,0:0:0:0:
270,117,78477,6,0,L|270:8,2,99.9999999999999,8|0|8,0:0|0:0|0:0,0:0:0:0:
107,233,80191,2,0,P|111:322|200:316,1,200,8|8,0:0|0:0,0:0:0:0:
256,192,81263,12,0,82763,0:0:0:0:
256,192,84477,12,0,86191,0:0:0:0:
