osu file format v11

[General]
AudioFilename: f123.mp3
AudioLeadIn: 1000
PreviewTime: 53777
Countdown: 0
SampleSet: Soft
StackLeniency: 0.7
Mode: 0
LetterboxInBreaks: 0

[Editor]
Bookmarks: 54201,135656
DistanceSpacing: 1
BeatDivisor: 4
GridSize: 4

[Metadata]
Title:Pre-Parade (TV Size)
TitleUnicode:プレパレード (TV Size)
Artist:Kugimiya Rie, Kitamura Eri & Horie Yui
ArtistUnicode:釘宮 理恵、喜多村 英梨&堀江 由衣
Creator:B2IN
Version:Normal
Source:Toradora!
Tags:-Kirito kg2161012 opening taiga
BeatmapID:208762
BeatmapSetID:69158

[Difficulty]
HPDrainRate:4
CircleSize:3
OverallDifficulty:4
ApproachRate:5
SliderMultiplier:0.999999999999999
SliderTickRate:2

[Events]
//Background and Video events
0,0,"bg.jpg"
Video,0,"rie.avi"
//Break Periods
2,51165,52390
//Storyboard Layer 0 (Background)
//Storyboard Layer 1 (Fail)
//Storyboard Layer 2 (Pass)
//Storyboard Layer 3 (Foreground)
//Storyboard Sound Samples
//Background Colour Transformations
3,100,163,162,255

[TimingPoints]
1465,375,4,2,1,73,1,0
4090,-100,4,2,2,50,0,0
4277,-100,4,2,1,73,0,0
7090,-100,4,2,2,50,0,0
7277,-100,4,2,1,73,0,0
10090,-100,4,2,2,50,0,0
10277,-100,4,2,1,73,0,0
13465,-100,4,2,1,73,0,0
19465,-100,4,2,1,73,0,0
23965,-100,4,2,1,73,0,0
43090,-100,4,2,1,75,0,0
53777,-100,4,2,2,75,0,0
53965,375,4,2,1,80,1,1
54340,-100,4,2,3,80,0,1
54433,-100,4,2,1,80,0,1
55090,-100,4,2,2,60,0,1
55183,-100,4,2,1,80,0,1
62590,-100,4,2,2,80,0,1
62777,-100,4,2,1,80,0,1
64090,-100,4,2,2,80,0,1
64277,-100,4,2,1,80,0,1
65215,-100,4,2,1,80,0,0
65777,-100,4,2,2,80,0,0
65965,-100,4,2,1,80,0,1
67090,-100,4,2,2,60,0,1
67277,-100,4,2,1,80,0,1
67840,-100,4,2,3,80,0,1
67933,-100,4,2,1,80,0,1
73090,-100,4,2,2,60,0,1
73465,-100,4,2,1,80,0,1
74965,375,4,2,1,80,1,1
79277,-100,4,2,1,80,0,0
86590,-100,4,2,2,80,0,0

[Colours]
Combo1 : 219,109,0
Combo2 : 236,0,118
Combo3 : 0,128,192

[HitObjects]
28,192,1465,2,0,P|60:156|112:136,1,99.9999999999999,0|8,0:0|0:0,0:0:0
116,236,2215,2,0,P|148:272|195:291,1,99.9999999999999,0|8,0:0|0:0,0:0:0
244,300,2777,2,0,P|324:300|392:264,1,150,0|8,0:0|0:0,0:0:0
420,176,3715,1,0,0:0:0
356,100,4090,1,8,0:0:0
256,120,4465,6,0,P|152:120,1,99.9999999999999,0|8,0:0|0:0,0:0:0
68,72,5215,2,0,P|56:120|68:172,1,99.9999999999999,0|8,0:0|0:0,0:0:0
84,216,5777,2,0,P|124:276|196:296,1,150,0|8,0:0|0:0,0:0:0
256,216,6715,1,0,0:0:0
312,296,7090,1,8,0:0:0
408,264,7465,6,0,P|420:164,1,99.9999999999999,2|8,0:0|0:0,0:0:0
492,92,8215,2,0,P|448:67|395:66,1,99.9999999999999,0|8,0:0|0:0,0:0:0
348,68,8777,2,0,P|276:88|236:148,1,150,0|8,0:0|0:0,0:0:0
256,248,9715,1,0,0:0:0
160,280,10090,1,8,0:0:0
72,228,10465,6,0,P|72:116,1,99.9999999999999,0|8,0:0|0:0,0:0:0
148,64,11215,2,0,P|196:52|248:64,1,99.9999999999999,0|8,0:0|0:0,0:0:0
288,84,11777,2,0,P|334:142|331:214,1,150,0|8,0:0|0:0,0:0:0
256,280,12715,1,0,0:0:0
256,280,13090,1,8,0:0:0
180,344,13465,6,0,P|60:324,1,99.9999999999999,4|8,0:0|0:0,0:0:0
124,236,14215,2,0,P|4:216,2,99.9999999999999,0|8|0,0:0|0:0|0:0,0:0:0
216,192,15340,5,8,0:0:0
316,172,15715,2,0,P|436:152,2,99.9999999999999,0|8|0,0:0|0:0|0:0,0:0:0
216,192,16840,5,8,0:0:0
128,144,17215,2,0,P|8:124,2,99.9999999999999,0|8|0,0:0|0:0|0:0,0:0:0
216,192,18340,5,8,0:0:0
280,116,18715,1,2,0:0:0
364,172,19090,1,10,0:0:0
436,244,19465,6,0,P|435:293|436:352,1,99.9999999999999,4|8,0:0|0:0,0:0:0
344,304,20215,2,0,P|312:268|260:248,2,99.9999999999999,0|8|0,0:0|0:0|0:0,0:0:0
256,348,21340,5,8,0:0:0
156,332,21715,2,0,P|108:312|76:276,2,99.9999999999999,0|8|0,0:0|0:0|0:0,0:0:0
164,232,22840,5,8,0:0:0
156,132,23215,2,0,P|108:152|76:188,1,99.9999999999999,0|8,0:0|0:0,0:0:0
164,232,23965,6,0,P|264:220|264:260|364:232,1,200,2|2,0:0|0:0,0:0:0
452,188,25090,1,2,0:0:0
436,88,25465,6,0,P|391:107|360:146,1,99.9999999999999,4|8,0:0|0:0,0:0:0
276,200,26215,2,0,P|227:206|181:188,1,99.9999999999999,0|8,0:0|0:0,0:0:0
148,152,26777,2,0,P|182:86|252:64,1,150,0|8,0:0|0:0,0:0:0
328,128,27715,1,0,0:0:0
412,72,28090,1,8,0:0:0
480,148,28465,6,0,P|444:248,1,99.9999999999999,0|8,0:0|0:0,0:0:0
408,336,29215,2,0,P|361:317|329:281,1,99.9999999999999,0|8,0:0|0:0,0:0:0
308,236,29777,2,0,P|234:229|177:275,1,150,0|8,0:0|0:0,0:0:0
96,332,30715,1,0,0:0:0
32,256,31090,1,8,0:0:0
48,156,31465,6,0,P|80:120|128:104,1,99.9999999999999,0|8,0:0|0:0,0:0:0
212,160,32215,2,0,P|244:196|292:212,1,99.9999999999999,0|8,0:0|0:0,0:0:0
344,212,32777,2,0,P|407:174|425:103,1,150,0|8,0:0|0:0,0:0:0
368,24,33715,1,0,0:0:0
316,108,34090,1,8,0:0:0
220,80,34465,6,0,P|116:80,1,99.9999999999999,0|8,0:0|0:0,0:0:0
68,164,35215,2,0,P|172:164,1,99.9999999999999,0|8,0:0|0:0,0:0:0
216,164,35777,2,0,P|272:215|253:295,1,150,0|8,0:0|0:0,0:0:0
176,332,36715,1,0,0:0:0
88,288,37090,1,8,0:0:0
48,196,37465,6,0,P|48:84,1,99.9999999999999,4|8,0:0|0:0,0:0:0
148,112,38215,2,0,P|196:124|248:112,1,99.9999999999999,0|8,0:0|0:0,0:0:0
292,92,38777,2,0,P|364:72|436:92,1,150,0|8,0:0|0:0,0:0:0
492,172,39715,1,0,0:0:0
400,216,40090,1,8,0:0:0
468,288,40465,6,0,P|396:356,1,99.9999999999999,2|10,0:0|0:1,0:0:0
324,288,41215,2,0,P|252:356,1,99.9999999999999,2|10,0:0|0:1,0:0:0
192,276,41965,6,0,P|176:291|120:344,1,99.9999999999999,2|10,0:0|0:1,0:0:0
36,288,42715,1,2,0:1:0
36,288,43090,1,10,0:1:0
80,200,43465,6,0,P|112:164|164:144,1,99.9999999999999,4|8,0:0|0:0,0:0:0
172,244,44215,2,0,P|219:224|251:188,1,99.9999999999999,0|8,0:0|0:0,0:0:0
252,140,44777,2,0,P|324:120|396:140,1,150,0|8,0:0|0:0,0:0:0
372,236,45715,2,0,P|324:248|272:236,1,99.9999999999999,0|8,0:0|0:0,0:0:0
188,192,46465,5,4,0:0:0
112,256,46840,1,8,0:0:0
188,320,47215,2,0,P|228:348|288:352,1,99.9999999999999,0|8,0:0|0:0,0:0:0
324,332,47777,2,0,P|387:292|462:292,1,150,0|8,0:0|0:0,0:0:0
256,192,48527,12,0,50965,0:0:0
64,104,53590,5,8,0:0:0
64,104,53965,6,0,P|144:56|256:76,1,200,4|0,0:0|0:0,0:0:0
312,144,55090,1,10,0:0:0
412,144,55465,2,0,P|464:136|504:100,2,99.9999999999999,0|8|0,0:0|0:0|0:0,0:0:0
420,44,56590,5,8,0:0:0
420,44,56777,2,0,P|268:44,1,150,4|8,0:0|0:0,0:0:0
176,76,57715,2,0,P|164:124|176:176,1,99.9999999999999,0|8,0:0|0:0,0:0:0
260,224,58465,2,0,P|272:176|260:124,2,99.9999999999999,0|8|0,0:0|0:0|0:0,0:0:0
168,264,59590,5,8,0:0:0
168,264,59777,2,0,P|4:264,1,150,4|8,0:0|0:0,0:0:0
64,356,60715,2,0,P|168:356,1,99.9999999999999,0|8,0:0|0:0,0:0:0
256,316,61465,1,0,0:0:0
348,356,61840,2,0,P|448:356,2,99.9999999999999,8|0|10,0:0|0:0|0:0,0:0:0
300,352,62777,6,0,P|272:280|292:208,1,150,4|8,0:0|0:0,0:0:0
384,176,63715,2,0,P|352:132|312:112,1,99.9999999999999,0|10,0:0|0:0,0:0:0
264,120,64277,6,0,P|200:148|120:128,1,150,4|8,0:0|0:0,0:0:0
40,76,65215,2,0,P|24:124|36:180,1,99.9999999999999,0|8,0:0|0:0,0:0:0
52,220,65777,6,0,P|100:280|172:300,1,150,4|8,0:0|0:0,0:0:0
256,252,66715,1,0,0:0:0
344,300,67090,1,10,0:0:0
436,272,67465,2,0,P|452:180|432:68,1,200
336,64,68590,5,8,0:0:0
336,64,68777,2,0,P|288:64|288:64|232:88|232:88|176:88,1,150,4|8,0:0|0:0,0:0:0
100,128,69715,2,0,P|88:176|100:228,1,99.9999999999999,0|8,0:0|0:0,0:0:0
184,276,70465,2,0,P|196:228|184:176,2,99.9999999999999,0|8|0,0:0|0:0|0:0,0:0:0
256,348,71590,5,8,0:0:0
256,348,71777,2,0,P|328:348|328:348|404:312,1,150,4|8,0:0|0:0,0:0:0
436,224,72715,2,0,P|380:224|380:224|336:240,1,99.9999999999999,0|10,0:0|0:0,0:0:0
240,244,73465,1,0,0:0:0
152,196,73840,1,8,0:0:0
188,104,74215,1,0,0:0:0
288,104,74590,5,8,0:0:0
288,104,74777,2,0,P|440:104,1,150,4|8,0:0|0:0,0:0:0
488,192,75715,2,0,P|376:192,1,99.9999999999999,0|8,0:0|0:0,0:0:0
340,196,76277,6,0,P|262:216|219:279,1,150,4|8,0:0|0:0,0:0:0
148,336,77215,2,0,P|104:324|72:276,1,99.9999999999999,0|8,0:0|0:0,0:0:0
72,232,77777,6,0,P|80:160|60:160|72:80,1,150,4|8,0:0|0:0,0:0:0
164,48,78715,2,0,P|240:56|296:116,1,150,0|0,0:0|0:0,0:0:0
344,192,79652,2,0,P|400:184,3,50,4|0|4|0,0:0|0:0|0:0|0:0,0:0:0
372,284,80590,5,0,0:0:0
372,284,80777,2,0,P|296:272|252:208,1,150,4|8,0:0|0:0,0:0:0
216,124,81715,2,0,P|176:152|156:200,1,99.9999999999999,0|8,0:0|0:0,0:0:0
156,248,82277,6,0,P|120:304|36:316,1,150,4|8,0:0|0:0,0:0:0
32,220,83215,2,0,P|32:112,1,99.9999999999999,0|8,0:0|0:0,0:0:0
32,72,83777,6,0,P|104:52|176:72,1,150,4|8,0:0|0:0,0:0:0
256,132,84715,1,0,0:0:0
356,112,85090,1,8,0:0:0
356,112,85277,1,0,0:0:0
416,192,85652,2,4,P|348:220,3,50,4|0|4|0,0:0|0:0|0:0|0:0,0:0:0
272,224,86590,5,8,0:0:0
