osu file format v11

[General]
AudioFilename: f123.mp3
AudioLeadIn: 1000
PreviewTime: 53777
Countdown: 0
SampleSet: Soft
StackLeniency: 0.7
Mode: 0
LetterboxInBreaks: 0

[Editor]
Bookmarks: 54201,135656
DistanceSpacing: 1.3
BeatDivisor: 4
GridSize: 4

[Metadata]
Title:Pre-Parade (TV Size)
TitleUnicode:プレパレード (TV Size)
Artist:Kugimiya Rie, Kitamura Eri & Horie Yui
ArtistUnicode:釘宮 理恵、喜多村 英梨&堀江 由衣
Creator:B2IN
Version:Hard
Source:Toradora!
Tags:-Kirito kg2161012 opening taiga
BeatmapID:207132
BeatmapSetID:69158

[Difficulty]
HPDrainRate:6
CircleSize:4
OverallDifficulty:6
ApproachRate:7
SliderMultiplier:1.65
SliderTickRate:2

[Events]
//Background and Video events
0,0,"bg.jpg"
Video,0,"rie.avi"
//Break Periods
//Storyboard Layer 0 (Background)
//Storyboard Layer 1 (Fail)
//Storyboard Layer 2 (Pass)
//Storyboard Layer 3 (Foreground)
//Storyboard Sound Samples
//Background Colour Transformations
3,100,163,162,255

[TimingPoints]
1465,375,4,2,1,73,1,0
4090,-100,4,2,2,50,0,0
4277,-100,4,2,1,73,0,0
7090,-100,4,2,2,50,0,0
7277,-100,4,2,1,73,0,0
10090,-100,4,2,2,50,0,0
10277,-100,4,2,1,73,0,0
13465,-100,4,2,1,73,0,0
19465,-100,4,2,1,73,0,0
23965,-100,4,2,1,73,0,0
24715,-100,4,2,1,75,0,0
40277,-100,4,2,1,50,0,0
40465,-100,4,2,1,75,0,0
40652,-100,4,2,1,50,0,0
40840,-100,4,2,1,75,0,0
41027,-100,4,2,1,50,0,0
41215,-100,4,2,1,75,0,0
41402,-100,4,2,1,50,0,0
41590,-100,4,2,1,75,0,0
41777,-100,4,2,1,50,0,0
41965,-100,4,2,1,75,0,0
42152,-100,4,2,1,50,0,0
42340,-100,4,2,1,75,0,0
42527,-100,4,2,1,50,0,0
43090,-100,4,2,1,75,0,0
52090,-100,4,2,1,40,0,0
53777,-100,4,2,2,75,0,0
53965,375,4,2,1,80,1,1
55090,-100,4,2,2,60,0,1
55183,-100,4,2,1,80,0,1
62590,-100,4,2,2,80,0,1
62777,-100,4,2,1,80,0,1
63902,-100,4,2,2,60,0,1
64090,-100,4,2,2,80,0,1
64277,-100,4,2,1,80,0,1
65215,-100,4,2,1,80,0,0
65402,-100,4,2,2,60,0,0
65590,-100,4,2,2,80,0,0
65777,-100,4,2,2,80,0,0
65965,-100,4,2,1,80,0,1
67090,-100,4,2,2,60,0,1
67277,-100,4,2,1,80,0,1
73090,-100,4,2,2,60,0,1
73277,-100,4,2,1,80,0,1
74965,375,4,2,1,80,1,1
78902,-100,4,2,2,60,0,1
79090,-100,4,2,2,80,0,1
79277,-100,4,2,1,80,0,0
79277,-100,4,2,1,80,0,0
86590,-100,4,2,2,80,0,0

[Colours]
Combo1 : 219,109,0
Combo2 : 236,0,118
Combo3 : 0,128,192

[HitObjects]
176,275,1465,2,0,P|256:292|335:275,1,165,0|8,0:0|0:0,0:0:0
335,108,2215,2,0,P|256:91|176:108,1,165,0|8,0:0|0:0,0:0:0
96,172,2777,6,0,P|175:189|255:172,1,165,0|0,0:0|0:0,0:0:0
336,228,3340,1,8,0:0:0
424,188,3527,2,0,P|463:178|503:190,2,82.5
464,276,4090,1,8,0:0:0
280,352,4465,6,0,P|239:345|203:327,1,82.5
104,312,4840,2,0,P|63:318|27:336,1,82.5,8|0,0:0|0:0,0:0:0
40,240,5215,1,0,0:0:0
40,240,5402,1,0,0:0:0
100,160,5590,1,8,0:0:0
176,220,5777,6,0,P|255:237|335:220,1,165,0|0,0:0|0:0,0:0:0
336,120,6340,2,0,P|256:102|176:120,2,165,8|0|8,0:0|0:0|0:0,0:0:0
464,272,7465,6,0,P|412:272|412:272|364:300|300:288,1,165,2|8,0:0|0:0,0:0:0
48,272,8215,2,0,P|100:272|100:272|148:300|212:288,1,165,0|8,0:0|0:0,0:0:0
335,196,8777,6,0,P|255:178|176:196,1,165
256,308,9340,1,8,0:0:0
336,348,9527,2,0,P|348:308|336:268,1,82.5
174,269,9902,2,0,P|164:308|176:348,1,82.5,0|8,0:0|0:0,0:0:0
336,348,10465,6,0,P|416:365|495:348,1,165,0|8,0:0|0:0,0:0:0
472,252,11027,2,0,P|476:212|472:164,1,82.5
380,200,11402,1,0,0:0:0
308,268,11590,1,8,0:0:0
232,336,11777,6,0,P|192:268|232:200,1,165,0|0,0:0|0:0,0:0:0
308,268,12340,2,0,P|400:268,1,82.5,8|0,0:0|0:0,0:0:0
480,308,12715,2,0,P|492:268|480:228,1,82.5
408,160,13090,1,8,0:0:0
212,164,13465,6,0,P|220:244|163:307,1,165,4|8,0:0|0:0,0:0:0
120,112,14215,2,0,P|182:61|268:72,1,165,0|8,0:0|0:0,0:0:0
352,112,14777,6,0,P|369:192|352:272,1,165,0|0,0:0|0:0,0:0:0
260,236,15340,2,0,P|252:192|260:152,1,82.5,8|0,0:0|0:0,0:0:0
168,192,15715,2,0,P|88:209|9:192,1,165,0|8,0:0|0:0,0:0:0
76,120,16277,6,0,P|93:200|76:280,1,165,0|0,0:0|0:0,0:0:0
168,316,16840,2,0,P|208:328|248:316,1,82.5,8|0,0:0|0:0,0:0:0
336,280,17215,2,0,P|319:200|336:120,1,165,0|8,0:0|0:0,0:0:0
436,120,17777,6,0,P|453:200|436:280,1,165,0|0,0:0|0:0,0:0:0
336,280,18340,2,0,P|296:292|256:280,1,82.5,8|0,0:0|0:0,0:0:0
160,296,18715,1,2,0:0:0
160,296,18902,1,0,0:0:0
76,248,19090,1,10,0:0:0
76,248,19277,1,0,0:0:0
108,156,19465,6,0,P|180:120|196:40,1,165,4|8,0:0|0:0,0:0:0
404,156,20215,2,0,P|332:120|316:40,1,165,0|8,0:0|0:0,0:0:0
256,136,20777,6,0,P|256:300,1,165
344,332,21340,2,0,P|383:342|423:330,1,82.5,8|0,0:0|0:0,0:0:0
460,240,21715,2,0,P|421:230|381:242,1,82.5
296,196,22090,1,8,0:0:0
212,248,22277,6,0,P|132:265|53:248,1,165,0|0,0:0|0:0,0:0:0
96,160,22840,2,0,P|96:68,1,82.5,8|0,0:0|0:0,0:0:0
176,20,23215,1,0,0:0:0
256,80,23402,1,0,0:0:0
336,20,23590,1,8,0:0:0
256,80,23777,1,0,0:0:0
132,128,23965,6,0,P|256:220|380:128,1,330,2|2,0:0|0:0,0:0:0
256,36,25090,1,2,0:0:0
256,256,25465,6,0,P|256:348,2,82.5,4|0|8,0:0|0:0|0:0,0:0:0
256,156,26027,1,0,0:0:0
312,76,26215,2,0,P|352:64|392:76,1,82.5
352,168,26590,1,8,0:0:0
256,156,26777,6,0,P|88:156,1,165
32,236,27340,2,0,P|200:236,1,165,8|0,0:0|0:0,0:0:0
372,328,28090,1,8,0:0:0
440,144,28465,6,0,P|368:188,1,82.5
288,132,28840,2,0,P|216:176,1,82.5,8|0,0:0|0:0,0:0:0
120,196,29215,2,0,P|135:234|169:259,1,82.5
256,304,29590,1,8,0:0:0
344,258,29777,6,0,P|376:234|392:196,2,82.5
256,304,30340,2,0,P|256:212,1,82.5,8|0,0:0|0:0,0:0:0
256,124,30715,1,0,0:0:0
256,124,30902,1,0,0:0:0
188,52,31090,1,8,0:0:0
92,80,31277,1,0,0:0:0
64,176,31465,6,0,P|60:256|116:316,1,165,0|8,0:0|0:0,0:0:0
196,372,32027,1,0,0:0:0
292,344,32215,2,0,P|332:332|372:332,1,82.5
444,260,32590,1,8,0:0:0
388,180,32777,6,0,P|311:209|229:204,1,165,0|0,0:0|0:0,0:0:0
212,108,33340,2,0,P|288:78|370:83,1,165,8|0,0:0|0:0,0:0:0
444,260,34090,1,8,0:0:0
256,324,34465,6,0,P|215:331|179:350,1,82.5
104,284,34840,2,0,P|64:296|24:284,1,82.5,8|0,0:0|0:0,0:0:0
64,192,35215,2,0,P|104:180|144:192,1,82.5
240,196,35590,1,8,0:0:0
332,236,35777,6,0,P|344:196|332:156,2,82.5
256,300,36340,1,8,0:0:0
164,268,36527,2,0,P|84:256|8:292,1,165,0|2,0:0|0:0,0:0:0
92,344,37090,2,0,P|128:364,2,41.25,8|8|8,0:0|0:0|0:0,0:0:0
10,289,37465,6,0,P|10:201,1,82.5,4|0,0:0|0:0,0:0:0
108,192,37840,2,0,P|108:104,1,82.5,8|0,0:0|0:0,0:0:0
208,116,38215,2,0,P|208:28,1,82.5
300,72,38590,1,8,0:0:0
392,108,38777,5,0,0:0:0
392,108,38965,2,0,P|436:104|476:84,1,82.5
392,108,39340,2,0,P|390:189|423:265,2,165,8|0|8,0:0|0:0|0:0,0:0:0
296,128,40277,6,0,P|221:94|139:95,1,165,2|2,0:1|0:1,0:0:0
72,168,40840,1,8,0:0:0
104,260,41027,2,0,P|178:293|260:292,1,165,2|2,0:1|0:1,0:0:0
352,256,41590,2,0,P|392:236|440:232,1,82.5,8|2,0:0|0:1,0:0:0
492,156,41965,5,0,0:0:0
496,256,42152,2,0,P|496:344,2,82.5,2|8|2,0:1|0:0|0:1,0:0:0
492,156,42715,2,0,P|396:140,1,82.5,2|0,0:1|0:0,0:0:0
364,56,43090,2,0,P|282:42,1,82.5,10|0,0:1|0:0,0:0:0
260,140,43465,6,0,P|240:224,2,82.5,4|0|8,0:0|0:0|0:0,0:0:0
360,148,44027,1,0,0:0:0
416,228,44215,2,0,P|504:228,1,82.5
452,316,44590,2,0,P|364:316,1,82.5,8|0,0:0|0:0,0:0:0
288,256,44965,6,0,P|230:313|153:341,1,165,0|8,0:0|0:0,0:0:0
56,324,45527,1,0,0:0:0
92,128,45902,1,0,0:0:0
92,128,46090,1,8,0:0:0
92,128,46277,1,0,0:0:0
188,103,46465,6,0,P|256:63|324:103,1,165,4|8,0:0|0:0,0:0:0
256,317,47215,2,0,P|256:152,1,165,0|8,0:0|0:0,0:0:0
256,52,47777,1,0,0:0:0
428,148,48152,5,0,0:0:0
444,248,48340,1,8,0:0:0
352,216,48527,1,2,0:0:0
256,192,48715,12,0,50590,0:0:0
256,256,50965,6,0,P|212:256|212:256|172:276,1,82.5,2|0,0:0|0:0,0:0:0
256,256,51340,2,0,P|300:256|300:256|340:276,1,82.5,2|0,0:0|0:0,0:0:0
256,356,51715,1,2,0:0:0
256,356,51902,1,0,0:0:0
256,192,52090,12,8,53590,0:0:0
56,112,53965,6,0,P|124:160|212:160,1,165,4|8,0:0|0:0,0:0:0
292,120,54527,1,0,0:0:0
384,88,54715,2,0,P|424:84|488:84,1,82.5
428,176,55090,2,0,P|407:210|380:268,1,82.5,10|0,0:0|0:0,0:0:0
300,292,55465,6,0,P|332:360|408:344,1,165,0|8,0:0|0:0,0:0:0
452,256,56027,2,0,P|420:188|344:204,1,165
344,204,56590,1,8,0:0:0
248,224,56777,6,0,P|148:240|184:216|80:224,1,165,4|0,0:0|0:0,0:0:0
36,136,57340,2,0,P|76:128|116:112,1,82.5,8|0,0:0|0:0,0:0:0
212,120,57715,2,0,P|252:128|292:144,1,82.5
388,116,58090,1,8,0:0:0
388,116,58277,1,0,0:0:0
464,180,58465,6,0,P|472:260|420:328,1,165,0|8,0:0|0:0,0:0:0
324,328,59027,2,0,P|264:273|179:274,1,165
228,364,59590,1,8,0:0:0
324,328,59777,6,0,P|324:152,1,165,4|0,0:0|0:0,0:0:0
256,92,60340,2,0,P|208:104,2,41.25,8|0|0,0:0|0:0|0:0,0:0:0
380,96,60715,2,0,P|420:80,2,41.25
276,168,61090,2,0,P|224:180,2,41.25,8|0|0,0:0|0:0|0:0,0:0:0
224,252,61465,6,0,P|140:252,1,82.5,0|0,0:0|0:0,0:0:0
84,332,61840,2,0,P|168:332,2,82.5,8|0|0,0:0|0:0|0:0,0:0:0
20,256,62402,1,8,0:0:0
20,256,62590,1,10,0:0:0
48,160,62777,6,0,P|128:143|207:160,1,165,4|0,0:0|0:0,0:0:0
256,248,63340,2,0,P|256:340,2,82.5,8|0|0,0:0|0:0|0:0,0:0:0
208,160,63902,1,8,0:0:0
208,160,64090,1,10,0:0:0
303,160,64277,6,0,P|384:143|464:160,1,165,4|0,0:0|0:0,0:0:0
424,252,64840,2,0,P|385:262|345:250,2,82.5,8|0|0,0:0|0:0|0:0,0:0:0
464,160,65402,1,8,0:0:0
464,160,65590,1,10,0:0:0
412,76,65777,6,0,P|352:76|352:76|312:60|312:60|248:60,1,165,4|0,0:0|0:0,0:0:0
152,68,66340,2,0,P|142:107|154:147,1,82.5,8|0,0:0|0:0,0:0:0
250,259,66715,2,0,P|260:220|248:180,1,82.5
160,224,67090,1,10,0:0:0
160,224,67277,1,0,0:0:0
156,324,67465,6,0,P|224:372|312:364,1,165,0|8,0:0|0:0,0:0:0
396,340,68027,2,0,P|458:292|480:211,1,165
404,144,68590,1,8,0:0:0
308,172,68777,6,0,P|224:180|140:184,1,165,4|0,0:0|0:0,0:0:0
48,160,69340,1,8,0:0:0
48,160,69527,1,0,0:0:0
120,92,69715,2,0,P|88:0,1,82.5
192,32,70090,2,0,P|276:39,1,82.5,8|0,0:0|0:0,0:0:0
386,139,70465,6,0,P|304:132,1,82.5
208,152,70840,1,8,0:0:0
260,236,71027,2,0,P|248:324|188:360,1,165
168,264,71590,1,8,0:0:0
324,348,71777,6,0,P|384:360|432:332|432:332|492:340,1,165,4|0,0:0|0:0,0:0:0
476,240,72340,2,0,P|380:228,1,82.5,8|0,0:0|0:0,0:0:0
368,88,72715,2,0,P|435:137,1,82.5
343,173,73090,1,10,0:0:0
343,173,73277,1,0,0:0:0
256,124,73465,6,0,P|172:140,1,82.5
174,244,73840,2,0,P|256:260,1,82.5,8|0,0:0|0:0,0:0:0
336,320,74215,2,0,P|380:308|424:304,2,82.5,0|0|8,0:0|0:0|0:0,0:0:0
236,332,74777,6,0,P|260:257|331:209,1,165,4|0,0:0|0:0,0:0:0
428,208,75340,1,8,0:0:0
428,208,75527,1,0,0:0:0
460,116,75715,2,0,P|472:72|476:28,2,82.5,0|0|8,0:0|0:0|0:0,0:0:0
360,100,76277,6,0,P|298:50|212:49,1,165,4|0,0:0|0:0,0:0:0
120,76,76840,1,8,0:0:0
120,76,77027,1,0,0:0:0
184,152,77215,2,0,P|196:192|200:240,2,82.5,0|0|8,0:0|0:0|0:0,0:0:0
88,136,77777,6,0,P|84:220|128:300,1,165,4|0,0:0|0:0,0:0:0
216,316,78340,2,0,P|316:304,1,82.5,8|0,0:0|0:0,0:0:0
348,220,78715,2,0,P|248:232,1,82.5
168,212,79090,1,8,0:0:0
168,212,79277,1,0,0:0:0
256,36,79652,5,4,0:0:0
184,104,79840,1,0,0:0:0
256,172,80027,1,4,0:0:0
328,104,80215,1,0,0:0:0
328,104,80590,5,0,0:0:0
328,104,80777,2,0,P|344:184|344:184|388:200|412:244,1,165,4|0,0:0|0:0,0:0:0
412,336,81340,2,0,P|370:332|336:307,1,82.5,8|0,0:0|0:0,0:0:0
256,256,81715,2,0,P|256:168,1,82.5
184,104,82090,5,8,0:0:0
184,104,82277,2,0,P|168:184|168:184|124:200|100:244,1,165,4|0,0:0|0:0,0:0:0
100,336,82840,2,0,P|141:332|175:307,1,82.5,8|0,0:0|0:0,0:0:0
256,256,83215,2,0,P|256:160,1,82.5
256,76,83590,5,8,0:0:0
324,132,83777,2,0,P|256:172|184:132,1,165,4|0,0:0|0:0,0:0:0
116,80,84340,2,0,P|32:92,1,82.5,8|0,0:0|0:0,0:0:0
40,228,84715,2,0,P|96:168,1,82.5
192,192,85090,1,8,0:0:0
192,192,85277,1,0,0:0:0
360,296,85652,5,4,0:0:0
448,248,85840,1,0,0:0:0
368,192,86027,1,4,0:0:0
456,148,86215,1,0,0:0:0
256,88,86590,5,8,0:0:0
