osu file format v11

[General]
AudioFilename: f123.mp3
AudioLeadIn: 1000
PreviewTime: 53777
Countdown: 0
SampleSet: Soft
StackLeniency: 0.7
Mode: 0
LetterboxInBreaks: 0

[Editor]
Bookmarks: 13465,19465
DistanceSpacing: 1.3
BeatDivisor: 4
GridSize: 4

[Metadata]
Title:Pre-Parade (TV Size)
TitleUnicode:プレパレード (TV Size)
Artist:Kugimiya Rie, Kitamura Eri & Horie Yui
ArtistUnicode:釘宮 理恵、喜多村 英梨&堀江 由衣
Creator:B2IN
Version:Easy
Source:Toradora!
Tags:-Kirito kg2161012 opening taiga
BeatmapID:208643
BeatmapSetID:69158

[Difficulty]
HPDrainRate:2
CircleSize:3
OverallDifficulty:2
ApproachRate:3
SliderMultiplier:0.749999999999999
SliderTickRate:2

[Events]
//Background and Video events
0,0,"bg.jpg"
Video,0,"rie.avi"
//Break Periods
2,51165,52525
//Storyboard Layer 0 (Background)
//Storyboard Layer 1 (Fail)
//Storyboard Layer 2 (Pass)
//Storyboard Layer 3 (Foreground)
//Storyboard Sound Samples
//Background Colour Transformations
3,100,163,162,255

[TimingPoints]
1465,375,4,2,1,73,1,0
1840,-100,4,2,2,73,0,0
1933,-100,4,2,1,73,0,0
3340,-100,4,2,2,73,0,0
3433,-100,4,2,1,73,0,0
4090,-100,4,2,2,50,0,0
4277,-100,4,2,1,73,0,0
6340,-100,4,2,2,73,0,0
6433,-100,4,2,1,73,0,0
6715,-100,4,2,2,73,0,0
6808,-100,4,2,1,73,0,0
7090,-100,4,2,2,50,0,0
7277,-100,4,2,1,73,0,0
7840,-100,4,2,2,73,0,0
7933,-100,4,2,1,73,0,0
9340,-100,4,2,2,73,0,0
9433,-100,4,2,1,73,0,0
9715,-100,4,2,2,73,0,0
9808,-100,4,2,1,73,0,0
10090,-100,4,2,2,50,0,0
10277,-100,4,2,1,73,0,0
13465,-100,4,2,1,73,0,0
17215,-100,4,2,6,73,0,0
17308,-100,4,2,1,73,0,0
17777,-100,4,2,6,73,0,0
17871,-100,4,2,1,73,0,0
19465,-100,4,2,1,73,0,0
21715,-100,4,2,6,73,0,0
21808,-100,4,2,1,73,0,0
23965,-100,4,2,1,73,0,0
27340,-100,4,2,2,73,0,0
27433,-100,4,2,1,73,0,0
30340,-100,4,2,2,73,0,0
30433,-100,4,2,1,73,0,0
33340,-100,4,2,2,73,0,0
33433,-100,4,2,1,73,0,0
36340,-100,4,2,2,73,0,0
36433,-100,4,2,1,73,0,0
40840,-100,4,2,6,73,0,0
40933,-100,4,2,1,73,0,0
42340,-100,4,2,6,73,0,0
42433,-100,4,2,1,73,0,0
43090,-100,4,2,1,75,0,0
53965,375,4,2,1,80,1,1
55090,-100,4,2,2,60,0,1
55465,-100,4,2,1,80,0,1
58090,-100,4,2,2,60,0,1
58465,-100,4,2,1,80,0,1
61090,-100,4,2,2,60,0,1
61465,-100,4,2,1,80,0,1
62777,-100,4,2,1,80,0,1
64277,-100,4,2,1,80,0,1
65215,-100,4,2,1,80,0,0
65777,-100,4,2,2,80,0,0
65965,-100,4,2,1,80,0,1
67090,-100,4,2,2,60,0,1
67465,-100,4,2,1,80,0,1
70090,-100,4,2,2,60,0,1
70465,-100,4,2,1,80,0,1
73090,-100,4,2,2,60,0,1
73465,-100,4,2,1,80,0,1
74965,375,4,2,1,80,1,1
79090,-100,4,2,2,60,0,1
79277,-100,4,2,2,60,0,0
80215,-100,4,2,1,60,0,0
86590,-100,4,2,2,80,0,0

[Colours]
Combo1 : 219,109,0
Combo2 : 236,0,118
Combo3 : 0,128,192

[HitObjects]
184,256,1465,2,0,P|256:272|332:256,1,150,0|2,0:0|0:0,0:0:0
380,156,2777,2,0,P|256:120|132:156,1,262.5,8|0,0:0|0:0,0:0:0
88,216,4465,5,8,0:0:0
176,340,5215,1,10,0:0:0
288,352,5777,2,0,P|416:332|468:220,1,262.5,8|8,0:0|0:0,0:0:0
464,144,7465,6,0,P|388:132|316:148,1,150,8|2,0:0|0:0,0:0:0
260,244,8777,2,0,P|144:296|24:248,1,262.5,8|8,0:0|0:0,0:0:0
36,176,10465,5,8,0:0:0
152,80,11215,1,2,0:0:0
264,80,11777,2,0,P|352:84|464:80,1,187.5,8|2,0:0|0:0,0:0:0
480,228,13465,5,4,0:0:0
404,356,14215,2,0,P|356:324|330:265,1,112.5,2|2,0:0|0:0,0:0:0
308,164,15340,5,8,0:0:0
232,164,15714,2,0,P|176:156|120:164,1,112.5,2|2,0:0|0:0,0:0:0
28,100,16840,6,0,P|12:172|40:244,2,150,8|0|8,0:0|0:0|0:0,0:0:0
60,32,18715,1,2,0:0:0
116,80,19090,1,2,0:0:0
184,52,19465,6,0,P|255:29|328:52,1,150,4|2,0:0|0:0,0:0:0
368,152,20777,1,2,0:0:0
256,140,21340,6,0,P|256:328,1,187.5,8|2,0:0|0:0,0:0:0
368,312,22840,2,0,P|440:268,1,74.9999999999999,8|2,0:0|0:0,0:0:0
256,192,23965,12,4,25465,0:0:0
256,320,26215,5,2,0:0:0
144,336,26777,2,0,P|60:320|40:228,1,187.5,2|0,0:0|0:0,0:0:0
184,200,28465,5,2,0:0:0
296,300,29215,1,2,0:0:0
296,188,29777,2,0,P|275:98|191:82,1,187.5
60,156,31465,6,0,P|60:316,1,150,0|2,0:0|0:0,0:0:0
172,288,32777,2,0,P|252:328|348:324,1,187.5
420,192,34465,5,0,0:0:0
348,60,35215,1,2,0:0:0
236,60,35777,2,0,P|140:80|76:140,1,187.5
68,216,37090,1,8,0:0:0
132,256,37465,6,0,P|196:296|268:288,1,150,4|2,0:0|0:0,0:0:0
384,192,38965,1,0,0:0:0
256,112,39715,1,2,0:0:0
316,248,40465,6,0,P|407:274|400:179,2,225,0|2|0,0:0|0:0|0:0,0:0:0
316,172,43090,1,2,0:0:0
262,118,43465,6,0,P|188:118|115:160,1,150,4|2,0:0|0:0,0:0:0
104,304,44965,2,0,P|168:268|212:196,1,150,2|0,0:0|0:0,0:0:0
176,140,46090,1,8,0:0:0
229,86,46465,6,0,P|297:62|369:86,1,150,4|2,0:0|0:0,0:0:0
256,192,47777,12,2,50965,0:0:0
68,200,53965,6,0,P|112:256|184:284,1,150,4|2,0:0|0:0,0:0:0
256,272,55090,1,8,0:0:0
328,284,55465,2,0,P|400:256|444:200,1,150,0|2,0:0|0:0,0:0:0
348,140,56777,6,0,P|256:124|164:140,1,187.5,4|2,0:0|0:0,0:0:0
100,176,58090,1,8,0:0:0
108,252,58465,2,0,P|120:312|184:328|184:328|232:328,1,150,0|2,0:0|0:0,0:0:0
332,328,59777,6,0,P|379:328|379:328|460:307|470:231,1,187.5,4|2,0:0|0:0,0:0:0
452,160,61090,1,8,0:0:0
376,148,61465,2,0,P|224:148,1,150,0|2,0:0|0:0,0:0:0
140,76,62777,6,0,P|116:168|164:244,1,187.5,4|2,0:0|0:0,0:0:0
260,296,64277,2,0,P|284:204|236:128,1,187.5,4|2,0:0|0:0,0:0:0
124,120,65777,6,0,P|108:216|144:216|124:316,1,187.5,4|2,0:0|0:0,0:0:0
188,348,67090,1,8,0:0:0
264,356,67465,2,0,P|337:336|386:278,1,150,0|2,0:0|0:0,0:0:0
344,176,68777,6,0,P|253:200|193:271,1,187.5,4|2,0:0|0:0,0:0:0
124,300,70090,1,8,0:0:0
56,272,70465,2,0,P|56:116,1,150,0|2,0:0|0:0,0:0:0
164,148,71777,6,0,P|256:172|344:148,1,187.5,4|2,0:0|0:0,0:0:0
404,192,73090,1,8,0:0:0
436,260,73465,2,0,P|396:320|308:316,1,150,0|2,0:0|0:0,0:0:0
216,288,74777,6,0,P|124:284|48:336,1,187.5,4|2,0:0|0:0,0:0:0
152,376,76277,2,0,P|92:196,1,187.5,4|2,0:0|0:0,0:0:0
172,120,77777,2,0,P|411:239,1,262.5,4|8,0:0|0:0,0:0:0
420,348,79652,6,0,P|364:344|308:364,1,112.5,2|2,0:0|0:0,0:0:0
200,336,80777,6,0,P|136:300|136:300|136:180,1,187.5,4|2,0:0|0:0,0:0:0
192,88,82277,2,0,P|256:124|256:124|256:244,1,187.5,4|2,0:0|0:0,0:0:0
316,332,83777,2,0,P|380:296|380:296|380:176,1,187.5,4|2,0:0|0:0,0:0:0
256,192,85465,12,8,86590,0:0:0
