osu file format v6

[General]
AudioFilename: Orange -citrus mix-.mp3
AudioLeadIn: 0
PreviewTime: 28843
Countdown: 0
SampleSet: Normal
StackLeniency: 0.7
Mode: 0
LetterboxInBreaks: 1
SkinPreference:Default

[Editor]
DistanceSpacing: 1
BeatDivisor: 4
GridSize: 8

[Metadata]
Title:Orange -citrus mix-
Artist:Kugimiya Rie, Horie Yui, Kitamura Eri
Creator:KIA
Version:Lime
Source:Toradora OST
Tags:Toradora Kugimiya Rie Horie Yui Kitamura Eri Orange OST

[Difficulty]
HPDrainRate:5
CircleSize:5
OverallDifficulty:5
SliderMultiplier:1.1
SliderTickRate:2

[Events]
//Background and Video events
0,0,"[AnimePaper]wallpapers_Toradora!-_Yamaro(1.6)_1920x1200_88348.jpg"
//Break Periods
2,116287,122173
2,193001,195458
//Storyboard Layer 0 (Background)
//Storyboard Layer 1 (Fail)
//Storyboard Layer 2 (Pass)
//Storyboard Layer 3 (Foreground)
Sprite,Foreground,Centre,"Kia.png",320,240 F,0,-85,1200,0,1 M,0,1200,,165,391 S,0,1200,13200,1.64,1.4736 F,0,14807,15343,1,0 F,0,116486,117772,0,1 M,0,116486,122165,164,401,164,356 M,0,122165,,164,356 F,0,121200,122272,1,0
//Storyboard Sound Samples
//Background Colour Transformations
3,100,234,234,234

[TimingPoints]
14944.5362349851,428.571428571429,4,1,0,82,1,0
20814,-100,4,2,0,82,0,0
21647,-100,4,1,0,82,0,0
28860,-100,4,2,0,100,0,0
42664,-100,4,1,0,49,0,0
54242,-100,4,1,0,82,0,0
55742,-100,4,2,0,100,0,0
62164,-100,4,2,0,70,0,0
62814,-100,4,2,0,100,0,0
73421,-100,4,1,0,82,0,0
74914,-100,4,1,0,82,0,1
115207,-100,4,2,0,100,0,0
160957,-100,4,1,0,75,0,0
162343,-100,4,1,0,82,0,1
174022,-100,4,1,0,28,0,1
174450,-100,4,1,0,44,0,1
174879,-100,4,1,0,64,0,1
175307,-100,4,1,0,81,0,1
175528,-100,4,1,0,82,0,1
175957,-100,4,1,0,82,0,1
188914,-100,4,1,0,80,0,0
203485,-100,4,1,0,82,0,1

[Colours]
Combo1 : 249,49,77
Combo2 : 247,56,159
Combo3 : 249,126,48
Combo4 : 116,200,224
Combo5 : 201,172,70

[HitObjects]
40,80,13200,2,4,L|128:80,1,82.5
208,80,13843,1,12
208,136,14057,2,4,L|296:136,2,82.5,4|4|12
208,192,14914,5,4
208,192,15373,1,8
208,192,15801,1,4
320,192,16230,2,8,L|384:192,1,55,8|0
264,192,16873,1,0
235,144,17087,1,8
208,192,17301,1,0
88,192,17730,2,0,L|16:192,1,55,0|8
144,192,18373,5,4
256,192,18801,1,12
368,192,19230,1,4
264,144,19658,2,8,L|208:144,1,55,8|0
264,240,20301,2,8,L|320:240,1,55,0|8
432,240,20944,2,2,C|384:240,6,27.5,2|2|2|2|10|2|2
488,240,21801,6,4,L|488:128,1,110,4|12
376,128,22658,2,4,L|376:240,1,110,4|12
320,240,23301,1,4
216,192,23730,1,4
208,248,23944,1,12
160,216,24158,1,4
256,160,24587,2,4,L|272:136|256:112,1,55,4|12
168,40,25230,5,0
168,152,25658,1,12
168,264,26087,1,0
280,264,26515,1,12
224,264,26730,1,4
256,192,26944,12,0,28658
56,136,29087,5,0
88,184,29301,1,0
120,136,29515,1,8
152,184,29730,1,0
312,136,30373,1,8
344,184,30587,1,0
376,136,30801,1,0
408,184,31015,1,8
256,272,32515,5,0
256,216,32730,1,0
312,216,32944,1,8
312,160,33158,1,0
384,80,33587,1,0
384,80,33801,1,0
384,80,34015,2,10,C|248:80,1,110
304,128,35944,5,0
352,96,36158,1,0
400,128,36373,1,8
352,160,36587,1,0
216,256,37230,1,8
168,288,37444,1,0
120,256,37658,1,0
168,224,37873,1,8
224,80,39373,6,2,B|196:68|168:80,1,55,0|0
112,80,39801,2,10,B|99:109|112:136,1,55,8|10
256,192,40658,2,10,L|144:192,1,110,8|0
256,192,41515,2,10,L|368:192,1,110,8|0
152,248,42801,5,0
192,288,43015,1,0
232,248,43230,1,8
272,288,43444,1,0
384,168,44087,1,8
344,128,44301,1,8
304,168,44515,1,0
264,128,44730,1,8
240,88,46230,6,0,L|224:112|240:136,1,55
296,136,46658,2,8,L|312:160|296:184,1,55,8|0
224,264,47301,2,8,L|264:216,2,55,0|8|0
296,184,48158,1,8
104,184,49658,6,8,L|128:200|152:184|176:200|200:184|224:200|248:184,1,165,8|0
408,184,50944,2,8,L|384:200|360:184|336:200|312:184|288:200|264:184,1,165,8|0
104,80,53087,6,0,L|120:104|104:128,1,55
72,168,53515,2,8,L|56:192|72:216,1,55,8|0
224,264,54373,2,8,B|202:285|176:296|153:285|128:264,1,110,0|0
224,208,55230,2,8,B|203:190|176:176|150:190|128:208,1,110,0|0
320,96,56515,5,8
288,144,56730,1,0
320,192,56944,1,0
288,240,57158,1,8
176,240,57587,1,2
288,240,58015,1,2
176,240,58444,1,2
88,80,59944,5,8
128,120,60158,1,0
168,80,60373,1,0
208,120,60587,1,8
312,160,61015,2,2,L|281:204|240:152,2,110
256,256,62301,2,0,L|216:256,4,27.5
408,192,63373,6,0,C|352:160,1,55
360,216,63801,2,0,C|304:184,1,55,8|0
232,112,64444,1,2
184,208,64873,1,2
136,112,65301,1,2
304,112,65944,5,2
336,152,66158,2,2,C|304:168|272:152|240:168|208:152|176:168|136:152,1,220,0|0
80,248,67444,1,2
80,248,67658,1,2
80,248,67873,2,2,B|100:364|256:360|272:240,1,275,0|0
160,224,69373,5,2
160,112,69801,2,0,B|232:224|408:208,1,275
456,192,71087,1,2
360,136,71515,2,8,L|312:80|264:136|216:80|168:136|120:80|72:144,1,440,0|4
96,248,73658,6,0,C|128:224|152:240|184:216,1,110
184,328,74515,2,0,C|160:304|128:320|96:296,1,110,0|4
72,192,75373,1,8
96,240,75587,1,8
192,192,76015,1,2
248,192,76230,1,10
304,192,76444,1,2
344,88,76873,6,2,C|288:88,4,55,2|10|2|2|2
384,128,77944,1,10
424,168,78158,2,2,C|488:168,4,55,2|2|2|10|2
352,256,79444,5,0
312,216,79658,1,8
272,176,79873,1,0
376,200,80301,1,0
336,160,80515,1,8
296,120,80730,1,0
56,64,81801,5,6
56,120,82015,1,0
112,120,82230,1,10
112,176,82444,1,2
224,176,82873,1,2
280,176,83087,1,8
280,232,83301,1,10
280,120,83730,5,2
224,120,83944,1,8
224,176,84158,1,0
168,176,84373,1,2
168,120,84587,1,2
112,120,84801,1,10
112,176,85015,1,8
56,176,85230,5,2
56,120,85444,1,2
56,64,85658,1,8
112,64,85873,2,2,L|168:80|240:80,1,110
328,96,86730,2,2,L|336:104|320:112|336:120|320:128|336:136|320:144|336:152|320:160|336:168|320:176|336:184|320:192|336:200|320:208|336:216|320:224|336:232|320:240|336:248|320:256|336:264|320:272,1,385,2|2
128,272,88658,5,6
128,160,89087,1,8
208,88,89515,2,0,L|264:88,1,55
320,88,89944,2,0,L|360:128,1,55,8|0
384,232,90587,6,0,L|384:296,1,55,0|8
352,336,91015,2,0,L|280:336,1,55,0|0
240,336,91444,2,0,L|176:336,1,55,0|8
136,312,91873,1,0
128,256,92087,6,0,L|128:192,1,55
128,144,92515,2,0,L|168:104,1,55,8|0
288,176,93158,2,8,C|264:184|232:176,2,55,0|8|0
392,144,94015,2,0,C|360:136|336:144,2,55,0|8|0
120,192,95515,6,8,C|176:192,1,55,8|8
232,192,95944,1,8
232,136,96158,1,2
320,192,96587,2,8,C|320:256,2,55
296,80,97444,5,2
240,80,97658,1,8
184,80,97873,1,10
144,120,98087,1,0
184,160,98301,1,2
240,160,98515,2,8,L|312:160,1,55,8|0
352,160,98944,6,8,B|416:176|432:256,1,110,0|8
424,288,99587,1,0
312,288,100015,1,0
200,288,100444,2,2,B|104:256|120:136,1,165,2|0
224,128,101515,6,0,L|296:128,1,55
280,184,101944,2,8,L|224:184,1,55,8|0
256,192,102373,12,4,104301
256,152,104944,5,0
216,192,105158,1,0
256,232,105373,1,8
296,192,105587,1,0
256,192,105801,12,4,107730
280,216,108373,6,0,L|280:160,1,55
224,160,108801,2,8,L|224:216,1,55,8|0
256,192,109230,12,4,111158
160,80,111801,5,0
216,80,112015,1,0
216,80,112230,1,8
256,128,112444,2,0,C|248:160|224:168|200:160|184:144|184:144|168:160|144:168|120:160|112:120,1,220
256,192,113408,12,4,116087
256,192,123373,5,8
288,144,123587,1,0
328,104,123801,1,0
384,104,124015,1,8
256,192,124658,1,8
224,240,124873,1,0
184,280,125087,1,0
128,280,125301,1,8
56,40,126801,5,8
80,88,127015,1,0
128,112,127230,1,0
184,112,127444,1,8
352,112,128087,2,2,C|393:151|352:184,3,110
136,152,130230,5,0
192,152,130444,1,0
224,104,130658,1,8
280,104,130873,1,0
296,264,131515,1,8
296,208,131730,1,0
344,176,131944,1,0
344,120,132158,1,8
160,248,133658,5,8
184,200,133873,1,0
240,200,134087,1,0
264,248,134301,1,8
376,256,134730,1,0
432,256,134944,1,0
432,200,135158,1,8
320,200,135587,1,12
368,192,137087,5,8
368,136,137301,1,0
312,136,137515,1,0
312,192,137730,1,8
152,224,138373,1,0
112,184,138587,1,0
152,144,138801,1,8
112,104,139015,1,0
232,112,140515,5,8
176,112,140730,1,0
136,152,140944,1,0
176,112,141158,1,8
320,192,141801,2,2,C|264:192|272:248,1,110
256,136,142658,2,2,C|320:136|312:80,1,110
400,288,143944,5,2
360,248,144158,1,2
288,160,144587,1,0
216,80,145015,1,8
288,160,145444,1,8
216,80,145873,1,8
112,288,147373,5,2
152,248,147587,1,2
224,160,148015,1,0
296,80,148444,1,8
224,160,148873,1,8
296,80,149301,1,8
224,144,150801,6,2,C|224:208,3,55
112,192,151873,1,8
112,80,152301,1,8
112,192,152730,1,8
280,192,153373,5,10
224,192,153587,2,2,B|248:168|271:149|297:139|327:135|348:135|370:139|387:150|402:167|412:184|416:205|413:227|405:246|392:262,1,275,2|10
344,248,154873,1,2
344,192,155087,1,10
344,136,155301,2,2,B|320:127|294:123|270:123|240:120|216:128|192:160|192:184|200:208|224:240|240:256|264:272,1,275,0|8
152,296,156801,2,2,C|232:280,1,55,8|0
256,272,157230,6,2,B|184:208|128:184|56:168,1,220,10|10
64,112,158301,2,2,C|120:112,1,55,2|10
232,112,158944,2,2,C|272:160|296:224|288:304|192:320|120:296|64:256,1,440,8|4
256,192,161087,6,0,C|208:192,8,27.5
144,192,162373,1,4
176,152,162587,1,0
208,192,162801,1,8
240,152,163015,1,0
336,192,163444,1,0
304,152,163658,1,8
272,192,163873,1,0
368,152,164301,5,0
336,112,164515,1,8
304,152,164730,1,8
272,112,164944,1,0
240,152,165158,1,0
208,112,165373,1,8
176,152,165587,1,0
144,112,165801,5,0
112,152,166015,1,0
144,192,166230,1,8
176,232,166444,1,8
288,232,166873,5,0
320,192,167087,1,8
352,152,167301,1,0
240,152,167730,1,0
208,192,167944,1,8
176,232,168158,1,8
224,56,169230,5,4
168,56,169444,1,0
112,56,169658,1,12
56,56,169873,1,0
144,120,170301,1,4
200,120,170515,1,12
256,120,170730,1,4
352,168,171158,5,4
296,168,171373,1,12
240,168,171587,1,4
184,168,171801,1,0
128,168,172015,1,0
72,168,172230,1,12
128,168,172444,1,12
128,224,172658,5,0
184,224,172873,1,0
240,224,173087,1,8
296,224,173301,1,0
408,224,173730,1,4
408,112,174158,2,4,C|344:112,7,55
320,216,176087,5,0
288,264,176301,1,0
264,216,176515,1,8
264,216,176730,1,0
152,200,177158,1,0
104,232,177373,1,8
104,176,177587,1,0
152,80,178015,5,0
184,128,178230,1,8
216,80,178444,1,0
248,128,178658,1,0
280,80,178873,1,0
312,128,179087,1,8
344,80,179301,1,8
400,80,179515,5,8
400,136,179730,1,0
400,192,179944,1,12
344,192,180158,1,4
232,192,180587,5,0
176,192,180801,1,8
232,192,181015,1,0
328,248,181444,1,0
272,248,181658,1,8
328,248,181873,1,8
96,96,182944,6,0,C|112:120|96:144,1,55
40,144,183373,2,8,C|24:120|40:96,1,55,8|0
40,208,184015,1,0
96,208,184230,1,8
152,208,184444,1,0
264,208,184873,5,0
216,176,185087,1,8
264,144,185301,1,8
312,120,185515,1,0
360,144,185730,1,0
408,176,185944,1,8
360,208,186158,1,0
312,232,186373,5,4
208,272,186801,1,8
152,272,187015,1,8
80,192,187444,1,4
152,112,187873,2,8,B|232:184|300:111,1,165,8|8
176,216,189801,6,4,L|80:216,1,82.5
176,216,190444,1,4
232,216,190658,1,12
336,168,191087,6,4,L|424:168,1,82.5
336,168,191730,1,4
280,168,191944,1,12
184,104,192373,5,12
184,216,192801,1,12
360,248,196658,6,4,L|264:248,1,82.5,12|4
200,248,197301,1,4
144,248,197515,1,12
144,136,197944,6,4,L|232:136,1,82.5,12|4
304,136,198587,1,4
360,136,198801,1,12
360,248,199230,5,12
360,136,199658,1,12
256,160,200087,5,12
256,48,200408,1,12
256,160,200730,1,4
256,232,200944,1,12
72,48,201373,5,12
128,48,201587,1,12
440,48,202015,5,12
384,48,202230,1,4
256,248,202658,5,12
256,192,202873,1,12
