osu file format v14

[General]
AudioFilename: pre-parade.mp3
AudioLeadIn: 0
PreviewTime: 53402
Countdown: 0
SampleSet: Soft
StackLeniency: 0.7
Mode: 0
LetterboxInBreaks: 0
WidescreenStoryboard: 0

[Editor]
Bookmarks: 7465,13465,25465,37465
DistanceSpacing: 1.2
BeatDivisor: 4
GridSize: 8
TimelineZoom: 2.5

[Metadata]
Title:Pre-Parade (TV-SIZE)
TitleUnicode:プレパレード (TV-SIZE)
Artist:Kugimiya Rie, Horie Yui & Kitamura Eri
ArtistUnicode:釘宮理恵, 堀江由衣 & 喜多村英梨
Creator:Yamicchi
Version:LMT's Hard
Source:とらドラ!
Tags:toradora! toradora opening op Asaiga Namki LMT
BeatmapID:1562171
BeatmapSetID:740458

[Difficulty]
HPDrainRate:5
CircleSize:3.5
OverallDifficulty:5
ApproachRate:7
SliderMultiplier:1.5
SliderTickRate:1

[Events]
//Background and Video events
0,0,"background.jpg",0,0
Video,-2112,"preparade.avi"
//Break Periods
//Storyboard Layer 0 (Background)
//Storyboard Layer 1 (Fail)
//Storyboard Layer 2 (Pass)
//Storyboard Layer 3 (Foreground)
//Storyboard Sound Samples

[TimingPoints]
1465,375,4,2,1,50,1,0
53777,-83.3333333333333,4,2,1,70,0,1
65215,-83.3333333333333,4,2,1,70,0,0
65777,-83.3333333333333,4,2,1,70,0,1
74590,-83.3333333333333,4,2,1,70,0,0

[Colours]
Combo1 : 253,38,156
Combo2 : 147,56,245
Combo3 : 248,104,35
Combo4 : 74,221,125

[HitObjects]
169,26,1465,5,0,3:0:0:0:
142,189,1840,2,0,L|124:289,2,75,10|0|2,0:0|0:0|0:0,0:0:0:0:
322,181,2590,1,8,0:0:0:0:
371,246,2777,2,0,L|521:256,1,150,2|2,3:2|0:0,0:0:0:0:
257,332,3527,1,2,0:0:0:0:
210,267,3715,2,0,L|114:273,1,75,2|0,3:2|0:0,0:0:0:0:
54,276,4090,1,8,0:1:0:0:
126,85,4465,6,0,L|109:2,2,75,2|0|10,3:2|0:0|0:0,0:0:0:0:
187,139,5027,1,2,3:2:0:0:
244,82,5215,2,0,L|261:-1,1,75,2|2,0:0|3:2,0:0:0:0:
406,227,5777,2,0,L|389:144,1,75,2|0,3:2|0:0,0:0:0:0:
352,287,6152,1,2,0:2:0:0:
284,245,6340,1,10,0:0:0:0:
95,341,6715,2,0,P|77:289|103:339,1,150,2|8,0:0|0:1,0:0:0:0:
139,92,7465,6,0,L|196:80,3,37.5,4|0|0|0,3:2|0:0|0:0|0:0,0:0:0:0:
134,108,7840,2,0,L|42:128,1,75,10|0,0:0|3:0,0:0:0:0:
18,189,8215,1,2,0:0:0:0:
237,246,8590,1,8,0:0:0:0:
284,183,8778,2,0,L|433:153,1,150,2|2,0:0|0:0,0:0:0:0:
258,322,9527,1,2,0:0:0:0:
225,245,9715,2,0,B|217:225|217:225|135:204,1,75,2|0,3:2|0:0,0:0:0:0:
213,142,10090,1,8,0:1:0:0:
467,138,10465,6,0,L|490:225,1,75,2|0,3:2|0:0,0:0:0:0:
396,188,10840,1,10,0:0:0:0:
378,107,11027,1,2,3:2:0:0:
317,168,11215,1,2,0:0:0:0:
336,245,11402,1,2,3:2:0:0:
163,200,11777,6,0,L|140:350,1,150,2|2,0:0|0:0,0:0:0:0:
67,276,12340,1,2,0:0:0:0:
80,194,12527,1,0,0:0:0:0:
95,111,12715,6,0,L|182:99,1,75,2|0,0:0|0:0,0:0:0:0:
228,46,13090,2,0,L|326:33,1,75,8|0,0:0|0:0,0:0:0:0:
395,62,13465,5,4,3:2:0:0:
440,186,13652,2,0,B|452:127|452:127|483:118,1,75,2|8,0:0|0:0,0:0:0:0:
350,185,14027,2,0,B|337:126|337:126|307:117,1,75,2|0,0:0|3:0,0:0:0:0:
397,259,14402,2,0,L|407:348,1,75,2|10,3:2|0:0,0:0:0:0:
338,373,14777,1,2,3:2:0:0:
151,294,15152,6,0,B|92:306|92:306|83:337,1,75,2|8,0:0|0:0,0:0:0:0:
152,198,15527,2,0,B|93:185|93:185|84:155,1,75,2|0,0:0|3:0,0:0:0:0:
228,243,15902,2,0,L|339:235,1,75,2|10,3:2|0:0,0:0:0:0:
360,181,16277,1,2,3:2:0:0:
240,11,16652,6,0,B|181:23|181:23|172:54,1,75,2|8,0:0|0:0,0:0:0:0:
325,14,17027,2,0,B|384:26|384:26|393:57,1,75,2|0,0:0|3:0,0:0:0:0:
282,85,17402,2,0,L|282:159,1,75,2|10,3:2|0:0,0:0:0:0:
221,211,17777,1,2,3:2:0:0:
372,361,18152,6,0,B|384:302|384:302|415:293,1,75,2|8,0:0|0:0,0:0:0:0:
477,282,18527,1,0,0:0:0:0:
352,205,18715,2,0,P|390:215|442:212,1,75,2|2,3:2|3:2,0:0:0:0:
237,291,19090,2,0,P|269:276|322:277,1,75,10|2,0:2|3:2,0:0:0:0:
174,234,19465,5,4,3:2:0:0:
132,366,19652,2,0,B|120:307|120:307|89:298,1,75,2|8,0:0|0:0,0:0:0:0:
65,162,20027,2,0,B|77:221|77:221|108:230,1,75,2|0,0:0|3:0,0:0:0:0:
175,226,20402,2,0,L|264:205,1,75,2|10,3:2|0:0,0:0:0:0:
307,154,20777,1,2,3:2:0:0:
414,343,21152,6,0,B|404:289|404:289|363:279,1,75,2|8,0:0|0:0,0:0:0:0:
474,225,21527,2,0,B|484:279|484:279|525:289,1,75,2|0,0:0|3:0,0:0:0:0:
396,207,21902,2,0,L|406:121,1,75,2|10,3:2|0:0,0:0:0:0:
466,79,22277,1,2,3:2:0:0:
282,29,22652,6,0,B|228:39|228:39|218:80,1,75,2|8,0:0|0:0,0:0:0:0:
87,34,23027,2,0,B|141:44|141:44|151:85,1,75,2|0,0:0|3:0,0:0:0:0:
190,134,23402,2,0,L|191:209,1,75,2|10,3:2|0:2,0:0:0:0:
196,287,23777,1,0,0:0:0:0:
243,363,23965,6,0,L|195:371,3,37.5,2|0|0|0,0:0|0:0|0:0|0:0,0:0:0:0:
253,369,24340,1,2,0:0:0:0:
332,339,24527,1,0,0:0:0:0:
332,339,24621,1,0,0:0:0:0:
332,339,24715,1,2,0:0:0:0:
390,283,24902,1,2,0:0:0:0:
385,204,25090,1,2,0:0:0:0:
321,156,25277,1,2,0:0:0:0:
247,189,25465,6,0,L|148:178,1,75,4|0,3:2|0:0,0:0:0:0:
86,53,25840,2,0,L|120:142,1,75,8|0,0:0|0:0,0:0:0:0:
95,203,26215,1,0,3:0:0:0:
34,256,26402,1,0,3:0:0:0:
212,286,26777,2,0,B|258:276|258:276|309:293|309:293|376:276,1,150,0|0,3:0|0:0,0:0:0:0:
253,363,27340,1,8,0:0:0:0:
462,366,27715,2,0,L|475:207,1,150,0|8,0:0|0:0,0:0:0:0:
221,86,28465,6,0,L|113:66,1,75,0|0,3:0|0:0,0:0:0:0:
287,155,28840,2,0,L|195:179,1,75,8|0,0:0|0:0,0:0:0:0:
138,151,29215,1,0,3:0:0:0:
70,191,29402,1,0,3:0:0:0:
197,371,29777,1,0,0:0:0:0:
264,321,29965,2,0,L|283:222,1,75,0|0,3:0|0:0,0:0:0:0:
186,289,30340,1,8,0:0:0:0:
269,331,30527,2,0,L|429:358,1,150,0|0,0:0|3:0,0:0:0:0:
488,316,31090,1,8,0:0:0:0:
490,142,31465,6,0,B|442:140|442:140|395:165|395:165|326:160,2,150,0|8|0,3:0|0:0|3:0,0:0:0:0:
376,80,32402,1,0,3:0:0:0:
158,242,32777,2,0,B|205:240|205:240|252:265|252:265|321:260,1,150,0|0,3:0|0:0,0:0:0:0:
183,327,33340,1,8,0:0:0:0:
274,29,33715,2,0,L|281:210,1,150,0|8,0:0|0:0,0:0:0:0:
476,241,34465,6,0,L|496:150,1,75,0|0,0:0|0:0,0:0:0:0:
404,299,34840,2,0,L|391:214,1,75,8|0,0:0|0:0,0:0:0:0:
415,148,35215,1,0,3:0:0:0:
371,81,35402,1,0,3:0:0:0:
172,189,35777,1,0,0:0:0:0:
235,244,35965,2,0,L|249:344,1,75,0|0,0:0|0:0,0:0:0:0:
158,271,36339,1,8,0:0:0:0:
174,176,36527,2,0,L|195:25,1,150,0|0,0:0|3:0,0:0:0:0:
278,15,37090,1,8,0:0:0:0:
278,15,37183,1,0,3:0:0:0:
278,15,37277,1,0,3:0:0:0:
336,73,37465,5,6,3:2:0:0:
392,15,37652,1,0,0:0:0:0:
416,91,37840,2,0,B|472:91|472:91|501:108,1,75,10|0,0:0|0:0,0:0:0:0:
366,155,38215,2,0,B|310:155|310:155|281:172,1,75,2|2,3:2|3:2,0:0:0:0:
110,164,38777,1,2,3:2:0:0:
57,102,38965,2,0,B|57:46|57:46|40:17,1,75,0|0,0:0|0:0,0:0:0:0:
208,78,39340,2,0,B|152:78|152:78|123:95,1,75,10|0,0:0|0:0,0:0:0:0:
113,178,39715,2,0,P|131:222|193:176,1,150,2|10,3:2|0:2,0:0:0:0:
266,139,40277,1,0,0:0:0:0:
425,306,40652,6,0,P|441:282|505:264,1,75,2|10,0:0|0:0,0:0:0:0:
340,275,41027,1,2,0:0:0:0:
112,358,41402,2,0,P|96:334|32:316,1,75,2|10,0:0|0:0,0:0:0:0:
197,327,41777,1,2,0:0:0:0:
255,135,42152,1,2,0:0:0:0:
256,211,42340,1,10,0:0:0:0:
188,174,42527,1,2,0:0:0:0:
186,92,42715,2,0,P|128:74|91:81,1,75,2|2,0:0|0:0,0:0:0:0:
324,34,43090,2,0,P|280:54|234:47,1,75,10|10,0:0|0:0,0:0:0:0:
390,85,43465,5,6,3:2:0:0:
460,45,43652,1,0,0:0:0:0:
461,123,43840,2,0,B|461:179|461:179|478:208,1,75,10|0,0:0|0:0,0:0:0:0:
413,305,44215,2,0,B|413:249|413:249|396:220,1,75,2|2,3:2|3:2,0:0:0:0:
198,211,44777,1,2,0:0:0:0:
131,252,44965,2,0,B|75:252|75:252|46:269,1,75,0|0,0:0|0:0,0:0:0:0:
204,290,45340,2,0,B|260:290|260:290|289:307,1,75,10|0,0:0|0:0,0:0:0:0:
467,178,45902,1,0,3:0:0:0:
393,156,46090,1,10,0:0:0:0:
452,102,46277,1,0,0:0:0:0:
375,82,46465,6,0,B|475:66|475:66|485:16,2,150,2|10|2,0:0|0:0|3:2,0:0:0:0:
316,136,47402,1,2,3:2:0:0:
71,162,47777,2,0,B|171:178|171:178|181:228,1,150,2|0,3:2|0:0,0:0:0:0:
158,301,48340,1,10,0:0:0:0:
99,247,48527,1,2,0:0:0:0:
361,333,48902,5,0,0:0:0:0:
388,258,49090,1,10,0:0:0:0:
361,333,49277,1,2,0:0:0:0:
361,51,49652,1,0,0:0:0:0:
388,126,49840,1,10,0:0:0:0:
361,51,50027,1,2,0:0:0:0:
307,112,50215,6,0,L|203:110,1,75,0|0,0:0|0:0,0:0:0:0:
167,160,50590,2,0,L|87:171,1,75,8|0,0:0|0:0,0:0:0:0:
22,240,50965,5,0,0:0:0:0:
24,212,51152,1,2,0:0:0:0:
104,253,51340,1,0,0:0:0:0:
106,281,51527,1,2,0:0:0:0:
188,317,51715,1,0,0:0:0:0:
190,289,51902,1,2,0:0:0:0:
271,268,52090,2,0,L|276:344,1,75,0|0,0:0|0:0,0:0:0:0:
357,355,52465,6,0,L|365:293,3,37.5,2|0|2|0,0:0|0:0|0:0|0:0,0:0:0:0:
361,368,52840,2,0,L|464:352,2,75,2|2|2,0:0|0:0|0:0,0:0:0:0:
484,149,53590,5,8,0:1:0:0:
411,186,53777,6,0,P|377:152|240:133,1,179.999994506836,0|0,0:0|0:0,0:0:0:0:
183,184,54340,2,0,P|177:158|153:95,1,89.9999972534181,8|0,0:0|0:0,0:0:0:0:
85,57,54715,1,0,0:0:0:0:
65,68,54902,1,0,3:0:0:0:
84,145,55090,1,8,0:0:0:0:
62,161,55277,1,0,0:0:0:0:
113,226,55465,5,0,3:0:0:0:
120,302,55652,1,0,0:0:0:0:
44,268,55840,1,8,0:0:0:0:
58,351,56027,2,0,P|111:329|217:382,1,179.999994506836,0|0,3:0|3:0,0:0:0:0:
285,329,56590,1,8,0:0:0:0:
224,271,56777,6,0,P|277:293|383:240,1,179.999994506836,0|0,3:0|0:0,0:0:0:0:
471,254,57340,2,0,P|450:200|449:138,1,89.9999972534181,8|0,0:0|3:0,0:0:0:0:
474,90,57715,1,0,0:0:0:0:
474,90,57808,1,0,0:0:0:0:
474,90,57902,1,0,0:0:0:0:
389,108,58090,1,8,0:0:0:0:
371,84,58277,1,0,0:0:0:0:
306,142,58465,5,0,3:0:0:0:
233,107,58652,1,0,0:0:0:0:
241,187,58840,1,8,0:0:0:0:
317,157,59027,2,0,P|255:192|219:325,1,179.999994506836,0|0,0:0|3:0,0:0:0:0:
201,373,59590,1,8,0:0:0:0:
131,308,59777,6,0,P|196:291|331:305,1,179.999994506836,0|0,3:0|0:0,0:0:0:0:
307,297,60246,1,0,0:0:0:0:
307,297,60340,1,8,0:0:0:0:
373,236,60527,1,0,0:0:0:0:
373,236,60621,1,0,0:0:0:0:
373,236,60715,1,0,0:0:0:0:
364,151,60902,1,0,0:0:0:0:
364,151,60996,1,0,0:0:0:0:
364,151,61090,2,0,P|336:80|316:60,1,89.9999972534181,8|0,0:0|0:0,0:0:0:0:
322,69,61371,1,0,0:0:0:0:
316,69,61465,6,0,P|274:89|204:69,1,89.9999972534181,0|0,3:0|0:0,0:0:0:0:
155,67,61840,1,8,0:0:0:0:
176,154,62027,2,0,P|119:146|12:235,1,179.999994506836,0|0,3:0|3:0,0:0:0:0:
17,290,62590,1,8,0:0:0:0:
81,341,62777,6,0,P|138:349|245:260,1,179.999994506836,0|0,3:0|0:0,0:0:0:0:
319,267,63340,2,0,P|294:219|243:201,1,89.9999972534181,8|0,0:0|0:0,0:0:0:0:
404,284,63715,1,0,3:0:0:0:
466,345,63902,1,8,0:0:0:0:
459,368,64090,1,8,0:1:0:0:
512,270,64277,6,0,P|455:258|385:137,1,179.999994506836,0|0,3:0|0:0,0:0:0:0:
308,149,64840,2,0,P|333:101|384:83,1,89.9999972534181,8|0,0:0|0:0,0:0:0:0:
231,172,65215,1,0,0:0:0:0:
166,128,65402,1,0,0:0:0:0:
166,128,65496,1,0,0:0:0:0:
166,128,65590,1,8,0:0:0:0:
231,78,65777,6,0,P|162:108|41:55,1,179.999994506836,0|0,0:0|0:0,0:0:0:0:
13,140,66340,1,8,0:0:0:0:
18,146,66433,1,0,0:0:0:0:
22,154,66527,1,0,3:0:0:0:
25,163,66621,1,0,0:0:0:0:
27,172,66715,2,0,P|36:212|20:289,1,89.9999972534181,0|0,0:0|3:0,0:0:0:0:
29,360,67090,1,8,0:0:0:0:
39,354,67183,2,0,P|85:325|143:329,1,89.9999972534181,0|0,0:0|0:0,0:0:0:0:
128,330,67465,6,0,P|168:336|232:323,1,89.9999972534181,0|0,3:0|0:0,0:0:0:0:
289,356,67840,1,8,0:0:0:0:
291,275,68027,2,0,P|234:238|201:123,1,179.999994506836,0|0,3:0|3:0,0:0:0:0:
228,58,68590,1,8,0:0:0:0:
277,122,68777,6,0,P|361:97|443:131,1,179.999994506836,0|0,3:0|0:0,0:0:0:0:
512,206,69340,1,8,0:0:0:0:
504,209,69433,1,0,0:0:0:0:
496,211,69527,1,0,3:0:0:0:
486,213,69621,1,0,0:0:0:0:
475,216,69715,2,0,P|434:222|364:183,1,89.9999972534181,0|0,0:0|3:0,0:0:0:0:
351,284,70090,1,8,0:0:0:0:
341,278,70183,2,0,P|295:249|237:253,1,89.9999972534181,0|0,0:0|0:0,0:0:0:0:
252,254,70465,6,0,P|212:260|148:247,1,89.9999972534181,0|0,3:0|0:0,0:0:0:0:
126,321,70840,1,8,0:0:0:0:
82,253,71027,2,0,P|104:168|188:138,1,179.999994506836,0|0,0:0|3:0,0:0:0:0:
192,63,71590,1,8,0:0:0:0:
268,87,71777,6,0,P|303:54|369:48,1,89.9999972534181,0|0,0:0|0:0,0:0:0:0:
350,51,72058,2,0,P|399:69|438:59,1,89.9999972534181,0|0,0:0|0:0,0:0:0:0:
441,57,72340,5,8,0:0:0:0:
451,58,72433,1,0,0:0:0:0:
460,60,72527,1,0,0:0:0:0:
468,66,72621,1,0,0:0:0:0:
475,73,72715,2,0,L|484:136,2,44.999998626709,0|0|0,0:0|0:0|3:0,0:0:0:0:
402,146,73090,5,8,0:1:0:0:
403,156,73183,1,0,0:0:0:0:
405,165,73277,1,0,0:0:0:0:
409,173,73371,1,0,0:0:0:0:
416,179,73465,6,0,P|442:206|529:208,1,89.9999972534181,0|0,3:0|0:0,0:0:0:0:
497,305,73840,1,8,0:0:0:0:
417,289,74027,2,0,P|351:292|264:380,1,179.999994506836,0|0,3:0|3:0,0:0:0:0:
193,349,74590,1,8,0:0:0:0:
231,279,74777,6,0,P|172:309|33:266,1,179.999994506836,4|8,3:2|0:0,0:0:0:0:
8,223,75340,2,0,P|61:204|103:217,1,89.9999972534181,8|0,0:1|0:0,0:0:0:0:
171,192,75715,2,0,P|103:174|32:80,1,179.999994506836,0|8,3:2|0:1,0:0:0:0:
84,24,76277,6,0,P|167:51|229:140,1,179.999994506836,4|8,3:2|0:0,0:0:0:0:
308,137,76840,2,0,P|283:188|235:205,1,89.9999972534181,8|0,0:1|0:0,0:0:0:0:
202,263,77215,2,0,P|254:233|391:254,1,179.999994506836,0|8,3:2|0:1,0:0:0:0:
386,324,77777,6,0,P|334:354|197:333,1,179.999994506836,4|8,3:2|0:0,0:0:0:0:
138,330,78340,1,8,0:1:0:0:
130,348,78527,1,0,0:0:0:0:
69,291,78715,5,0,3:2:0:0:
44,215,78902,1,8,0:0:0:0:
46,136,79090,1,8,0:1:0:0:
86,68,79277,1,0,0:0:0:0:
232,135,79652,5,8,0:0:0:0:
214,214,79840,1,8,0:0:0:0:
292,188,80027,1,8,0:0:0:0:
279,265,80215,1,8,0:0:0:0:
497,20,80590,5,8,0:1:0:0:
441,76,80777,6,0,P|349:36|251:52,1,179.999994506836,4|0,3:2|0:0,0:0:0:0:
194,69,81340,1,8,0:0:0:0:
187,51,81527,1,0,0:0:0:0:
257,124,81715,5,8,3:2:0:0:
179,149,81902,1,0,0:0:0:0:
117,100,82090,1,8,0:0:0:0:
104,180,82277,6,0,P|173:186|268:276,1,179.999994506836,4|0,3:2|0:0,0:0:0:0:
334,228,82840,1,8,0:0:0:0:
338,207,83027,1,0,0:0:0:0:
320,307,83215,5,8,3:2:0:0:
397,281,83403,1,0,0:0:0:0:
419,204,83590,1,8,0:0:0:0:
482,255,83777,6,0,P|452:177|478:68,1,179.999994506836,4|0,3:2|0:0,0:0:0:0:
397,44,84340,1,8,0:0:0:0:
391,25,84527,1,0,0:0:0:0:
333,98,84715,5,8,3:2:0:0:
261,128,84902,1,0,3:0:0:0:
184,131,85090,1,8,0:0:0:0:
111,106,85277,1,0,0:0:0:0:
185,292,85652,5,8,0:0:0:0:
219,221,85839,1,8,0:0:0:0:
261,288,86027,1,8,0:0:0:0:
296,218,86214,1,8,0:0:0:0:
478,355,86590,5,8,0:1:0:0:
