osu file format v14

[General]
AudioFilename: pre-parade.mp3
AudioLeadIn: 0
PreviewTime: 53402
Countdown: 0
SampleSet: Soft
StackLeniency: 0.2
Mode: 0
LetterboxInBreaks: 0
WidescreenStoryboard: 0

[Editor]
Bookmarks: 7465,13465,25465,37465,49840
DistanceSpacing: 0.6
BeatDivisor: 4
GridSize: 32
TimelineZoom: 2.5

[Metadata]
Title:Pre-Parade (TV-SIZE)
TitleUnicode:プレパレード (TV-SIZE)
Artist:Kugimiya Rie, Horie Yui & Kitamura Eri
ArtistUnicode:釘宮理恵, 堀江由衣 & 喜多村英梨
Creator:Yamicchi
Version:Asaiga's Insane
Source:とらドラ!
Tags:toradora! toradora opening op Asaiga Namki LMT
BeatmapID:1562169
BeatmapSetID:740458

[Difficulty]
HPDrainRate:5.2
CircleSize:3.8
OverallDifficulty:7.2
ApproachRate:8.8
SliderMultiplier:1.6
SliderTickRate:1

[Events]
//Background and Video events
0,0,"background.jpg",0,0
Video,-2112,"preparade.avi"
//Break Periods
//Storyboard Layer 0 (Background)
//Storyboard Layer 1 (Fail)
//Storyboard Layer 2 (Pass)
//Storyboard Layer 3 (Foreground)
//Storyboard Sound Samples

[TimingPoints]
1465,375,4,2,0,60,1,0
12715,-125,4,2,0,60,0,0
13465,-100,4,2,0,75,0,0
25465,-100,4,2,0,60,0,0
37465,-100,4,2,0,70,0,0
53590,-83.3333333333333,4,2,0,80,0,0
53777,-83.3333333333333,4,2,0,80,0,1
53871,-83.3333333333333,4,2,0,5,0,1
53965,-83.3333333333333,4,2,0,80,0,1
64840,-83.3333333333333,4,2,0,80,0,0
65965,-83.3333333333333,4,2,0,80,0,1
74590,-83.3333333333333,4,2,0,80,0,0

[Colours]
Combo1 : 240,74,74
Combo2 : 133,198,121
Combo3 : 130,157,191
Combo4 : 193,125,193

[HitObjects]
48,114,1465,6,0,L|104:122,3,40,0|0|0|0,3:0|0:0|0:0|0:0,0:0:0:0:
109,144,1840,2,0,L|188:131,1,80,8|0,0:0|0:0,0:0:0:0:
285,95,2215,2,0,B|308:174|254:161|286:251,1,160,0|8,0:0|0:0,0:0:0:0:
351,330,2777,2,0,P|391:336|429:326,1,80,0|0,0:0|3:0,0:0:0:0:
285,250,3152,6,0,P|244:247|197:247,1,80,0|8,0:0|0:0,0:0:0:0:
375,203,3527,1,0,0:0:0:0:
285,95,3715,2,0,L|205:97,1,80,0|0,3:0|3:0,0:0:0:0:
395,121,4090,2,0,L|474:123,1,80,8|0,0:0|0:0,0:0:0:0:
285,250,4465,6,0,P|283:295|293:344,1,80,0|0,3:0|0:0,0:0:0:0:
397,229,4840,1,8,0:0:0:0:
305,155,5027,1,0,3:0:0:0:
168,278,5215,1,0,0:0:0:0:
209,187,5402,2,0,L|191:107,1,80,0|8,3:0|0:0,0:0:0:0:
332,45,5777,2,0,L|314:123,1,80,0|0,0:0|3:0,0:0:0:0:
434,215,6152,5,0,0:0:0:0:
349,294,6340,2,0,B|280:272|234:301|234:301|299:322,1,160,8|0,0:0|0:0,0:0:0:0:
255,191,6902,1,0,3:0:0:0:
255,191,6996,1,0,3:0:0:0:
255,191,7090,2,0,P|206:192|157:218,1,80,8|0,0:0|0:0,0:0:0:0:
54,324,7465,6,0,L|63:268,3,40,0|0|0|0,3:0|0:0|0:0|0:0,0:0:0:0:
84,263,7840,2,0,L|71:184,1,80,8|0,0:0|0:0,0:0:0:0:
22,98,8215,2,0,B|112:65|99:120|178:97,1,160,0|8,0:0|0:0,0:0:0:0:
277,50,8777,2,0,P|288:99|278:141,1,80,0|0,0:0|3:0,0:0:0:0:
200,275,9152,6,0,P|195:235|206:197,1,80,0|8,0:0|0:0,0:0:0:0:
284,332,9527,1,0,0:0:0:0:
109,309,9715,2,0,L|15:317,1,80,0|0,3:0|3:0,0:0:0:0:
171,230,10090,2,0,L|265:238,1,80,8|0,0:0|0:0,0:0:0:0:
386,307,10465,6,0,P|377:268|386:223,1,80,0|0,3:0|0:0,0:0:0:0:
508,134,10840,1,8,0:0:0:0:
477,265,11027,1,0,3:0:0:0:
361,118,11215,1,0,0:0:0:0:
269,187,11402,2,0,L|188:190,1,80,0|8,3:0|0:0,0:0:0:0:
55,276,11777,2,0,L|134:278,1,80,0|0,0:0|3:0,0:0:0:0:
227,349,12152,5,0,0:0:0:0:
252,253,12340,1,0,0:0:0:0:
356,275,12527,1,0,0:0:0:0:
389,174,12715,2,0,L|379:107,3,64
207,18,13465,6,0,L|192:108,2,80,4|0|8,0:0|0:0|0:0,0:0:0:0:
86,153,14027,2,0,P|75:119|75:74,1,80,0|0,0:0|3:0,0:0:0:0:
189,120,14402,1,0,3:0:0:0:
106,192,14590,1,8,0:0:0:0:
188,270,14777,2,0,L|289:266,1,80
421,333,15152,6,0,B|382:343|382:343|329:331,1,80,0|8,0:0|0:0,0:0:0:0:
335,191,15527,2,0,B|374:183|374:183|413:193,1,80,0|0,0:0|3:0,0:0:0:0:
267,266,15902,1,0,3:0:0:0:
189,180,16090,1,8,0:0:0:0:
112,269,16277,2,0,L|116:354,1,80
20,230,16652,6,0,B|9:269|9:269|20:311,1,80,0|8,0:0|0:0,0:0:0:0:
204,306,17027,2,0,B|214:267|214:267|203:228,1,80,0|0,0:0|3:0,0:0:0:0:
110,155,17402,1,0,3:0:0:0:
175,79,17590,1,8,0:0:0:0:
264,125,17777,2,0,L|354:121,1,80
461,197,18152,6,0,P|465:238|465:290,2,80,0|8|0,0:0|0:0|0:0,0:0:0:0:
443,96,18715,1,8,0:0:0:0:
362,222,18902,1,0,3:0:0:0:
215,82,19090,1,8,0:0:0:0:
342,120,19277,1,0,3:0:0:0:
211,208,19465,6,0,L|120:206,2,80,4|0|8,0:0|0:0|0:0,0:0:0:0:
322,314,20027,2,0,P|368:322|414:308,1,80,0|0,0:0|3:0,0:0:0:0:
362,222,20402,1,0,3:0:0:0:
431,147,20590,1,8,0:0:0:0:
366,68,20777,2,0,L|284:73,1,80
183,136,21152,6,0,B|191:176|191:176|182:225,1,80,0|8,0:0|0:0,0:0:0:0:
77,312,21527,2,0,B|69:273|69:273|77:233,1,80,0|0,0:0|3:0,0:0:0:0:
181,325,21902,1,0,3:0:0:0:
270,271,22090,1,8,0:0:0:0:
362,327,22277,2,0,L|370:248,1,80
453,143,22652,6,0,B|414:152|414:152|360:138,1,80,0|8,0:0|0:0,0:0:0:0:
282,61,23027,2,0,B|243:50|243:50|204:59,1,80,0|0,0:0|3:0,0:0:0:0:
105,121,23402,1,0,3:0:0:0:
189,181,23590,1,8,0:0:0:0:
108,240,23777,1,0,0:0:0:0:
194,326,23965,6,0,L|228:330,4,26.6666666666667,0|0|0|0|0,3:0|0:0|0:0|0:0|0:0,0:0:0:0:
297,287,24340,2,0,L|332:284,4,26.6666666666667,0|0|0|0|0,3:0|0:0|0:0|0:0|0:0,0:0:0:0:
426,319,24715,2,0,L|435:265,1,40,0|0,3:0|0:0,0:0:0:0:
490,211,24902,2,0,L|481:157,1,40,0|0,3:0|0:0,0:0:0:0:
422,106,25090,2,0,L|382:102,3,40,0|0|0|0,3:0|0:0|0:0|0:0,0:0:0:0:
344,101,25465,6,0,P|287:152|209:134,1,160,4|8,0:0|0:0,0:0:0:0:
151,58,26027,1,0,3:0:0:0:
266,72,26215,1,0,0:0:0:0:
198,169,26402,2,0,P|201:212|201:262,1,80,0|8,3:0|0:0,0:0:0:0:
69,329,26777,2,0,P|109:330|154:336,1,80,0|0,3:0|0:0,0:0:0:0:
279,380,27152,5,0,3:0:0:0:
342,302,27340,2,0,P|417:297|506:294,1,160,8|0,0:0|3:0,0:0:0:0:
443,200,27902,1,0,3:0:0:0:
512,127,28090,2,0,L|505:30,1,80,8|0,0:0|0:0,0:0:0:0:
400,96,28465,6,0,P|355:90|304:87,1,80,0|0,3:0|0:0,0:0:0:0:
218,196,28840,2,0,P|257:192|297:187,1,80,8|0,0:0|0:0,0:0:0:0:
403,237,29215,1,0,3:0:0:0:
310,304,29402,2,0,P|308:360|313:391,1,80,0|8,3:0|0:0,0:0:0:0:
220,264,29777,5,0,3:0:0:0:
100,215,29965,1,0,0:0:0:0:
236,157,30152,1,0,3:0:0:0:
74,214,30340,1,8,0:0:0:0:
245,283,30527,2,0,B|292:281|292:281|356:303|356:303|401:301,1,160,0|0,0:0|3:0,0:0:0:0:
509,207,31090,2,0,L|416:212,1,80,8|0,0:0|3:0,0:0:0:0:
290,104,31465,6,0,P|369:106|462:107,1,160,0|8,0:0|0:0,0:0:0:0:
226,181,32215,1,0,3:0:0:0:
175,96,32402,2,0,P|177:51|181:15,1,80,0|8,3:0|0:0,0:0:0:0:
109,171,32777,2,0,P|66:174|19:173,1,80,0|0,3:0|0:0,0:0:0:0:
162,259,33152,5,0,3:0:0:0:
226,180,33340,2,0,P|302:167|363:218,1,160,8|0,0:0|3:0,0:0:0:0:
278,265,33902,1,0,3:0:0:0:
357,384,34090,2,0,L|362:304,1,80,8|0,0:0|3:0,0:0:0:0:
512,226,34465,6,0,P|475:229|423:227,1,80,0|0,0:0|3:0,0:0:0:0:
271,160,34840,2,0,P|308:157|360:159,1,80,8|0,0:0|0:0,0:0:0:0:
261,61,35215,1,0,3:0:0:0:
184,123,35402,2,0,P|184:174|189:228,1,80,0|8,3:0|0:0,0:0:0:0:
247,325,35777,5,0,3:0:0:0:
271,160,35964,1,0,0:0:0:0:
375,289,36152,1,0,3:0:0:0:
186,202,36339,1,8,0:0:0:0:
371,141,36527,1,0,0:0:0:0:
253,29,36715,5,0,3:0:0:0:
271,160,36902,1,0,3:0:0:0:
150,109,37090,1,8,0:0:0:0:
146,132,37183,1,8,0:0:0:0:
144,156,37277,1,8,0:0:0:0:
42,266,37465,6,0,L|135:272,1,80,4|0,0:0|0:0,0:0:0:0:
211,224,37840,1,8,0:0:0:0:
205,326,38027,1,0,0:0:0:0:
121,271,38215,1,0,3:0:0:0:
257,154,38402,2,0,P|285:185|294:220,1,80,0|8,3:0|0:0,0:0:0:0:
211,224,38777,1,0,3:0:0:0:
180,128,38965,6,0,L|192:35,1,80,0|0,0:0|3:0,0:0:0:0:
83,110,39340,2,0,P|74:151|72:189,1,80,8|0,0:0|0:0,0:0:0:0:
200,302,39715,2,0,P|209:261|210:222,1,80,0|0,3:0|3:0,0:0:0:0:
180,128,40090,1,8,0:0:0:0:
289,170,40277,2,0,L|380:165,1,80,0|0,3:0|0:0,0:0:0:0:
453,220,40652,5,0,3:0:0:0:
324,77,40840,1,8,0:0:0:0:
210,223,41027,1,0,0:0:0:0:
324,77,41402,5,0,3:0:0:0:
210,223,41590,1,8,0:0:0:0:
453,220,41777,1,0,3:0:0:0:
210,223,42152,5,0,3:0:0:0:
453,220,42340,1,8,0:0:0:0:
324,77,42527,1,0,0:0:0:0:
315,281,42715,2,0,P|307:243|320:188,1,80,0|0,3:0|3:0,0:0:0:0:
407,132,43090,1,8,0:0:0:0:
210,223,43277,1,0,0:0:0:0:
317,105,43465,6,0,L|224:111,1,80,4|0,0:0|0:0,0:0:0:0:
148,63,43840,1,8,0:0:0:0:
154,165,44027,1,0,0:0:0:0:
238,110,44215,1,0,3:0:0:0:
70,167,44402,2,0,P|80:205|107:234,1,80,0|8,3:0|0:0,0:0:0:0:
217,270,44777,1,0,3:0:0:0:
221,122,44965,6,0,L|153:164,1,80,0|0,0:0|3:0,0:0:0:0:
163,42,45340,1,8,0:0:0:0:
262,48,45527,2,0,P|289:73|306:117,1,80,0|0,0:0|3:0,0:0:0:0:
225,224,45902,1,0,0:0:0:0:
221,122,46090,1,8,0:0:0:0:
138,177,46277,1,0,0:0:0:0:
305,285,46465,6,0,P|304:324|309:364,1,80,0|0,3:0|0:0,0:0:0:0:
446,232,46840,2,0,P|446:192|441:152,1,80,8|0,0:0|0:0,0:0:0:0:
383,72,47215,1,0,3:0:0:0:
284,206,47402,2,0,L|375:198,1,80,0|8,3:0|0:0,0:0:0:0:
188,296,47777,6,0,P|186:255|185:208,1,80,0|0,3:0|0:0,0:0:0:0:
127,94,48152,1,0,3:0:0:0:
89,187,48340,1,8,0:0:0:0:
28,71,48527,1,0,0:0:0:0:
215,47,48715,5,0,0:0:0:0:
215,47,48902,1,0,3:0:0:0:
296,152,49090,2,0,P|293:195|286:231,1,80,8|0,0:0|0:0,0:0:0:0:
218,341,49465,5,0,0:0:0:0:
218,341,49652,1,0,3:0:0:0:
285,231,49840,2,0,P|248:211|207:195,1,80,8|0,0:0|0:0,0:0:0:0:
85,219,50215,5,0,0:0:0:0:
85,219,50402,1,0,3:0:0:0:
212,196,50590,2,0,B|219:155|217:98,1,80,8|0,0:0|0:0,0:0:0:0:
314,158,50965,5,0,3:0:0:0:
118,145,51152,1,0,0:0:0:0:
251,273,51340,5,0,3:0:0:0:
285,53,51527,1,0,0:0:0:0:
145,225,51715,5,0,3:0:0:0:
343,238,51902,1,0,0:0:0:0:
207,58,52090,2,0,P|245:47|303:62,1,80,0|0,3:0|0:0,0:0:0:0:
417,116,52465,6,0,L|409:167,1,40,0|0,3:0|0:0,0:0:0:0:
456,229,52652,2,0,L|461:280,1,40,0|0,3:0|0:0,0:0:0:0:
418,342,52840,2,0,L|363:339,1,40,0|0,3:0|0:0,0:0:0:0:
308,296,53027,2,0,L|253:300,1,40,0|0,3:0|0:0,0:0:0:0:
202,351,53215,1,0,3:0:0:0:
202,351,53590,6,0,B|194:304|194:304|216:261|216:261|205:205,1,143.999995605469,8|0,0:0|0:0,0:0:0:0:
189,180,53965,6,0,P|276:220|344:150,1,191.999994140625,4|8,0:0|0:0,0:0:0:0:
334,25,54527,1,0,3:0:0:0:
261,138,54715,1,0,0:0:0:0:
413,87,54902,1,0,3:0:0:0:
236,26,55090,1,8,0:0:0:0:
261,138,55277,1,0,3:0:0:0:
139,71,55465,6,0,L|119:171,1,95.9999970703126,0|0,0:0|3:0,0:0:0:0:
267,233,55840,1,8,0:0:0:0:
303,137,56027,2,0,B|199:114|226:186|119:165,1,191.999994140625,0|0,3:0|3:0,0:0:0:0:
139,71,56590,1,8,0:0:0:0:
267,233,56777,6,0,L|287:333,1,95.9999970703126,0|0,3:0|0:0,0:0:0:0:
369,269,57152,1,0,3:0:0:0:
179,281,57340,1,8,0:0:0:0:
303,137,57527,1,0,3:0:0:0:
267,233,57715,1,0,0:0:0:0:
267,233,57808,1,0,0:0:0:0:
267,233,57902,1,0,3:0:0:0:
240,59,58090,1,8,0:0:0:0:
402,132,58277,1,0,3:0:0:0:
267,233,58465,6,0,L|167:213,1,95.9999970703126,0|0,0:0|3:0,0:0:0:0:
54,144,58840,1,8,0:0:0:0:
119,68,59027,2,0,P|190:124|172:213,1,191.999994140625,0|0,3:0|3:0,0:0:0:0:
98,284,59590,1,8,0:0:0:0:
267,233,59777,6,0,L|287:333,1,95.9999970703126,0|0,3:0|0:0,0:0:0:0:
423,231,60152,1,0,3:0:0:0:
394,228,60246,1,0,0:0:0:0:
365,225,60340,1,8,0:0:0:0:
227,128,60527,1,0,3:0:0:0:
256,125,60621,1,0,0:0:0:0:
285,122,60715,1,0,0:0:0:0:
399,10,60902,1,0,3:0:0:0:
402,38,60996,1,0,0:0:0:0:
405,68,61090,2,0,L|502:80,1,95.9999970703126,8|0,0:0|3:0,0:0:0:0:
345,182,61465,5,0,0:0:0:0:
305,26,61652,1,0,3:0:0:0:
243,151,61840,1,8,0:0:0:0:
419,135,62027,2,0,B|455:243|372:211|422:333,1,191.999994140625,0|0,3:0|3:0,0:0:0:0:
500,269,62590,1,8,0:0:0:0:
345,182,62777,6,0,L|240:191,1,95.9999970703126,0|0,3:0|0:0,0:0:0:0:
417,320,63152,1,0,3:0:0:0:
419,135,63340,1,8,0:0:0:0:
303,284,63527,1,0,3:0:0:0:
297,91,63715,2,0,L|195:82,1,95.9999970703126,0|0,0:0|3:0,0:0:0:0:
35,68,64090,1,8,0:0:0:0:
120,250,64277,6,0,L|128:154,1,95.9999970703126,0|0,3:0|0:0,0:0:0:0:
207,325,64652,1,0,3:0:0:0:
26,278,64840,1,8,0:0:0:0:
228,189,65027,1,0,3:0:0:0:
26,163,65215,2,0,L|35:61,1,95.9999970703126,0|0,0:0|3:0,0:0:0:0:
120,250,65590,1,8,0:0:0:0:
249,68,65777,6,0,L|345:77,1,95.9999970703126,4|0,0:0|0:0,0:0:0:0:
491,89,66152,1,0,3:0:0:0:
373,205,66340,1,8,0:0:0:0:
376,233,66433,1,0,0:0:0:0:
379,261,66527,1,0,3:0:0:0:
290,149,66715,1,0,0:0:0:0:
473,221,66902,1,0,3:0:0:0:
327,350,67090,5,8,0:0:0:0:
327,350,67183,1,0,0:0:0:0:
155,270,67371,1,0,0:0:0:0:
155,270,67465,6,0,P|105:265|60:284,2,95.9999970703126,0|0|8,0:0|3:0|0:0,0:0:0:0:
269,206,68027,2,0,P|364:227|431:161,1,191.999994140625,0|0,3:0|3:0,0:0:0:0:
452,66,68590,1,8,0:0:0:0:
336,131,68777,6,0,L|355:225,1,95.9999970703126,0|0,3:0|0:0,0:0:0:0:
368,267,69058,1,0,0:0:0:0:
368,267,69152,1,0,3:0:0:0:
216,384,69340,1,8,0:0:0:0:
219,355,69433,1,0,0:0:0:0:
222,326,69527,1,0,3:0:0:0:
146,197,69715,1,0,0:0:0:0:
270,240,69902,1,0,3:0:0:0:
237,127,70090,5,8,0:0:0:0:
234,98,70183,1,0,0:0:0:0:
231,69,70277,1,0,3:0:0:0:
228,40,70371,1,0,0:0:0:0:
225,11,70465,6,0,P|271:10|332:21,2,95.9999970703126,0|0|8,0:0|3:0|0:0,0:0:0:0:
97,88,71027,2,0,B|61:194|144:162|99:272,1,191.999994140625,0|0,3:0|3:0,0:0:0:0:
13,220,71590,1,8,0:0:0:0:
188,130,71777,6,0,L|290:134,1,95.9999970703126,0|0,3:0|0:0,0:0:0:0:
315,136,72058,1,0,3:0:0:0:
408,221,72246,1,0,0:0:0:0:
425,197,72340,1,8,0:0:0:0:
433,169,72433,1,0,0:0:0:0:
433,140,72527,1,0,3:0:0:0:
421,113,72621,1,0,0:0:0:0:
404,89,72715,5,0,0:0:0:0:
503,237,72902,1,0,3:0:0:0:
315,136,73090,1,8,0:0:0:0:
315,136,73183,1,0,0:0:0:0:
370,324,73371,1,0,0:0:0:0:
370,324,73465,6,0,P|416:335|462:320,2,95.9999970703126,0|0|8,0:0|3:0|0:0,0:0:0:0:
260,247,74027,2,0,P|170:209|92:263,1,191.999994140625,0|0,3:0|3:0,0:0:0:0:
55,353,74590,1,8,0:0:0:0:
180,305,74777,6,0,L|177:209,1,95.9999970703126,4|0,0:0|0:0,0:0:0:0:
365,321,75152,1,0,3:0:0:0:
276,265,75340,1,8,0:0:0:0:
366,219,75527,1,0,3:0:0:0:
230,361,75715,5,0,0:0:0:0:
243,167,75902,1,0,3:0:0:0:
438,272,76090,1,8,0:0:0:0:
369,171,76277,6,0,L|359:58,1,95.9999970703126,0|0,3:0|0:0,0:0:0:0:
185,172,76652,1,0,3:0:0:0:
282,132,76840,1,8,0:0:0:0:
201,71,77027,1,0,3:0:0:0:
263,220,77215,5,0,0:0:0:0:
294,34,77402,1,0,3:0:0:0:
109,108,77590,1,8,0:0:0:0:
166,240,77777,6,0,P|220:310|331:292,1,191.999994140625,0|0,3:0|3:0,0:0:0:0:
427,220,78340,1,8,0:0:0:0:
263,220,78527,1,0,3:0:0:0:
417,311,78715,5,0,0:0:0:0:
276,135,78902,1,0,3:0:0:0:
315,303,79090,1,8,0:0:0:0:
443,130,79277,1,0,3:0:0:0:
443,130,79652,5,0,3:0:0:0:
354,204,79840,1,0,3:0:0:0:
240,188,80027,1,0,3:0:0:0:
178,91,80215,2,0,L|174:289,1,191.999994140625,0|8,3:0|0:0,0:0:0:0:
27,173,80777,6,0,L|127:163,1,95.9999970703126,4|0,0:0|0:0,0:0:0:0:
251,201,81152,1,0,3:0:0:0:
140,276,81340,1,8,0:0:0:0:
279,202,81527,1,0,3:0:0:0:
141,72,81715,5,0,0:0:0:0:
243,301,81902,1,0,3:0:0:0:
27,173,82090,1,8,0:0:0:0:
233,112,82277,6,0,L|331:121,1,95.9999970703126,4|0,0:0|0:0,0:0:0:0:
493,69,82652,1,0,3:0:0:0:
430,189,82840,1,8,0:0:0:0:
394,62,83027,1,0,3:0:0:0:
355,253,83215,5,0,0:0:0:0:
302,31,83402,1,0,3:0:0:0:
128,186,83590,1,8,0:0:0:0:
256,383,83777,6,0,B|301:273|218:305|254:199,1,191.999994140625,4|0,0:0|3:0,0:0:0:0:
365,85,84340,1,8,0:0:0:0:
355,253,84527,1,0,3:0:0:0:
207,108,84715,5,0,0:0:0:0:
439,154,84902,1,0,3:0:0:0:
245,246,85090,5,8,0:0:0:0:
281,17,85277,1,0,3:0:0:0:
281,17,85652,5,0,3:0:0:0:
185,79,85840,1,0,3:0:0:0:
169,193,86027,1,0,3:0:0:0:
240,284,86215,2,0,L|437:275,1,191.999994140625,0|4,3:0|0:0,0:0:0:0:
