osu file format v14

[General]
AudioFilename: pre-parade.mp3
AudioLeadIn: 0
PreviewTime: 53402
Countdown: 0
SampleSet: Soft
StackLeniency: 0.4
Mode: 0
LetterboxInBreaks: 0
WidescreenStoryboard: 0

[Editor]
Bookmarks: 7465,13465,25465,37465
DistanceSpacing: 1.2
BeatDivisor: 6
GridSize: 4
TimelineZoom: 2.5

[Metadata]
Title:Pre-Parade (TV-SIZE)
TitleUnicode:プレパレード (TV-SIZE)
Artist:Kugimiya Rie, Horie Yui & Kitamura Eri
ArtistUnicode:釘宮理恵, 堀江由衣 & 喜多村英梨
Creator:Yamicchi
Version:Another
Source:とらドラ!
Tags:toradora! toradora opening op Asaiga Namki LMT
BeatmapID:1562168
BeatmapSetID:740458

[Difficulty]
HPDrainRate:6
CircleSize:4
OverallDifficulty:8
ApproachRate:9
SliderMultiplier:1.8
SliderTickRate:1

[Events]
//Background and Video events
0,0,"background.jpg",0,0
Video,-2112,"preparade.avi"
//Break Periods
//Storyboard Layer 0 (Background)
//Storyboard Layer 1 (Fail)
//Storyboard Layer 2 (Pass)
//Storyboard Layer 3 (Foreground)
//Storyboard Sound Samples

[TimingPoints]
1465,375,4,2,1,50,1,0
7090,-66.6666666666667,4,2,1,50,0,0
7465,-100,4,2,1,65,0,0
11965,-100,4,2,1,60,0,0
12152,-133.333333333333,4,2,1,55,0,0
12340,-200,4,2,1,50,0,0
12715,-133.333333333333,4,2,1,55,0,0
12902,-100,4,2,1,60,0,0
13090,-66.6666666666667,4,2,1,65,0,0
13465,-100,4,2,1,70,0,0
25465,-100,4,2,1,60,0,0
37465,-100,4,2,1,65,0,0
46465,-100,4,2,1,65,0,0
50965,-100,4,2,1,65,0,0
51340,-100,4,2,1,65,0,0
51715,-100,4,2,1,65,0,0
52090,-100,4,2,1,65,0,0
52465,-100,4,2,1,65,0,0
53215,-100,4,2,1,70,0,0
53590,-83.3333333333333,4,2,1,70,0,0
53777,-83.3333333333333,4,2,1,70,0,1
65215,-83.3333333333333,4,2,1,70,0,0
65965,-83.3333333333333,4,2,1,70,0,1
74590,-83.3333333333333,4,2,1,70,0,0
76277,-111.111111111111,4,2,1,70,0,0
77777,-83.3333333333333,4,2,1,70,0,0
80215,-80,4,2,1,70,0,0
80590,-66.6666666666667,4,2,1,70,0,0
80777,-83.3333333333333,4,2,1,70,0,0
83777,-83.3333333333333,4,2,1,70,0,0
86215,-66.6666666666667,4,2,1,70,0,0
88465,-80,4,2,1,5,0,0

[Colours]
Combo1 : 253,38,156
Combo2 : 147,56,245
Combo3 : 248,104,35
Combo4 : 74,221,125

[HitObjects]
292,268,1465,6,0,L|280:320,3,45,0|0|0|0,3:0|0:0|0:0|0:0,0:0:0:0:
300,225,1840,2,0,B|308:180|308:180|300:132,2,90,10|0|2,0:0|0:0|0:0,0:0:0:0:
270,354,2402,1,0,3:0:0:0:
208,180,2590,1,8,0:0:0:0:
389,212,2777,1,2,3:2:0:0:
132,268,2965,6,0,L|144:320,3,45,0|0|2|0,0:0|0:0|0:0|0:0,0:0:0:0:
124,225,3340,2,0,B|116:180|116:180|124:132,1,90,8|2,0:0|0:0,0:0:0:0:
304,48,3715,1,2,3:2:0:0:
208,180,3902,1,0,0:0:0:0:
208,180,3996,1,0,0:0:0:0:
208,180,4090,1,8,0:1:0:0:
370,197,4277,1,0,0:0:0:0:
274,329,4465,6,0,L|224:324,3,45,2|0|0|0,3:2|0:0|0:0|0:0,0:0:0:0:
362,337,4840,2,0,P|356:295|324:255,1,90,10|2,0:0|3:2,0:0:0:0:
196,248,5215,2,0,P|162:274|143:321,1,90,2|2,0:0|3:2,0:0:0:0:
145,332,5496,1,0,0:0:0:0:
146,347,5590,1,8,0:0:0:0:
64,192,5777,1,2,3:2:0:0:
219,111,5965,6,0,L|224:160,3,45,0|0|2|0,0:0|0:0|0:2|0:0,0:0:0:0:
196,248,6340,1,10,0:0:0:0:
120,88,6527,2,0,L|130:178,1,90,0|2,0:0|0:0,0:0:0:0:
146,347,6902,1,0,0:0:0:0:
145,332,6996,1,0,0:0:0:0:
144,317,7090,6,0,B|200:288|256:321|240:329|296:352|344:320,1,202.500007724762,8|0,0:1|0:0,0:0:0:0:
305,208,7465,6,0,P|297:229|294:251,3,45,4|0|0|0,3:2|0:0|0:0|0:0,0:0:0:0:
377,249,7840,2,0,L|480:240,2,90,10|0|2,0:0|3:0|0:0,0:0:0:0:
233,167,8402,1,0,3:0:0:0:
416,48,8590,2,0,P|432:96|424:152,1,90,8|2,0:0|0:0,0:0:0:0:
281,299,8965,5,0,3:0:0:0:
277,279,9058,1,0,0:0:0:0:
273,259,9152,1,2,0:0:0:0:
436,164,9340,1,8,0:0:0:0:
356,348,9527,1,2,0:0:0:0:
241,181,9715,2,0,P|297:177|341:209,1,90,2|0,3:2|0:0,0:0:0:0:
377,249,9996,1,0,0:0:0:0:
377,249,10090,2,0,P|417:266|461:260,1,90,8|0,0:1|0:0,0:0:0:0:
240,96,10465,6,0,P|184:116|156:200,1,135,2|0,3:2|0:0,0:0:0:0:
176,260,10840,1,10,0:0:0:0:
120,64,11027,1,2,3:2:0:0:
79,227,11215,1,2,0:0:0:0:
241,181,11402,2,0,L|340:188,1,90,2|8,3:2|0:0,0:0:0:0:
176,260,11777,1,2,0:0:0:0:
388,352,11965,6,0,P|396:328|396:304,1,45
444,244,12152,2,0,P|420:232|396:228,1,33.7500012874604,2|0,0:0|0:0,0:0:0:0:
360,176,12340,2,0,P|348:192|344:208,1,22.5,2|0,0:0|0:0,0:0:0:0:
364,164,12527,6,0,P|345:171|334:183,1,22.5
456,252,12715,2,0,P|441:229|422:214,1,33.7500012874604,2|0,0:0|0:0,0:0:0:0:
384,368,12902,2,0,P|402:351|414:330,1,45
232,272,13090,6,0,B|204:244|224:200|308:192|344:276|272:336,1,202.500007724762,8|0,0:0|0:0,0:0:0:0:
220,344,13465,5,4,3:2:0:0:
84,208,13652,2,0,P|72:164|84:116,1,90,2|8,0:0|0:0,0:0:0:0:
240,32,14027,2,0,P|252:76|240:124,1,90,2|0,0:0|3:0,0:0:0:0:
152,276,14402,1,2,3:2:0:0:
162,79,14590,1,10,0:0:0:0:
327,186,14777,6,0,B|375:210|423:186|407:178|455:162|503:178,1,180,2|2,3:2|0:0,0:0:0:0:
368,96,15340,1,8,0:0:0:0:
286,276,15527,2,0,P|251:248|228:182,1,90,2|0,0:0|3:0,0:0:0:0:
256,32,15902,1,2,3:2:0:0:
327,186,16090,1,10,0:0:0:0:
104,120,16277,6,0,B|80:184|80:184|112:320,1,180,2|2,3:2|0:0,0:0:0:0:
160,188,16840,1,8,0:0:0:0:
11,232,17027,2,0,L|32:320,1,90,2|0,0:0|3:0,0:0:0:0:
240,280,17402,1,2,3:2:0:0:
104,120,17590,1,10,0:0:0:0:
168,364,17777,6,0,B|216:384|264:360|244:352|296:328|360:352,1,180,2|2,3:2|0:0,0:0:0:0:
372,122,18340,1,8,0:0:0:0:
204,272,18527,1,0,0:0:0:0:
312,176,18715,5,2,3:2:0:0:
341,346,18902,1,2,3:2:0:0:
295,97,19090,1,10,0:2:0:0:
215,367,19277,1,2,3:2:0:0:
490,301,19465,5,4,3:2:0:0:
383,96,19652,2,0,P|335:88|295:96,1,90,2|8,0:0|0:0,0:0:0:0:
204,272,20027,2,0,P|252:280|292:272,1,90,2|0,0:0|3:0,0:0:0:0:
187,117,20402,1,2,3:2:0:0:
108,285,20590,1,10,0:0:0:0:
11,123,20777,6,0,B|79:103|79:103|199:119,1,180,2|2,3:2|0:0,0:0:0:0:
332,136,21340,1,8,0:0:0:0:
244,252,21527,2,0,P|248:308|256:360,1,90,2|0,0:0|3:0,0:0:0:0:
412,204,21902,2,0,P|417:159|420:114,1,90,2|10,3:2|0:0,0:0:0:0:
240,48,22277,6,0,P|176:112|76:88,1,180,2|2,3:2|0:0,0:0:0:0:
12,8,22840,1,8,0:0:0:0:
56,196,23027,2,0,P|48:244|28:296,1,90,2|0,0:0|3:0,0:0:0:0:
0,128,23402,1,2,3:2:0:0:
192,156,23590,1,10,0:0:0:0:
164,348,23777,1,2,0:0:0:0:
264,112,23965,6,0,L|260:68,5,30,2|0|0|0|0|0,0:0|0:0|0:0|0:0|0:0|0:0,0:0:0:0:
340,160,24340,2,0,L|344:116,5,30,2|0|0|0|0|0,0:0|0:0|0:0|0:0|0:0|0:0,0:0:0:0:
264,244,24715,6,0,L|260:200,1,45,2|0,0:0|0:0,0:0:0:0:
344,288,24902,2,0,L|348:244,1,45,2|0,0:0|0:0,0:0:0:0:
180,352,25090,6,0,L|176:308,1,45,2|0,0:0|0:0,0:0:0:0:
264,376,25277,2,0,L|268:332,1,45,2|0,0:0|0:0,0:0:0:0:
168,184,25465,5,4,3:2:0:0:
84,252,25652,1,0,0:0:0:0:
160,372,25840,2,0,L|164:276,1,90,8|0,0:0|0:0,0:0:0:0:
68,148,26215,1,0,3:0:0:0:
179,63,26402,2,0,P|223:57|264:73,1,90,0|8,3:0|0:0,0:0:0:0:
330,211,26777,6,0,P|258:155|275:61,1,180,0|0,3:0|0:0,0:0:0:0:
428,192,27340,2,0,P|424:244|396:288,1,90,8|0,0:0|0:0,0:0:0:0:
340,124,27715,1,0,0:0:0:0:
340,124,27902,1,0,0:0:0:0:
212,256,28090,2,0,L|116:248,1,90,8|0,0:0|0:0,0:0:0:0:
228,80,28465,5,0,3:0:0:0:
330,211,28652,1,0,0:0:0:0:
216,65,28840,1,8,0:0:0:0:
320,196,29027,1,0,0:0:0:0:
114,338,29215,2,0,L|122:244,1,90,0|0,3:0|3:0,3:0:0:0:
236,93,29590,2,0,L|244:187,1,90,8|0,0:0|0:0,0:0:0:0:
344,328,29965,5,0,3:0:0:0:
352,148,30152,1,0,0:0:0:0:
346,304,30340,1,8,0:0:0:0:
437,125,30527,2,0,P|438:169|416:208,2,90,0|0|0,0:0|3:0|3:0,0:0:0:0:
290,88,31090,2,0,P|313:126|352:148,1,90,8|0,0:0|0:0,0:0:0:0:
320,4,31465,6,0,P|232:20|204:108,1,180,0|8,3:0|0:0,0:0:0:0:
232,244,32027,1,0,0:0:0:0:
290,88,32215,1,0,3:0:0:0:
290,88,32402,2,0,P|248:100|184:92,1,90,0|8,3:0|0:0,0:0:0:0:
38,107,32777,6,0,B|84:80|84:80|80:206,1,180,0|0,3:0|0:0,0:0:0:0:
232,244,33340,2,0,L|220:140,1,90,8|0,0:0|0:0,0:0:0:0:
76,295,33715,1,0,0:0:0:0:
76,295,33902,1,0,0:0:0:0:
256,340,34090,2,0,P|300:348|344:336,1,90,8|0,0:0|0:0,0:0:0:0:
160,312,34465,5,0,0:0:0:0:
221,154,34652,1,0,0:0:0:0:
256,340,34840,1,8,0:0:0:0:
77,277,35027,1,0,0:0:0:0:
212,140,35215,1,0,3:0:0:0:
312,236,35402,2,0,L|432:228,1,90,0|8,3:0|0:0,0:0:0:0:
200,124,35777,5,0,0:0:0:0:
144,364,35965,1,0,0:0:0:0:
80,228,36152,1,0,0:0:0:0:
229,240,36340,1,8,0:0:0:0:
64,248,36527,1,0,0:0:0:0:
156,104,36715,2,0,P|164:148|148:208,1,90,0|0,3:0|3:0,3:0:0:0:
56,316,37090,1,8,0:0:0:0:
52,292,37184,1,0,3:0:0:0:
48,268,37277,1,0,3:0:0:0:
65,107,37465,6,0,L|155:104,1,90,6|0,3:2|0:0,0:0:0:0:
277,1,37840,2,0,P|279:46|264:88,1,90,10|0,0:0|0:0,0:0:0:0:
224,184,38215,1,2,3:2:0:0:
364,296,38402,2,0,L|456:288,1,90,2|8,3:2|0:0,0:0:0:0:
284,356,38777,6,0,P|268:272|344:196,1,180,2|0,3:2|0:0,0:0:0:0:
412,144,39340,2,0,P|425:89|426:40,1,90,10|0,0:0|0:0,0:0:0:0:
312,130,39715,2,0,P|296:76|272:33,1,90,2|0,3:2|3:0,3:0:0:0:
218,167,40090,2,0,P|177:127|135:103,1,90,10|0,0:2|0:0,0:0:0:0:
152,240,40465,1,0,0:0:0:0:
429,244,40652,5,2,0:0:0:0:
272,288,40840,1,10,0:0:0:0:
312,130,41027,1,2,0:0:0:0:
315,360,41402,5,2,0:0:0:0:
429,244,41590,1,10,0:0:0:0:
271,204,41777,1,2,0:0:0:0:
423,336,42152,5,2,0:0:0:0:
508,296,42340,1,10,0:0:0:0:
512,204,42527,1,2,0:0:0:0:
352,192,42715,5,2,0:0:0:0:
385,374,42902,1,2,0:0:0:0:
210,311,43090,1,10,0:0:0:0:
436,152,43277,1,10,0:0:0:0:
291,281,43465,6,0,P|276:241|268:188,1,90,6|0,3:2|0:0,0:0:0:0:
339,54,43840,2,0,L|439:62,1,90,10|0,0:0|0:0,0:0:0:0:
264,104,44215,1,2,3:2:0:0:
102,24,44402,2,0,P|94:68|79:110,1,90,2|8,3:2|0:0,0:0:0:0:
30,197,44777,6,0,B|0:128|44:76|44:76|68:88|79:110,1,180,2|0,0:0|0:0,0:0:0:0:
104,256,45340,2,0,P|68:284|12:288,1,90,10|0,0:0|0:0,0:0:0:0:
192,284,45715,2,0,P|198:329|173:379,1,90,2|0,3:2|3:0,3:0:0:0:
260,221,46090,2,0,P|302:238|333:284,1,90,10|0,0:0|0:0,0:0:0:0:
436,148,46465,6,0,L|444:48,1,90,2|0,0:0|0:0,0:0:0:0:
252,131,46840,2,0,L|260:231,1,90,10|0,0:0|0:0,0:0:0:0:
264,320,47215,1,2,3:2:0:0:
76,148,47402,2,0,L|84:48,1,90,2|8,3:2|0:0,0:0:0:0:
36,252,47777,6,0,B|104:244|104:244|144:256|144:256|240:244,1,180,2|0,3:2|0:0,0:0:0:0:
419,163,48340,1,10,0:0:0:0:
419,163,48527,2,0,P|339:128|260:164,1,180,2|0,0:0|0:0,0:0:0:0:
260,328,49090,1,10,0:0:0:0:
260,328,49277,6,0,P|340:363|419:327,1,180,2|0,0:0|0:0,0:0:0:0:
419,163,49840,1,10,0:0:0:0:
419,163,50027,1,2,0:0:0:0:
212,248,50215,5,0,0:0:0:0:
200,96,50402,1,0,0:0:0:0:
304,288,50590,1,8,0:0:0:0:
340,140,50777,1,0,0:0:0:0:
120,208,50965,5,0,0:0:0:0:
340,140,51152,1,2,0:0:0:0:
88,112,51340,5,0,0:0:0:0:
352,124,51527,1,2,0:0:0:0:
120,208,51715,5,0,0:0:0:0:
364,108,51902,1,2,0:0:0:0:
204,320,52090,6,0,L|206:342,6,22.5
280,252,52465,6,0,L|324:264,1,45,2|0,0:0|0:0,0:0:0:0:
244,160,52652,2,0,L|269:121,1,45,2|0,0:0|0:0,0:0:0:0:
144,168,52840,2,0,L|115:132,1,45,2|0,0:0|0:0,0:0:0:0:
120,264,53027,2,0,L|77:280,1,45,2|0,0:0|0:0,0:0:0:0:
199,234,53215,1,2,0:0:0:0:
199,234,53590,6,0,P|233:238|260:236,1,53.9999983520508,8|0,0:1|0:0,0:0:0:0:
388,152,53777,1,0,0:0:0:0:
388,152,53871,1,0,0:0:0:0:
388,152,53965,6,0,P|444:140|504:156,1,107.999996704102,4|0,3:2|0:0,0:0:0:0:
268,122,54340,1,8,0:0:0:0:
204,324,54527,1,0,0:0:0:0:
332,272,54715,1,0,0:0:0:0:
140,176,54902,1,0,3:0:0:0:
232,340,55090,2,0,P|242:287|230:235,1,107.999996704102,8|0,0:0|0:0,0:0:0:0:
160,48,55465,5,0,3:0:0:0:
56,172,55652,1,0,0:0:0:0:
216,201,55840,1,8,0:0:0:0:
110,325,56027,2,0,L|0:336,2,107.999996704102,0|0|0,3:0|0:0|3:0,0:0:0:0:
140,176,56590,1,8,0:0:0:0:
272,348,56777,6,0,B|298:298|274:234|262:254|238:182|276:136,1,215.999993408203,0|0,3:0|0:0,0:0:0:0:
456,76,57340,1,8,0:0:0:0:
372,196,57527,1,0,3:0:0:0:
241,58,57715,1,0,0:0:0:0:
267,51,57808,1,0,0:0:0:0:
294,51,57903,1,0,0:0:0:0:
319,59,57996,1,0,0:0:0:0:
343,73,58090,2,0,P|343:105|339:137,1,53.9999983520508,8|0,0:0|0:0,0:0:0:0:
260,224,58277,2,0,P|260:192|264:160,1,53.9999983520508
433,293,58465,5,0,3:0:0:0:
253,338,58652,1,0,0:0:0:0:
360,381,58840,1,8,0:0:0:0:
260,224,59027,2,0,P|208:232|160:272,1,107.999996704102,0|0,0:0|3:0,0:0:0:0:
112,376,59402,1,0,3:0:0:0:
0,192,59590,1,8,0:0:0:0:
183,63,59777,6,0,P|171:159|275:223,1,215.999993408203,0|0,3:0|0:0,0:0:0:0:
288,220,60246,1,0,0:0:0:0:
316,216,60340,1,8,0:0:0:0:
268,120,60527,1,0,0:0:0:0:
303,116,60621,1,0,0:0:0:0:
339,113,60715,1,0,0:0:0:0:
252,16,60902,1,0,0:0:0:0:
295,12,60996,1,0,0:0:0:0:
339,8,61090,2,0,B|392:4|392:4|460:20,1,107.999996704102,8|0,0:0|0:0,0:0:0:0:
488,80,61371,1,0,0:0:0:0:
488,80,61465,5,0,3:0:0:0:
413,291,61652,1,0,0:0:0:0:
268,120,61840,1,8,0:0:0:0:
480,196,62027,1,0,3:0:0:0:
288,230,62215,1,0,0:0:0:0:
268,120,62402,1,0,3:0:0:0:
374,158,62590,1,8,0:0:0:0:
183,193,62777,6,0,B|120:116|192:36|192:36|208:48|220:92,1,215.999993408203,0|0,3:0|0:0,0:0:0:0:
152,300,63340,2,0,P|92:308|44:312,1,107.999996704102,8|0,0:0|0:0,0:0:0:0:
259,331,63715,1,0,3:0:0:0:
76,162,63902,1,8,0:0:0:0:
313,88,64090,1,8,0:1:0:0:
152,300,64277,6,0,B|97:317|57:265|57:265|93:209|152:224,1,215.999993408203,0|0,3:0|0:0,0:0:0:0:
352,324,64840,1,8,0:0:0:0:
320,148,65027,2,0,L|288:152,2,26.9999991760254
404,176,65215,6,0,P|408:144|400:112,1,53.9999983520508
336,236,65402,2,0,P|306:248|282:271,1,53.9999983520508
420,264,65590,2,0,P|445:283|477:292,1,53.9999983520508,8|0,0:0|0:0,0:0:0:0:
320,148,65777,1,0,0:0:0:0:
320,148,65871,1,0,0:0:0:0:
320,148,65965,6,0,B|264:160|264:160|188:152,1,107.999996704102,4|0,3:2|0:0,0:0:0:0:
79,80,66340,1,8,0:0:0:0:
84,112,66433,1,0,0:0:0:0:
79,144,66527,1,0,3:0:0:0:
84,176,66621,1,0,0:0:0:0:
79,208,66715,1,0,0:0:0:0:
224,120,66902,1,0,3:0:0:0:
228,290,67090,1,8,0:0:0:0:
228,290,67183,2,0,L|168:276,1,53.9999983520508
4,248,67371,1,0,0:0:0:0:
4,248,67465,5,0,3:0:0:0:
167,199,67652,1,0,0:0:0:0:
125,377,67840,1,8,0:0:0:0:
79,208,68027,1,0,3:0:0:0:
284,372,68215,1,0,0:0:0:0:
272,204,68402,1,0,3:0:0:0:
133,299,68590,1,8,0:0:0:0:
336,288,68777,6,0,P|376:224|336:120,1,161.999995056153,0|0,3:0|0:0,0:0:0:0:
328,112,69152,2,0,P|304:104|268:104,1,53.9999983520508
144,140,69340,1,8,0:0:0:0:
103,145,69433,1,0,0:0:0:0:
65,128,69527,1,0,3:0:0:0:
80,0,69715,1,0,0:0:0:0:
52,212,69902,1,0,3:0:0:0:
243,124,70090,1,8,0:0:0:0:
243,124,70183,2,0,P|256:184|244:240,1,107.999996704102
292,296,70465,6,0,P|324:300|348:300,1,53.9999983520508,0|0,3:0|0:0,0:0:0:0:
228,344,70652,2,0,P|196:348|172:348,1,53.9999983520508
300,376,70840,2,0,P|332:380|356:380,1,53.9999983520508,8|0,0:0|0:0,0:0:0:0:
220,264,71027,2,0,P|144:272|84:268,1,107.999996704102,0|0,0:0|3:0,0:0:0:0:
284,216,71402,1,0,3:0:0:0:
300,376,71590,1,8,0:0:0:0:
44,328,71777,6,0,P|24:272|48:208,1,107.999996704102
20,136,72058,2,0,P|78:146|121:199,1,107.999996704102
136,216,72340,1,8,0:0:0:0:
171,241,72433,1,0,0:0:0:0:
213,252,72527,1,0,0:0:0:0:
256,246,72621,1,0,0:0:0:0:
296,229,72715,2,0,P|299:184|298:162,1,53.9999983520508
334,96,72902,2,0,P|331:51|332:29,1,53.9999983520508,0|0,3:0|0:0,0:0:0:0:
384,167,73090,1,8,0:1:0:0:
401,173,73183,1,0,0:0:0:0:
419,176,73277,1,0,0:0:0:0:
462,173,73371,1,0,0:0:0:0:
505,166,73465,5,0,3:0:0:0:
359,280,73652,1,0,0:0:0:0:
334,96,73840,1,8,0:0:0:0:
473,271,74027,2,0,B|488:324|488:324|479:380,1,107.999996704102,0|0,3:0|0:0,0:0:0:0:
288,196,74402,1,0,3:0:0:0:
505,166,74590,1,8,0:0:0:0:
304,344,74777,6,0,B|248:368|192:344|216:328|152:304|96:328,1,215.999993408203,4|8,3:2|0:0,0:0:0:0:
123,129,75340,1,8,0:1:0:0:
282,253,75527,1,0,0:0:0:0:
52,220,75715,1,0,3:2:0:0:
238,145,75902,1,8,0:0:0:0:
96,327,76090,1,8,0:1:0:0:
371,279,76277,6,0,P|408:200|352:116,1,161.999995056153,4|8,3:2|0:0,0:0:0:0:
312,204,76840,1,8,0:1:0:0:
504,172,77027,1,0,0:0:0:0:
296,196,77215,1,0,3:2:0:0:
488,252,77402,1,8,0:0:0:0:
280,188,77590,1,8,0:1:0:0:
188,356,77777,6,0,P|133:361|104:228,1,215.999993408203,4|8,3:2|0:0,0:0:0:0:
264,180,78340,2,8,L|384:192,1,107.999996704102,8|0,0:1|0:0,0:0:0:0:
36,268,78715,1,0,3:2:0:0:
64,84,78902,1,8,0:0:0:0:
220,288,79090,1,8,0:1:0:0:
248,104,79277,1,0,0:0:0:0:
248,104,79652,5,8,0:0:0:0:
36,164,79840,5,8,0:0:0:0:
276,96,80027,5,8,0:0:0:0:
8,172,80215,6,0,B|-24:112|29:58|29:58|60:68|68:92,1,168.75,8|0,0:0|0:0,0:0:0:0:
86,156,80590,1,8,0:1:0:0:
208,28,80777,6,0,B|284:12|284:12|424:40,1,215.999993408203,4|0,3:2|0:0,0:0:0:0:
256,192,81340,1,8,0:0:0:0:
470,257,81527,1,0,0:0:0:0:
276,96,81715,1,8,3:2:0:0:
236,288,81902,1,0,0:0:0:0:
450,161,82090,1,8,0:0:0:0:
183,127,82277,6,0,B|128:208|204:275|204:275|260:268,1,215.999993408203,4|0,3:2|0:0,0:0:0:0:
456,244,82840,1,8,0:0:0:0:
256,192,83027,1,0,0:0:0:0:
496,152,83215,1,8,3:2:0:0:
240,184,83402,1,0,0:0:0:0:
484,51,83590,1,8,0:0:0:0:
376,304,83777,6,0,B|328:328|280:304|280:304|264:312|264:312|216:288|160:312,1,215.999993408203,4|0,3:2|0:0,0:0:0:0:
0,216,84340,2,0,L|16:56,1,107.999996704102,8|0,0:0|0:0,0:0:0:0:
284,260,84715,1,8,3:2:0:0:
80,376,84902,1,0,3:0:0:0:
100,112,85090,1,8,0:0:0:0:
240,336,85277,2,0,P|319:342|371:244,1,161.999995056153
408,200,85652,21,8,0:0:0:0:
88,192,85840,5,8,0:0:0:0:
428,201,86027,5,8,0:0:0:0:
185,344,86215,6,0,B|160:296|192:240|200:256|232:200|200:136,1,202.500007724762,8|0,0:0|0:0,0:0:0:0:
184,72,86590,1,8,0:1:0:0:
