osu file format v7

[General]
AudioFilename: Kugimiya Rie - Sweet Gift.mp3
AudioLeadIn: 750
PreviewTime: 34335
Countdown: 0
SampleSet: Soft
StackLeniency: 0.9
Mode: 0
LetterboxInBreaks: 0

[Editor]
DistanceSpacing: 1.10000002384186
BeatDivisor: 4
GridSize: 8

[Metadata]
Title:Sweet Gift
Artist:Kugimiya Rie
Creator:quintitem
Version:Normal
Source:Akaneiro ni Somarusaka
Tags:Anime Katagiri Yuuhi

[Difficulty]
HPDrainRate:3
CircleSize:4
OverallDifficulty:4
SliderMultiplier:1
SliderTickRate:0.5

[Events]
//Background and Video events
0,0,"Yuuhi_2.jpg"
//Break Periods
2,68592,78366
//Storyboard Layer 0 (Background)
//Storyboard Layer 1 (Fail)
//Storyboard Layer 2 (Pass)
//Storyboard Layer 3 (Foreground)
Sprite,Foreground,Centre,"StoryBoard\title.png",320,240 M,0,1333,2392,174,180,189,180 F,0,1333,2392,0,1 F,0,2392,5216,1 F,0,5216,5922,1,0
Sprite,Foreground,Centre,"StoryBoard\aa.png",320,240 M,0,11922,,350,420 F,0,11922,12098,0,1 F,0,12098,16863,1 F,0,16863,17039,1,0
Sprite,Foreground,Centre,"StoryBoard\ab.png",320,240 M,0,14569,,598,420 F,0,14569,14745,0,1 F,0,14745,16863,1 F,0,16863,17039,1,0
Sprite,Foreground,Centre,"StoryBoard\ac.png",320,240 M,0,17392,,350,420 F,0,17392,17569,0,1 F,0,17569,21980,1 F,0,21980,22157,1,0
Sprite,Foreground,Centre,"StoryBoard\ad.png",320,240 M,0,23039,,350,420 F,0,23039,23216,0,1 F,0,23216,25333,1 F,0,25333,25510,1,0
Sprite,Foreground,Centre,"StoryBoard\ae.png",320,240 M,0,25863,,350,420 F,0,25863,26039,0,1 F,0,26039,30098,1 F,0,30098,30275,1,0
Sprite,Foreground,Centre,"StoryBoard\af.png",320,240 M,0,31510,,350,420 F,0,31510,31686,0,1 F,0,31686,33627,1 F,0,33627,33804,1,0
Sprite,Foreground,Centre,"StoryBoard\ag.png",320,240 M,0,34510,,350,420 F,0,34510,34686,0,1 F,0,34686,39627,1 F,0,39627,39804,1,0
Sprite,Foreground,Centre,"StoryBoard\ah.png",320,240 M,0,40157,,350,420 F,0,40157,40333,0,1 F,0,40333,45098,1 F,0,45098,45275,1,0
Sprite,Foreground,Centre,"StoryBoard\ba.png",320,240 M,0,45804,,350,420 F,0,45804,45980,0,1 F,0,45980,50216,1 F,0,50216,50392,1,0
Sprite,Foreground,Centre,"StoryBoard\bb.png",320,240 M,0,50745,,350,420 F,0,50745,50922,0,1 F,0,50922,56569,1 F,0,56569,56745,1,0
Sprite,Foreground,Centre,"StoryBoard\bc.png",320,240 M,0,57098,,350,420 F,0,57098,57275,0,1 F,0,57275,61510,1 F,0,61510,61686,1,0
Sprite,Foreground,Centre,"StoryBoard\bd.png",320,240 M,0,62039,,350,420 F,0,62039,62216,0,1 F,0,62216,68569,1 F,0,68569,68745,1,0
Sprite,Foreground,Centre,"StoryBoard\be.png",320,240 M,0,67510,,660,420 F,0,67510,67686,0,1 F,0,67686,68569,1 F,0,68569,68745,1,0
Sprite,Foreground,Centre,"StoryBoard\ca.png",320,240 M,0,79686,,350,420 F,0,79686,79863,0,1 F,0,79863,84627,1 F,0,84627,84804,1,0
Sprite,Foreground,Centre,"StoryBoard\cb.png",320,240 M,0,82333,,582,420 F,0,82333,82510,0,1 F,0,82510,84627,1 F,0,84627,84804,1,0
Sprite,Foreground,Centre,"StoryBoard\cc.png",320,240 M,0,85157,,350,420 F,0,85157,85333,0,1 F,0,85333,89745,1 F,0,89745,89922,1,0
Sprite,Foreground,Centre,"StoryBoard\cd.png",320,240 M,0,90804,,350,420 F,0,90804,90980,0,1 F,0,90980,93098,1 F,0,93098,93275,1,0
Sprite,Foreground,Centre,"StoryBoard\ce.png",320,240 M,0,93627,,350,420 F,0,93627,93804,0,1 F,0,93804,97863,1 F,0,97863,98039,1,0
Sprite,Foreground,Centre,"StoryBoard\cf.png",320,240 M,0,99275,,350,420 F,0,99275,99451,0,1 F,0,99451,101392,1 F,0,101392,101569,1,0
Sprite,Foreground,Centre,"StoryBoard\cg.png",320,240 M,0,102275,,350,420 F,0,102275,102451,0,1 F,0,102451,107392,1 F,0,107392,107569,1,0
Sprite,Foreground,Centre,"StoryBoard\ch.png",320,240 M,0,107922,,350,420 F,0,107922,108098,0,1 F,0,108098,112863,1 F,0,112863,113039,1,0
Sprite,Foreground,Centre,"StoryBoard\da.png",320,240 M,0,113569,,350,420 F,0,113569,113745,0,1 F,0,113745,117980,1 F,0,117980,118157,1,0
Sprite,Foreground,Centre,"StoryBoard\db.png",320,240 M,0,118510,,350,420 F,0,118510,118686,0,1 F,0,118686,124333,1 F,0,124333,124510,1,0
Sprite,Foreground,Centre,"StoryBoard\dc.png",320,240 M,0,124863,,350,420 F,0,124863,125039,0,1 F,0,125039,129275,1 F,0,129275,129451,1,0
Sprite,Foreground,Centre,"StoryBoard\dd.png",320,240 M,0,129804,,350,420 F,0,129804,129980,0,1 F,0,129980,136333,1 F,0,136333,136510,1,0
Sprite,Foreground,Centre,"StoryBoard\de.png",320,240 M,0,135275,,608,420 F,0,135275,135451,0,1 F,0,135451,136333,1 F,0,136333,136510,1,0
//Storyboard Sound Samples
//Background Colour Transformations
3,100,163,162,255

[TimingPoints]
628,352.941176470588,4,2,2,100,1,0
11745,-100,4,2,2,70,0,0
20039,-100,4,1,2,70,0,0
20392,-100,4,2,2,70,0,0
20745,-100,4,1,2,70,0,0
21098,-100,4,2,2,70,0,0
21451,-100,4,1,2,70,0,0
21804,-100,4,2,2,70,0,0
23745,-100,4,2,2,85,0,0
29745,-100,4,2,2,60,0,0
31510,-100,4,2,2,85,0,0
33098,-100,4,2,2,90,0,0
39980,-100,4,1,2,70,0,0
41922,-100,4,2,2,60,0,0
44039,-100,4,2,2,90,0,0
44922,-100,4,2,2,70,0,0
45451,-100,4,1,2,80,0,0
45804,-100,4,1,2,80,0,1
45848,-100,4,1,2,80,0,0
68392,-100,4,1,2,85,0,0
78275,-100,4,2,2,70,0,0
87804,-100,4,1,2,70,0,0
88157,-100,4,2,2,70,0,0
88510,-100,4,1,2,70,0,0
88863,-100,4,2,2,70,0,0
89216,-100,4,1,2,70,0,0
89569,-100,4,2,2,70,0,0
91333,-100,4,2,2,85,0,0
97510,-100,4,2,2,60,0,0
99275,-100,4,2,2,85,0,0
101039,-100,4,2,2,90,0,0
107745,-100,4,1,2,70,0,0
109686,-100,4,2,2,60,0,0
111804,-100,4,2,2,90,0,0
112686,-100,4,2,2,70,0,0
113216,-100,4,1,2,80,0,0
113569,-100,4,1,2,80,0,1
113613,-100,4,1,2,80,0,0
136157,-100,4,1,2,85,0,0

[Colours]
Combo1 : 118,46,177
Combo2 : 216,153,69
Combo3 : 39,155,241
Combo4 : 249,83,107

[HitObjects]
96,40,6275,2,0,B|34:55|34:129,1,100,2|0
140,140,6980,2,0,B|308:140,2,150,2|0|0
92,240,8392,2,0,B|37:249|34:312,2,100,2|0|2
152,332,9451,1,0
208,240,9804,2,0,B|291:255|298:346,1,150,2|0
396,292,10686,2,0,B|508:292,2,100
460,140,11922,6,0,B|460:36,2,100,2|0|2
348,140,12980,1,0
336,248,13333,2,0,B|246:266|238:374,2,150,2|0|0
412,48,15098,6,0,B|473:63|473:137,2,100,0|2|0
300,44,16157,2,0,B|140:44,2,150,2|0|0
396,240,17922,6,0,B|396:352,2,100,0|2|0
296,192,18980,2,0,B|206:210|198:318,1,150,2|0
92,320,19863,1,0
44,220,20216,6,0,B|44:104,4,100
360,40,23039,6,0,B|466:78|477:196,1,200
408,276,24098,1,0
332,196,24451,2,0,B|225:234|214:352,1,200
56,192,25863,6,0,B|52:107|139:80,1,150
228,144,26745,1,2
272,44,27098,1,0
372,88,27451,2,0,B|459:105|464:189,1,150,2|0
368,244,28333,2,0,B|307:259|307:333,1,100
196,316,29039,2,0,B|132:316,2,50
256,192,29745,12,0,31510
208,120,31863,6,0,B|328:120,3,100
180,52,34510,6,0,B|73:90|62:208,1,200,0|2
148,268,35569,1,0
256,288,35922,2,0,B|464:288,2,200,2|2|2
392,116,38039,6,0,B|397:53|470:41,2,100,2|0|2
312,192,39098,1,0
256,96,39451,2,0,B|184:96,2,50,2|0|0
200,192,40157,5,0
200,192,40333,1,0
256,320,41216,1,0
256,320,41392,1,0
256,192,41922,12,0,44039
232,104,44392,6,2,B|292:104,3,50
472,216,45804,6,0,B|385:233|380:317,1,150
272,344,46686,2,0,B|160:344,1,100
100,260,47392,2,0,B|100:203|39:188,1,100
48,80,48098,2,0,B|216:80,1,150,0|4
256,172,48980,1,0
256,172,49157,1,0
320,84,49510,2,0,B|376:84,2,50
408,224,50392,6,0,B|408:332,2,100
308,176,51451,1,4
256,272,51804,1,0
152,308,52157,2,0,B|66:283|69:199,1,150
152,124,53039,2,0,B|152:20,2,100
256,92,54098,5,0
256,92,54275,2,0,B|365:122|384:239,1,200,4|0
384,340,55333,2,0,B|492:340,2,100
276,320,56392,2,0,B|276:252,2,50
168,340,57098,6,0,B|81:323|76:239,1,150,4|0
68,128,57980,2,0,B|68:20,2,100
168,172,59039,1,0
208,72,59392,2,0,B|295:89|300:173,1,150,0|4
404,208,60275,1,0
404,208,60451,1,0
344,300,60804,2,0,B|344:356,2,50
180,320,61686,5,0
136,220,62039,2,0,B|132:106|24:59,2,200
224,152,63804,1,0
256,48,64157,2,0,B|464:48,2,200
256,160,65922,1,0
256,192,66275,12,4,68392
60,84,79686,6,0,B|172:84,1,100,2|0
120,188,80392,2,0,B|224:188,1,100,2|0
288,100,81098,2,0,B|378:118|386:226,2,150,2|0|0
132,256,82863,6,0,B|8:256,2,100,0|2|0
236,296,83922,2,0,B|396:296,2,150,2|0|0
404,152,85686,6,0,B|404:95|465:80,2,100,0|2|0
296,160,86745,2,0,B|144:160,1,150,2|0
44,124,87628,1,0
44,236,87980,5,0
124,312,88333,1,0
208,240,88686,1,0
288,316,89039,1,0
368,240,89392,1,0
36,160,90804,6,0,B|32:75|119:48,1,150
212,104,91686,1,2
280,188,92039,1,0
368,256,92392,2,0,B|455:239|460:155,1,150,2|0
268,44,93628,6,0,B|112:44,1,150
52,132,94510,2,0,B|52:236,2,100,2|0|2
204,196,95745,2,0,B|265:211|265:285,2,100
140,284,96804,1,0
140,284,96980,1,0
140,284,97157,1,0
256,192,97510,12,0,99275
256,84,99628,5,0
256,84,99980,1,0
160,140,100333,1,0
160,140,100686,1,0
152,316,102275,6,0,B|45:278|34:160,2,200,0|2|2
216,228,104039,1,0
288,144,104392,2,0,B|496:144,2,200,2|2|2
180,132,106157,2,0,B|180:28,2,100,0|2|0
88,192,107216,1,2
88,192,107392,1,0
88,192,107569,1,0
180,252,107922,5,0
180,252,108098,1,0
332,252,108980,1,0
332,252,109157,1,0
256,192,109686,12,0,111804
256,120,112157,5,2
256,120,112333,2,2,B|328:120,2,50
472,288,113569,6,0,B|320:288,1,150
224,340,114451,1,0
224,340,114804,1,0
128,284,115157,1,0
128,284,115510,1,0
64,196,115863,2,0,B|61:110|148:85,1,150,0|4
240,144,116745,1,0
240,144,116922,1,0
336,88,117275,1,0
336,88,117451,1,0
336,88,117628,1,0
460,196,118157,6,0,B|460:258|389:277,1,100
320,344,118863,1,0
264,252,119216,1,4
208,344,119569,1,0
120,276,119922,2,0,B|34:251|37:167,1,150
88,68,120804,2,0,B|196:68,1,100
248,160,121510,2,0,B|309:145|309:71,1,100
348,52,122039,6,0,B|457:82|476:199,1,200,4|0
396,268,123098,2,0,B|402:330|475:342,2,100
292,232,124157,1,0
292,232,124333,1,0
292,232,124510,1,0
224,316,124863,6,0,B|64:316,1,150,4|0
40,212,125745,2,0,B|46:150|119:138,1,100
168,52,126451,2,0,B|223:60|229:122,1,100
272,220,127157,2,0,B|359:203|364:119,1,150,0|4
472,92,128039,1,0
472,92,128216,1,0
472,204,128569,2,0,B|404:204,2,50
364,328,129451,6,0,B|252:328,1,100
152,140,130510,2,0,B|45:180|36:298,2,200
368,192,132628,2,0,B|484:192,2,100
256,192,133686,1,0
256,192,134039,12,4,136157
