osu file format v7

[General]
AudioFilename: Kugimiya Rie - Sweet Gift.mp3
AudioLeadIn: 750
PreviewTime: 34335
Countdown: 0
SampleSet: Soft
StackLeniency: 0.9
Mode: 0
LetterboxInBreaks: 0

[Editor]
DistanceSpacing: 1.10000002384186
BeatDivisor: 4
GridSize: 8

[Metadata]
Title:Sweet Gift
Artist:Kugimiya Rie
Creator:quintitem
Version:Hard
Source:Akaneiro ni Somarusaka
Tags:Anime Katagiri Yuuhi

[Difficulty]
HPDrainRate:7
CircleSize:5
OverallDifficulty:7
SliderMultiplier:1.2
SliderTickRate:0.5

[Events]
//Background and Video events
0,0,"Yuuhi_2.jpg"
//Break Periods
2,68591,78786
2,136357,155022
//Storyboard Layer 0 (Background)
//Storyboard Layer 1 (Fail)
//Storyboard Layer 2 (Pass)
//Storyboard Layer 3 (Foreground)
Sprite,Foreground,Centre,"StoryBoard\title.png",320,240 M,0,1333,2392,174,180,189,180 F,0,1333,2392,0,1 F,0,2392,5216,1 F,0,5216,5922,1,0
Sprite,Foreground,Centre,"StoryBoard\aa.png",320,240 M,0,11922,,350,420 F,0,11922,12098,0,1 F,0,12098,16863,1 F,0,16863,17039,1,0
Sprite,Foreground,Centre,"StoryBoard\ab.png",320,240 M,0,14569,,598,420 F,0,14569,14745,0,1 F,0,14745,16863,1 F,0,16863,17039,1,0
Sprite,Foreground,Centre,"StoryBoard\ac.png",320,240 M,0,17392,,350,420 F,0,17392,17569,0,1 F,0,17569,21980,1 F,0,21980,22157,1,0
Sprite,Foreground,Centre,"StoryBoard\ad.png",320,240 M,0,23039,,350,420 F,0,23039,23216,0,1 F,0,23216,25333,1 F,0,25333,25510,1,0
Sprite,Foreground,Centre,"StoryBoard\ae.png",320,240 M,0,25863,,350,420 F,0,25863,26039,0,1 F,0,26039,30098,1 F,0,30098,30275,1,0
Sprite,Foreground,Centre,"StoryBoard\af.png",320,240 M,0,31510,,350,420 F,0,31510,31686,0,1 F,0,31686,33627,1 F,0,33627,33804,1,0
Sprite,Foreground,Centre,"StoryBoard\ag.png",320,240 M,0,34510,,350,420 F,0,34510,34686,0,1 F,0,34686,39627,1 F,0,39627,39804,1,0
Sprite,Foreground,Centre,"StoryBoard\ah.png",320,240 M,0,40157,,350,420 F,0,40157,40333,0,1 F,0,40333,45098,1 F,0,45098,45275,1,0
Sprite,Foreground,Centre,"StoryBoard\ba.png",320,240 M,0,45804,,350,420 F,0,45804,45980,0,1 F,0,45980,50216,1 F,0,50216,50392,1,0
Sprite,Foreground,Centre,"StoryBoard\bb.png",320,240 M,0,50745,,350,420 F,0,50745,50922,0,1 F,0,50922,56569,1 F,0,56569,56745,1,0
Sprite,Foreground,Centre,"StoryBoard\bc.png",320,240 M,0,57098,,350,420 F,0,57098,57275,0,1 F,0,57275,61510,1 F,0,61510,61686,1,0
Sprite,Foreground,Centre,"StoryBoard\bd.png",320,240 M,0,62039,,350,420 F,0,62039,62216,0,1 F,0,62216,68569,1 F,0,68569,68745,1,0
Sprite,Foreground,Centre,"StoryBoard\be.png",320,240 M,0,67510,,660,420 F,0,67510,67686,0,1 F,0,67686,68569,1 F,0,68569,68745,1,0
Sprite,Foreground,Centre,"StoryBoard\ca.png",320,240 M,0,79686,,350,420 F,0,79686,79863,0,1 F,0,79863,84627,1 F,0,84627,84804,1,0
Sprite,Foreground,Centre,"StoryBoard\cb.png",320,240 M,0,82333,,582,420 F,0,82333,82510,0,1 F,0,82510,84627,1 F,0,84627,84804,1,0
Sprite,Foreground,Centre,"StoryBoard\cc.png",320,240 M,0,85157,,350,420 F,0,85157,85333,0,1 F,0,85333,89745,1 F,0,89745,89922,1,0
Sprite,Foreground,Centre,"StoryBoard\cd.png",320,240 M,0,90804,,350,420 F,0,90804,90980,0,1 F,0,90980,93098,1 F,0,93098,93275,1,0
Sprite,Foreground,Centre,"StoryBoard\ce.png",320,240 M,0,93627,,350,420 F,0,93627,93804,0,1 F,0,93804,97863,1 F,0,97863,98039,1,0
Sprite,Foreground,Centre,"StoryBoard\cf.png",320,240 M,0,99275,,350,420 F,0,99275,99451,0,1 F,0,99451,101392,1 F,0,101392,101569,1,0
Sprite,Foreground,Centre,"StoryBoard\cg.png",320,240 M,0,102275,,350,420 F,0,102275,102451,0,1 F,0,102451,107392,1 F,0,107392,107569,1,0
Sprite,Foreground,Centre,"StoryBoard\ch.png",320,240 M,0,107922,,350,420 F,0,107922,108098,0,1 F,0,108098,112863,1 F,0,112863,113039,1,0
Sprite,Foreground,Centre,"StoryBoard\da.png",320,240 M,0,113569,,350,420 F,0,113569,113745,0,1 F,0,113745,117980,1 F,0,117980,118157,1,0
Sprite,Foreground,Centre,"StoryBoard\db.png",320,240 M,0,118510,,350,420 F,0,118510,118686,0,1 F,0,118686,124333,1 F,0,124333,124510,1,0
Sprite,Foreground,Centre,"StoryBoard\dc.png",320,240 M,0,124863,,350,420 F,0,124863,125039,0,1 F,0,125039,129275,1 F,0,129275,129451,1,0
Sprite,Foreground,Centre,"StoryBoard\dd.png",320,240 M,0,129804,,350,420 F,0,129804,129980,0,1 F,0,129980,136333,1 F,0,136333,136510,1,0
Sprite,Foreground,Centre,"StoryBoard\de.png",320,240 M,0,135275,,608,420 F,0,135275,135451,0,1 F,0,135451,136333,1 F,0,136333,136510,1,0
Sprite,Foreground,Centre,"StoryBoard\ea.png",320,240 M,0,155922,,350,420 F,0,155922,156098,0,1 F,0,156098,161039,1 F,0,161039,161216,1,0
Sprite,Foreground,Centre,"StoryBoard\eb.png",320,240 M,0,161569,,350,420 F,0,161569,161745,0,1 F,0,161745,169333,1 F,0,169333,169510,1,0
Sprite,Foreground,Centre,"StoryBoard\ba.png",320,240 M,0,170039,,350,420 F,0,170039,170216,0,1 F,0,170216,174451,1 F,0,174451,174627,1,0
Sprite,Foreground,Centre,"StoryBoard\bb.png",320,240 M,0,174980,,350,420 F,0,174980,175157,0,1 F,0,175157,180804,1 F,0,180804,180980,1,0
Sprite,Foreground,Centre,"StoryBoard\ec.png",320,240 M,0,181333,,350,420 F,0,181333,181510,0,1 F,0,181510,185745,1 F,0,185745,185922,1,0
Sprite,Foreground,Centre,"StoryBoard\ed.png",320,240 M,0,186275,,350,420 F,0,186275,186451,0,1 F,0,186451,192804,1 F,0,192804,192980,1,0
Sprite,Foreground,Centre,"StoryBoard\ee.png",320,240 M,0,191745,,625,420 F,0,191745,191922,0,1 F,0,191922,192804,1 F,0,192804,192980,1,0
Sprite,Foreground,Centre,"StoryBoard\ef.png",320,240 M,0,197392,,350,420 F,0,197392,197569,0,1 F,0,197569,198451,1 F,0,198451,198627,1,0
//Storyboard Sound Samples
//Background Colour Transformations
3,100,163,162,255

[TimingPoints]
628,352.941176470588,4,2,2,100,1,0
11745,-100,4,2,2,70,0,0
20039,-100,4,1,2,70,0,0
20392,-100,4,2,2,70,0,0
20745,-100,4,1,2,70,0,0
21098,-100,4,2,2,70,0,0
21451,-100,4,1,2,70,0,0
21804,-100,4,2,2,70,0,0
23216,-100,4,2,2,85,0,0
33098,-100,4,2,2,90,0,0
39980,-100,4,1,2,70,0,0
41922,-200,4,2,2,90,0,0
44833,-100,4,2,2,70,0,0
45451,-100,4,1,2,80,0,0
45804,-100,4,1,2,80,0,1
45848,-100,4,1,2,80,0,0
66010,-200,4,1,2,80,0,0
67510,-100,4,1,2,85,0,0
78275,-100,4,2,2,70,0,0
87804,-100,4,1,2,70,0,0
88157,-100,4,2,2,70,0,0
88510,-100,4,1,2,70,0,0
88863,-100,4,2,2,70,0,0
89216,-100,4,1,2,70,0,0
89569,-100,4,2,2,70,0,0
90980,-100,4,2,2,85,0,0
101039,-100,4,2,2,90,0,0
107745,-100,4,1,2,70,0,0
109686,-100,4,2,2,90,0,0
112598,-200,4,2,2,70,0,0
113216,-100,4,1,2,80,0,0
113569,-100,4,1,2,80,0,1
113613,-100,4,1,2,80,0,0
133775,-200,4,1,2,80,0,0
135275,-100,4,1,2,85,0,0
154510,-200,4,2,2,75,0,0
161392,-100,4,1,2,70,0,0
163333,-100,4,2,2,90,0,0
169069,-100,4,2,2,70,0,0
169510,-100,4,1,2,40,0,0
169775,-100,4,1,2,50,0,0
169863,-100,4,1,2,60,0,0
169951,-100,4,1,2,70,0,0
170039,-100,4,1,2,80,0,1
170083,-100,4,1,2,80,0,0
190245,-200,4,1,2,80,0,0
191745,-100,4,1,2,85,0,0
192980,-100,4,1,2,80,0,0
196598,-200,4,1,2,70,0,0
197392,-200,4,1,2,85,0,0
198275,-100,4,1,2,80,0,0

[Colours]
Combo1 : 118,46,177
Combo2 : 216,153,69
Combo3 : 39,155,241
Combo4 : 249,83,107

[HitObjects]
128,136,6275,2,0,B|58:156|54:236,2,120,2|0|2
180,120,7157,2,0,B|180:56,2,60
288,136,7863,1,0
288,136,8039,1,0
360,216,8392,6,0,B|488:216,2,120,2|0|2
300,304,9451,1,0
196,268,9804,1,2
196,268,9980,1,0
196,212,10157,1,0
196,212,10333,2,0,B|155:152|203:88,2,120
304,192,11392,1,0
304,192,11569,1,0
376,112,11922,6,0,B|446:130|452:210,2,120,2|0|2
276,68,12980,1,0
276,68,13157,1,0
276,68,13333,1,2
276,68,13510,2,0,B|144:68,1,120
144,120,14039,2,0,B|272:120,1,120,2|0
288,168,14569,5,0
328,268,14922,1,0
300,312,15098,1,0
268,268,15275,1,0
240,312,15451,1,2
208,268,15627,1,0
132,192,15980,1,0
132,192,16157,1,2
132,192,16333,2,0,B|64:166|66:86,1,120
12,100,16863,2,0,B|156:100,1,120,2|0
184,80,17392,6,0,B|252:106|250:186,1,120
256,224,17922,2,0,B|324:224,2,60,0|0|2
224,268,18451,2,0,B|148:268,2,60
256,312,18980,1,2
256,312,19157,2,0,B|396:312,2,120
148,320,20216,5,0
60,256,20569,1,0
148,192,20922,1,0
60,128,21275,1,0
148,64,21627,1,0
256,192,21804,12,0,23039
256,48,23392,5,0
256,48,23569,1,0
256,48,23745,2,0,B|326:66|332:146,1,120
384,132,24275,1,0
384,132,24451,2,0,B|252:132,2,120
384,132,25333,1,2
440,224,25686,5,0
440,224,25863,2,0,B|312:224,1,120
308,276,26392,2,0,B|436:276,2,120,0|2|0
256,296,27275,2,0,B|256:360,2,60,0|2|0
160,248,27980,2,0,B|89:267|85:347,2,120
160,140,29039,5,0
160,140,29216,1,0
160,84,29392,1,0
160,84,29569,2,0,B|32:84,2,120,2|0|2
256,36,30627,1,0
352,88,30980,2,0,B|420:88,2,60,2|0|0
352,144,31510,5,0
428,220,31863,1,0
356,300,32216,1,0
284,220,32569,1,0
216,304,32922,1,0
148,220,33275,1,0
120,172,33451,1,0
148,128,33627,2,0,B|148:80,2,30,0|0|0
204,128,33980,1,2
244,92,34157,1,2
284,128,34333,1,0
312,176,34510,6,0,B|448:176,2,120,0|0|2
232,252,35569,2,0,B|104:252,2,120,0|2|0
312,324,36628,2,0,B|440:324,2,120,2|0|2
204,324,37686,1,0
168,284,37863,1,0
204,244,38039,1,2
308,212,38392,1,0
340,168,38569,1,0
308,124,38745,1,2
212,72,39098,1,0
116,124,39451,2,0,B|36:124,2,60,2|0|0
32,192,40157,5,0
32,192,40333,1,0
480,192,41216,1,0
480,192,41392,1,0
256,344,42275,6,0,B|188:344,2,60,0|0|2
256,236,43333,2,0,B|328:236,2,60,0|0|0
256,128,44392,5,2
256,128,44569,1,2
256,128,44745,1,2
256,128,44922,1,2
152,44,45804,5,0
104,140,46157,1,0
104,140,46333,2,0,B|33:159|29:239,2,120
172,224,47392,1,0
240,140,47745,1,0
348,140,48098,5,0
348,140,48275,1,0
348,196,48451,1,0
348,196,48628,2,0,B|419:214|423:294,1,120,4|0
476,280,49157,2,0,B|336:280,1,120
300,284,49686,2,0,B|260:292|260:340,2,60
236,196,50392,1,0
256,88,50745,6,0,B|132:88,1,120
52,156,51451,2,0,B|188:156,1,120,4|0
272,192,52157,1,0
272,192,52333,2,0,B|356:192,2,60
172,232,53039,2,0,B|101:250|97:330,2,120
256,300,54098,5,0
256,300,54275,1,4
304,204,54628,1,0
304,204,54804,2,0,B|400:232|408:340,1,180
352,336,55510,1,0
352,336,55686,2,0,B|496:336,2,120
304,308,56569,2,0,B|304:240,2,60
256,336,57098,6,0,B|185:318|181:238,1,120,4|0
236,248,57628,2,0,B|96:248,1,120
40,172,58333,2,0,B|40:48,2,120
140,132,59392,1,0
168,88,59569,1,0
212,56,59745,1,0
264,44,59922,2,0,B|396:44,1,120,4|0
396,96,60451,2,0,B|264:96,1,120
232,128,60980,2,0,B|232:204,2,60
128,156,61686,1,0
72,248,62039,5,0
72,248,62392,2,0,B|72:328,2,60,0|0|0
176,220,63098,1,0
256,148,63451,1,0
256,148,63804,2,0,B|256:84,2,60
336,220,64510,1,0
440,248,64863,5,0
380,336,65216,1,0
272,336,65569,1,0
208,248,65922,1,0
208,248,66098,2,0,B|72:248,2,120
248,212,67686,1,0
288,248,67863,1,0
328,212,68039,2,0,B|328:140,2,60,0|0|4
164,60,79686,6,0,B|40:60,2,120,2|0|2
220,100,80569,1,0
220,100,80745,1,0
272,60,80922,1,0
272,60,81098,1,2
324,100,81275,2,0,B|393:121|397:201,1,120
460,188,81804,2,0,B|332:188,1,120,2|0
272,196,82333,6,0,B|202:217|198:297,1,120
188,348,82863,2,0,B|108:348,2,60,0|0|2
312,304,83569,1,0
312,304,83745,1,0
364,260,83922,1,2
364,260,84098,2,0,B|492:260,1,120
500,196,84628,2,0,B|364:196,1,120,2|0
364,132,85157,5,0
280,32,85510,1,0
280,32,85686,2,0,B|236:40|236:84,1,60
272,124,86039,2,0,B|260:164|216:164,1,60,2|0
164,164,86392,2,0,B|120:164|120:220,1,60
120,264,86745,1,2
120,264,86922,2,0,B|260:264,2,120
32,164,87980,5,0
112,60,88333,1,0
192,164,88686,1,0
276,60,89039,1,0
356,164,89392,1,0
256,192,89569,12,0,90804
144,84,91157,5,0
144,84,91333,1,0
104,136,91510,1,0
104,136,91686,1,2
144,188,91863,1,0
144,188,92039,2,0,B|215:207|219:287,2,120,0|2|0
104,244,92922,1,0
104,244,93098,1,2
196,340,93451,5,0
196,340,93628,2,0,B|324:340,1,120
352,284,94157,2,0,B|480:284,2,120,0|2|0
340,220,95039,1,0
304,164,95216,1,2
248,132,95392,2,0,B|177:151|173:231,1,120
112,336,96098,2,0,B|41:317|37:237,1,120
40,120,96804,5,0
40,120,96980,1,0
84,72,97157,1,0
84,72,97333,2,0,B|212:72,1,120,2|0
280,180,98039,1,2
356,72,98392,1,0
476,128,98745,1,2
476,128,98922,1,0
476,192,99098,1,0
476,192,99275,6,0,B|476:320,1,120
256,252,99980,2,0,B|256:120,1,120
36,72,100686,2,0,B|36:192,1,120
36,260,101216,5,0
96,284,101392,1,0
108,284,101480,1,0
120,284,101569,1,0
184,300,101745,2,0,B|184:364,2,60,2|2|0
248,288,102275,6,0,B|319:269|323:189,1,120
448,168,102980,2,0,B|446:102|375:82,1,120,2|0
248,44,103686,2,0,B|120:44,1,120,2|0
68,164,104392,2,0,B|204:164,1,120,2|0
256,276,105098,1,2
356,192,105451,1,0
420,216,105628,1,0
472,256,105804,1,2
356,192,106157,1,0
292,168,106333,1,0
240,128,106510,2,0,B|104:128,2,120,2|0|2
240,128,107392,1,0
240,128,107569,1,0
256,352,107922,5,0
192,352,108098,1,0
256,28,108980,1,0
320,28,109157,1,0
32,192,110039,5,0
108,300,110392,1,0
232,344,110745,1,2
232,344,110922,1,0
280,296,111098,1,0
280,296,111275,1,0
256,236,111451,1,0
256,224,111539,1,0
256,212,111628,1,0
232,148,111804,1,0
232,148,111980,1,0
276,100,112157,5,2
276,100,112333,1,2
228,52,112510,1,2
228,52,112686,2,0,B|124:52,1,90,2|0
138,52,113569,5,0
104,180,113922,1,0
104,180,114098,2,0,B|33:199|29:279,2,120
180,288,115157,1,0
256,180,115510,1,0
256,48,115863,5,0
256,48,116039,1,0
256,48,116216,1,0
256,48,116392,1,4
256,352,116745,1,0
256,352,116922,1,0
476,192,117275,1,0
476,192,117451,1,0
476,192,117628,1,0
476,192,117804,2,0,B|352:192,1,120
224,200,118510,6,0,B|153:219|149:299,2,120,0|0|4
344,140,119569,2,0,B|341:74|270:55,1,120
224,100,120098,1,0
172,56,120275,1,0
124,100,120451,2,0,B|53:118|49:198,2,120
164,228,121510,2,0,B|233:246|236:312,1,120
172,316,122039,6,0,B|316:316,1,120,4|0
360,316,122569,2,0,B|367:212|463:184,1,180
464,184,123275,1,0
464,184,123451,1,0
384,80,123804,1,0
256,120,124157,1,0
224,64,124333,1,0
156,64,124510,1,0
124,120,124686,1,0
188,120,124863,6,0,B|186:186|255:209,1,120,4|0
312,176,125392,2,0,B|377:186|386:259,1,120
296,352,126098,1,0
204,256,126451,1,0
116,352,126804,1,0
88,192,127157,5,0
88,192,127333,1,0
88,192,127510,1,0
88,192,127686,1,4
424,192,128039,1,0
424,192,128216,1,0
256,44,128569,1,0
256,44,128745,1,0
256,44,128922,1,0
256,44,129098,2,0,B|256:168,1,120
372,224,129804,6,0,B|371:289|300:308,1,120
252,352,130333,1,0
204,308,130510,1,0
132,192,130863,2,0,B|-8:192,2,120
132,192,131745,1,0
132,192,131922,1,0
128,60,132275,1,0
256,28,132628,5,0
440,192,132980,1,0
256,356,133333,1,0
72,192,133686,1,0
72,192,133863,2,0,B|104:152|40:116|72:72,2,120
120,240,135451,5,0
188,96,135628,1,0
252,240,135804,1,0
316,100,135980,1,0
316,100,136157,1,4
256,68,155922,6,0,B|324:68,2,60,2|0|0
172,156,156980,2,0,B|100:156,2,60,0|2|0
256,244,158039,2,0,B|256:312,2,60,0|0|2
364,192,159098,1,0
364,192,159275,1,0
364,192,159451,1,0
416,300,159804,1,0
416,300,159980,1,0
416,300,160157,2,0,B|484:300,2,60,2|0|0
376,344,161039,1,0
336,300,161216,1,0
176,316,161569,5,0
176,316,161745,1,0
336,68,162628,1,0
336,68,162804,1,0
72,144,163686,6,0,B|72:276,2,120,0|0|2
204,140,164745,2,0,B|203:74|274:53,2,120,0|2|0
140,144,165628,1,0
140,144,165804,2,0,B|272:144,2,120,2|0|2
92,96,166686,1,0
44,144,166863,1,0
256,192,167216,12,0,168275
256,192,168628,5,2
256,192,168804,1,2
256,192,168980,1,2
256,192,169157,1,2
60,144,169686,5,0
60,156,169775,1,0
60,168,169863,1,0
60,180,169951,1,0
60,192,170039,2,0,B|131:211|135:291,1,120
68,280,170569,2,0,B|216:280,1,120
300,348,171275,1,0
364,232,171628,1,0
300,116,171980,1,0
164,96,172333,6,0,B|164:28,2,60
164,164,172863,2,0,B|93:183|89:263,1,120,4|0
28,252,173392,2,0,B|172:252,1,120
204,288,173922,1,0
236,232,174098,1,0
296,200,174275,2,0,B|367:219|371:299,1,120
464,192,174980,5,0
256,36,175333,1,0
48,192,175686,1,4
256,348,176039,1,0
300,224,176392,6,0,B|344:228|344:280,2,60,0|0|0
232,216,176922,2,0,B|108:216,1,120
60,92,177628,2,0,B|192:92,1,120
304,44,178333,5,0
304,44,178510,1,4
428,92,178863,1,0
428,92,179039,2,0,B|428:280,1,180
388,324,179745,1,0
348,272,179922,1,0
348,272,180275,1,0
228,216,180628,1,0
188,268,180804,1,0
148,216,180980,1,0
108,268,181157,1,0
68,216,181333,6,0,B|66:150|135:127,1,120,4|0
168,68,181863,2,0,B|233:78|242:151,1,120
368,192,182569,2,0,B|492:192,2,120
284,292,183628,6,0,B|284:360,2,60
228,256,184157,1,4
228,256,184510,1,0
184,208,184686,1,0
184,208,185039,2,0,B|112:208,2,60
176,140,185569,1,0
176,140,185922,1,0
276,56,186275,6,0,B|340:63|352:136,1,120
412,140,186804,1,0
412,140,186980,2,0,B|272:140,2,120
416,272,188039,2,0,B|492:272,2,60
416,272,188745,1,0
292,312,189098,6,0,B|160:312,1,120
116,192,189804,2,0,B|244:192,1,120
256,124,190333,6,0,B|128:124,2,120
256,56,191922,1,0
312,92,192098,1,0
312,156,192275,1,0
256,192,192451,2,0,B|256:260,1,60,0|4
256,192,192980,12,0,195098
280,336,195451,6,0,B|356:336,2,60
236,288,195980,2,0,B|160:288,2,60
256,224,196510,1,0
256,224,196686,6,0,B|288:184|224:148|260:104,1,120
256,48,197569,2,0,B|324:48,2,60,0|0|4
