osu file format v9

[General]
AudioFilename: Kugimiya Rie - So Janai!.mp3
AudioLeadIn: 0
PreviewTime: 73934
Countdown: 0
SampleSet: Soft
StackLeniency: 0.5
Mode: 0
LetterboxInBreaks: 0

[Editor]
DistanceSpacing: 0.9
BeatDivisor: 4
GridSize: 8

[Metadata]
Title:So Janai!?
Artist:Kugimiya Rie
Creator:quintitem
Version:Rotte
Source:Astarotte no Omocha!
Tags:Ygval Rotte

[Difficulty]
HPDrainRate:8
CircleSize:5
OverallDifficulty:6
ApproachRate:7
SliderMultiplier:1.2
SliderTickRate:0.5

[Events]
//Background and Video events
0,0,"Rotte&Asuha_3r.jpg"
//Break Periods
2,117789,126620
2,211926,224275
//Storyboard Layer 0 (Background)
//Storyboard Layer 1 (Fail)
//Storyboard Layer 2 (Pass)
//Storyboard Layer 3 (Foreground)
Sprite,Foreground,CentreLeft,"Storyboard\title.png",320,240 M,0,8347,9175,92,345,107,345 F,0,8347,9175,0,1 M,0,19934,20761,107,345,107,360 F,0,19934,20761,1,0
Sprite,Foreground,CentreLeft,"Storyboard\artist.png",320,240 M,0,11658,12485,92,375,107,375 F,0,11658,12485,0,1 M,0,19934,20761,107,375,107,390 F,0,19934,20761,1,0
Sprite,Foreground,CentreLeft,"Storyboard\mapper.png",320,240 M,0,14968,15796,92,405,107,405 F,0,14968,15796,0,1 M,0,19934,20761,107,405,107,420 F,0,19934,20761,1,0
Sprite,Foreground,CentreLeft,"Storyboard\aa.png",320,240 M,0,21175,,106,416 F,0,21175,21382,0,1 F,0,32968,33175,1,0
Sprite,Foreground,CentreLeft,"Storyboard\ab.png",320,240 M,0,26140,,240,416 F,0,26140,26347,0,1 F,0,32968,33175,1,0
Sprite,Foreground,CentreLeft,"Storyboard\ac.png",320,240 M,0,29658,,388,416 F,0,29658,29865,0,1 F,0,32968,33175,1,0
Sprite,Foreground,CentreLeft,"Storyboard\ad.png",320,240 M,0,34416,,106,416 F,0,34416,34623,0,1 F,0,44968,45175,1,0
Sprite,Foreground,CentreLeft,"Storyboard\ae.png",320,240 M,0,39382,,193,416 F,0,39382,39589,0,1 F,0,44968,45175,1,0
Sprite,Foreground,CentreLeft,"Storyboard\af.png",320,240 M,0,42692,,341,416 F,0,42692,42899,0,1 F,0,44968,45175,1,0
Sprite,Foreground,CentreLeft,"Storyboard\ag.png",320,240 M,0,48072,,106,416 F,0,48072,48278,0,1 F,0,54278,54485,1,0
Sprite,Foreground,CentreLeft,"Storyboard\ah.png",320,240 M,0,51382,,314,416 F,0,51382,51589,0,1 F,0,54278,54485,1,0
Sprite,Foreground,CentreLeft,"Storyboard\ai.png",320,240 M,0,54692,,106,416 F,0,54692,54899,0,1 F,0,60899,61106,1,0
Sprite,Foreground,CentreLeft,"Storyboard\aj.png",320,240 M,0,58003,,370,416 F,0,58003,58209,0,1 F,0,60899,61106,1,0
Sprite,Foreground,CentreLeft,"Storyboard\ak.png",320,240 M,0,61313,,106,416 F,0,61313,61520,0,1 F,0,66072,66278,1,0
Sprite,Foreground,CentreLeft,"Storyboard\al.png",320,240 M,0,63382,,144,414 F,0,63382,63589,0,1 F,0,66072,66278,1,0
Sprite,Foreground,CentreLeft,"Storyboard\am.png",320,240 M,0,66899,,106,416 F,0,66899,67106,0,1 F,0,72692,72899,1,0
Sprite,Foreground,CentreLeft,"Storyboard\an.png",320,240 M,0,68554,,199,414 F,0,68554,68761,0,1 F,0,72692,72899,1,0
Sprite,Foreground,CentreLeft,"Storyboard\ao.png",320,240 M,0,70209,,280,416 F,0,70209,70416,0,1 F,0,72692,72899,1,0
Sprite,Foreground,CentreLeft,"Storyboard\ba.png",320,240 M,0,74140,,106,416 F,0,74140,74347,0,1 F,0,80140,80347,1,0
Sprite,Foreground,CentreLeft,"Storyboard\bb.png",320,240 M,0,76623,,293,416 F,0,76623,76830,0,1 F,0,80140,80347,1,0
Sprite,Foreground,CentreLeft,"Storyboard\bc.png",320,240 M,0,80761,,106,416 F,0,80761,80968,0,1 F,0,87589,87796,1,0
Sprite,Foreground,CentreLeft,"Storyboard\bd.png",320,240 M,0,84072,,225,416 F,0,84072,84278,0,1 F,0,87589,87796,1,0
Sprite,Foreground,CentreLeft,"Storyboard\be.png",320,240 M,0,87796,,106,416 F,0,87796,88003,0,1 F,0,92968,93175,1,0
Sprite,Foreground,CentreLeft,"Storyboard\bf.png",320,240 M,0,89865,,239,416 F,0,89865,90072,0,1 F,0,92968,93175,1,0
Sprite,Foreground,CentreLeft,"Storyboard\bg.png",320,240 M,0,93589,,106,416 F,0,93589,93796,0,1 F,0,99175,99382,1,0
Sprite,Foreground,CentreLeft,"Storyboard\bh.png",320,240 M,0,96899,,252,416 F,0,96899,97106,0,1 F,0,99175,99382,1,0
Sprite,Foreground,CentreLeft,"Storyboard\bi.png",320,240 M,0,100003,,106,416 F,0,100003,100209,0,1 F,0,104140,104347,1,0
Sprite,Foreground,CentreLeft,"Storyboard\bj.png",320,240 M,0,101658,,201,416 F,0,101658,101865,0,1 F,0,104140,104347,1,0
Sprite,Foreground,CentreLeft,"Storyboard\ca.png",320,240 M,0,117175,,106,416 F,0,117175,117382,0,1 F,0,128968,129175,1,0
Sprite,Foreground,CentreLeft,"Storyboard\cb.png",320,240 M,0,122140,,221,416 F,0,122140,122347,0,1 F,0,128968,129175,1,0
Sprite,Foreground,CentreLeft,"Storyboard\cc.png",320,240 M,0,125658,,377,416 F,0,125658,125865,0,1 F,0,128968,129175,1,0
Sprite,Foreground,CentreLeft,"Storyboard\cd.png",320,240 M,0,130416,,106,416 F,0,130416,130623,0,1 F,0,140968,141175,1,0
Sprite,Foreground,CentreLeft,"Storyboard\ce.png",320,240 M,0,135382,,253,416 F,0,135382,135589,0,1 F,0,140968,141175,1,0
Sprite,Foreground,CentreLeft,"Storyboard\cf.png",320,240 M,0,138692,,395,416 F,0,138692,138899,0,1 F,0,140968,141175,1,0
Sprite,Foreground,CentreLeft,"Storyboard\cg.png",320,240 M,0,144072,,106,416 F,0,144072,144278,0,1 F,0,150278,150485,1,0
Sprite,Foreground,CentreLeft,"Storyboard\ch.png",320,240 M,0,147382,,297,416 F,0,147382,147589,0,1 F,0,150278,150485,1,0
Sprite,Foreground,CentreLeft,"Storyboard\ci.png",320,240 M,0,150692,,106,416 F,0,150692,150899,0,1 F,0,156899,157106,1,0
Sprite,Foreground,CentreLeft,"Storyboard\cj.png",320,240 M,0,154003,,280,417 F,0,154003,154209,0,1 F,0,156899,157106,1,0
Sprite,Foreground,CentreLeft,"Storyboard\ck.png",320,240 M,0,157313,,106,416 F,0,157313,157520,0,1 F,0,162072,162278,1,0
Sprite,Foreground,CentreLeft,"Storyboard\cl.png",320,240 M,0,159382,,162,416 F,0,159382,159589,0,1 F,0,162072,162278,1,0
Sprite,Foreground,CentreLeft,"Storyboard\cm.png",320,240 M,0,162899,,106,416 F,0,162899,163106,0,1 F,0,169106,169313,1,0
Sprite,Foreground,CentreLeft,"Storyboard\cn.png",320,240 M,0,164554,,192,416 F,0,164554,164761,0,1 F,0,169106,169313,1,0
Sprite,Foreground,CentreLeft,"Storyboard\co.png",320,240 M,0,166209,,303,415 F,0,166209,166416,0,1 F,0,169106,169313,1,0
Sprite,Foreground,CentreLeft,"Storyboard\ba.png",320,240 M,0,170140,,106,416 F,0,170140,170347,0,1 F,0,176140,176347,1,0
Sprite,Foreground,CentreLeft,"Storyboard\db.png",320,240 M,0,172623,,293,416 F,0,172623,172830,0,1 F,0,176140,176347,1,0
Sprite,Foreground,CentreLeft,"Storyboard\dc.png",320,240 M,0,176761,,106,416 F,0,176761,176968,0,1 F,0,183589,183796,1,0
Sprite,Foreground,CentreLeft,"Storyboard\dd.png",320,240 M,0,180072,,211,415 F,0,180072,180278,0,1 F,0,183589,183796,1,0
Sprite,Foreground,CentreLeft,"Storyboard\de.png",320,240 M,0,183796,,106,416 F,0,183796,184003,0,1 F,0,189175,189382,1,0
Sprite,Foreground,CentreLeft,"Storyboard\df.png",320,240 M,0,185865,,243,415 F,0,185865,186072,0,1 F,0,189175,189382,1,0
Sprite,Foreground,CentreLeft,"Storyboard\dg.png",320,240 M,0,189589,,106,416 F,0,189589,189796,0,1 F,0,195175,195382,1,0
Sprite,Foreground,CentreLeft,"Storyboard\dh.png",320,240 M,0,192899,,232,416 F,0,192899,193106,0,1 F,0,195175,195382,1,0
Sprite,Foreground,CentreLeft,"Storyboard\di.png",320,240 M,0,196003,,106,416 F,0,196003,196209,0,1 F,0,200140,200347,1,0
Sprite,Foreground,CentreLeft,"Storyboard\dj.png",320,240 M,0,197658,,219,416 F,0,197658,197865,0,1 F,0,200140,200347,1,0
Sprite,Foreground,CentreLeft,"Storyboard\ea.png",320,240 M,0,215244,,106,416 F,0,215244,215451,0,1 F,0,225382,225589,1,0
Sprite,Foreground,CentreLeft,"Storyboard\eb.png",320,240 M,0,218554,,184,416 F,0,218554,218761,0,1 F,0,225382,225589,1,0
Sprite,Foreground,CentreLeft,"Storyboard\ec.png",320,240 M,0,222692,,255,416 F,0,222692,222899,0,1 F,0,225382,225589,1,0
Sprite,Foreground,CentreLeft,"Storyboard\ed.png",320,240 M,0,228485,,106,416 F,0,228485,228692,0,1 F,0,238830,239037,1,0
Sprite,Foreground,CentreLeft,"Storyboard\ee.png",320,240 M,0,231796,,160,416 F,0,231796,232003,0,1 F,0,238830,239037,1,0
Sprite,Foreground,CentreLeft,"Storyboard\ef.png",320,240 M,0,234899,,237,415 F,0,234899,235106,0,1 F,0,238830,239037,1,0
Sprite,Foreground,CentreLeft,"Storyboard\eg.png",320,240 M,0,236554,,280,416 F,0,236554,236761,0,1 F,0,238830,239037,1,0
Sprite,Foreground,CentreLeft,"Storyboard\eh.png",320,240 M,0,238209,,328,416 F,0,238209,238416,0,1 F,0,238830,239037,1,0
Sprite,Foreground,CentreLeft,"Storyboard\ba.png",320,240 M,0,241313,,106,416 F,0,241313,241520,0,1 F,0,247313,247520,1,0
Sprite,Foreground,CentreLeft,"Storyboard\db.png",320,240 M,0,243796,,293,416 F,0,243796,244003,0,1 F,0,247313,247520,1,0
Sprite,Foreground,CentreLeft,"Storyboard\dc.png",320,240 M,0,247934,,106,416 F,0,247934,248140,0,1 F,0,254761,254968,1,0
Sprite,Foreground,CentreLeft,"Storyboard\dd.png",320,240 M,0,251244,,211,415 F,0,251244,251451,0,1 F,0,254761,254968,1,0
Sprite,Foreground,CentreLeft,"Storyboard\de.png",320,240 M,0,254968,,106,416 F,0,254968,255175,0,1 F,0,260140,260347,1,0
Sprite,Foreground,CentreLeft,"Storyboard\df.png",320,240 M,0,257037,,243,415 F,0,257037,257244,0,1 F,0,260140,260347,1,0
Sprite,Foreground,CentreLeft,"Storyboard\dg.png",320,240 M,0,260761,,106,416 F,0,260761,260968,0,1 F,0,266347,266554,1,0
Sprite,Foreground,CentreLeft,"Storyboard\dh.png",320,240 M,0,264072,,232,416 F,0,264072,264278,0,1 F,0,266347,266554,1,0
Sprite,Foreground,CentreLeft,"Storyboard\di.png",320,240 M,0,267175,,106,416 F,0,267175,267382,0,1 F,0,271313,271520,1,0
Sprite,Foreground,CentreLeft,"Storyboard\dj.png",320,240 M,0,268830,,219,416 F,0,268830,269037,0,1 F,0,271313,271520,1,0
Sprite,Foreground,CentreLeft,"Storyboard\fa.png",320,240 M,0,273796,,106,416 F,0,273796,274003,0,1 F,0,274623,274830,1,0
//Storyboard Sound Samples
//Background Colour Transformations
3,100,163,162,255

[TimingPoints]
72,413.793103448276,4,2,1,40,1,0
34623,-100,4,2,1,30,0,0
35244,-100,4,2,1,40,0,0
46830,-100,4,2,1,20,0,0
48072,-100,4,2,1,30,0,0
48485,-100,4,2,1,45,0,0
54072,-100,4,2,1,35,0,0
54485,-90.9090909090909,4,2,1,40,0,0
60278,-90.9090909090909,4,2,1,35,0,0
68140,-90.9090909090909,4,2,1,40,0,0
71658,-90.9090909090909,4,2,1,45,0,0
74347,-90.9090909090909,4,2,1,60,0,0
74554,-76.9230769230769,4,2,1,60,0,1
74658,-76.9230769230769,4,2,1,60,0,0
79623,-76.9230769230769,4,2,1,65,0,0
80968,-76.9230769230769,4,2,1,55,0,0
84692,-76.9230769230769,4,2,1,50,0,0
86865,-76.9230769230769,4,2,1,45,0,0
87692,-76.9230769230769,4,2,1,60,0,0
94313,-76.9230769230769,4,2,1,55,0,0
126692,-100,4,2,1,30,0,0
130416,-100,4,2,1,50,0,0
141899,-100,4,2,1,35,0,0
142830,-100,4,2,1,20,0,0
144072,-100,4,2,1,30,0,0
144692,-100,4,2,1,45,0,0
150278,-100,4,2,1,35,0,0
150485,-90.9090909090909,4,2,1,40,0,0
156072,-90.9090909090909,4,2,1,35,0,0
164140,-90.9090909090909,4,2,1,40,0,0
167658,-90.9090909090909,4,2,1,45,0,0
169209,-100,4,2,1,45,0,0
169934,-76.9230769230769,4,2,1,45,0,0
170451,-76.9230769230769,4,2,1,60,0,0
170554,-76.9230769230769,4,2,1,60,0,1
170658,-76.9230769230769,4,2,1,60,0,0
175727,-76.9230769230769,4,2,1,65,0,0
176968,-76.9230769230769,4,2,1,55,0,0
180692,-76.9230769230769,4,2,1,50,0,0
182865,-76.9230769230769,4,2,1,45,0,0
183692,-76.9230769230769,4,2,1,60,0,0
190416,-76.9230769230769,4,2,1,55,0,0
200658,-76.9230769230769,4,2,1,50,0,0
224761,-90.9090909090909,4,2,1,30,0,0
228278,-90.9090909090909,4,2,1,40,0,0
228899,-90.9090909090909,4,2,1,55,0,0
239037,-90.9090909090909,4,2,1,15,0,0
241313,-90.9090909090909,4,2,1,40,0,0
241520,-90.9090909090909,4,2,1,60,0,0
241727,-76.9230769230769,4,2,1,60,0,1
241830,-76.9230769230769,4,2,1,60,0,0
246796,-76.9230769230769,4,2,1,65,0,0
248140,-76.9230769230769,4,2,1,55,0,0
251865,-76.9230769230769,4,2,1,50,0,0
254037,-76.9230769230769,4,2,1,45,0,0
254968,-76.9230769230769,4,2,1,60,0,0
261485,-76.9230769230769,4,2,1,55,0,0

[Colours]
Combo1 : 222,192,90
Combo2 : 43,145,79
Combo3 : 58,80,135
Combo4 : 190,41,90

[HitObjects]
256,148,21175,2,0,B|256:20,2,120,0|4|8
192,180,22209,2,0,B|64:180,1,120
52,248,22830,2,0,B|176:248,2,120,8|0|8
72,316,23865,2,0,B|204:316,1,120
256,352,24485,1,8
376,272,24899,6,0,B|449:262|450:177,1,120,0|8
484,128,25520,2,0,B|483:56|410:47,1,120
352,88,26140,2,0,B|352:148,2,60,8|0|0
208,112,26968,1,8
208,112,27175,2,0,B|84:112,1,120
132,168,27796,6,0,B|178:110|119:48,2,120,8|0|8
92,228,28830,2,0,B|42:279|88:337,1,120
160,352,29451,2,0,B|236:352,2,60,8|0|0
256,244,30278,2,0,B|256:168,2,60,8|0|0
400,220,31106,6,0,B|400:344,2,120,8|0|8
452,172,32140,1,0
400,120,32347,1,0
264,76,32761,2,0,B|264:32|312:32,2,60,8|0|8
120,76,33589,1,8
296,304,34416,5,0
296,304,34830,2,0,B|428:304,1,120,4|8
468,356,35451,2,0,B|514:298|455:236,1,120
416,192,36072,1,8
316,88,36485,1,0
220,192,36899,1,8
220,192,37106,2,0,B|88:192,1,120
48,244,37727,6,0,B|2:186|61:124,2,120,8|0|8
100,292,38761,2,0,B|232:292,1,120
276,340,39382,1,8
276,340,39589,1,0
276,340,39796,2,0,B|349:330|350:245,1,120,0|8
412,224,40416,2,0,B|411:152|338:142,1,120
276,112,41037,2,0,B|276:40|349:30,2,120,8|0|8
228,168,42072,2,0,B|155:158|154:73,1,120
100,40,42692,5,8
24,164,43106,1,0
100,284,43520,1,8
100,284,43727,1,0
100,284,43934,2,0,B|236:284,1,120,0|8
348,348,44761,1,8
436,232,45175,2,0,B|476:232|476:292,2,60,8|0|8
404,92,46003,2,0,B|404:52|448:52,2,60,8|0|8
256,192,47244,6,0,B|256:236,8,30,2|0|8|0|10|8|8|0|6
116,28,48692,2,0,B|304:28,2,180
100,100,50140,2,0,B|29:109|29:181,2,120
192,212,51382,6,0,B|305:219|305:346,1,180,0|0
448,340,52416,1,0
448,340,52623,2,0,B|448:148,1,180
448,88,53451,1,0
448,88,53658,1,0
448,88,53865,2,0,B|448:48|496:48,2,60,0|8|8
292,64,54692,6,0,B|156:64,1,131.999996066094,4|8
132,132,55313,1,0
132,132,55520,2,0,B|272:132,1,131.999996066094,0|8
240,200,56140,1,0
240,200,56347,2,0,B|92:200,2,131.999996066094,0|8|0
332,312,57589,1,8
472,268,58003,6,0,B|472:128,1,131.999996066094,4|8
452,68,58623,1,0
452,68,58727,1,0
452,68,58830,2,0,B|376:83|373:174,1,131.999996066094,8|8
348,228,59451,1,0
348,228,59554,1,0
348,228,59658,2,0,B|304:228|304:168,1,65.9999980330468,8|0
284,116,60072,2,0,B|244:116|244:168,1,65.9999980330468,8|4
216,228,60485,2,0,B|176:228|176:176,1,65.9999980330468,8|0
152,116,60899,2,0,B|112:116|112:164,1,65.9999980330468,8|0
48,192,61313,6,0,B|48:332,1,131.999996066094,4|8
116,352,61934,1,0
184,328,62140,2,0,B|320:328,2,131.999996066094,0|8|0
212,184,63382,1,8
300,68,63796,1,0
440,112,64209,1,8
440,112,64416,1,0
440,112,64623,6,0,B|440:256,1,131.999996066094,0|8
336,348,65451,2,0,B|336:212,1,131.999996066094,0|8
268,192,66072,2,0,B|268:332,1,131.999996066094,8|0
200,348,66692,2,0,B|152:304,1,65.9999980330468,8|0
112,240,67106,2,0,B|36:220,2,65.9999980330468,0|0|8
152,180,67727,2,0,B|154:101|229:86,1,131.999996066094,4|0
284,40,68347,5,8
284,40,68554,1,0
340,88,68761,1,8
340,88,68968,1,0
396,40,69175,1,8
396,40,69382,2,0,B|396:184,1,131.999996066094,4|0
448,224,70003,1,8
396,276,70209,1,0
448,328,70416,6,0,B|308:328,1,131.999996066094,8|8
248,352,71037,1,0
248,352,71244,2,0,B|174:337|171:258,1,131.999996066094,6|8
104,228,71865,1,8
104,228,72072,2,0,B|104:116,1,98.9999970495702,8|8
104,104,72485,2,0,B|104:64|144:60,1,65.9999980330468,8|14
256,152,73106,1,14
256,152,73313,1,14
304,92,74140,5,0
304,92,74554,2,0,B|468:92,1,155.999997210503,4|8
476,160,75175,1,0
476,160,75382,2,0,B|304:160,2,155.999997210503,0|8|0
472,232,76416,1,2
472,232,76623,2,0,B|464:312,1,77.9999986052513,8|2
400,280,77037,2,0,B|372:356,1,77.9999986052513,0|2
320,304,77451,2,0,B|256:352,1,77.9999986052513,8|0
188,348,77865,6,0,B|95:331|96:226,1,155.999997210503,2|8
28,236,78485,2,0,B|188:236,1,155.999997210503
252,212,79106,2,0,B|252:119|160:102,1,155.999997210503,8|0
100,72,79727,2,0,B|100:20|160:20,2,77.9999986052513,2|8|2
28,192,80554,1,10
28,192,80761,1,0
100,312,81175,5,4
236,344,81589,1,8
284,292,81796,1,0
328,344,82003,2,0,B|492:344,2,155.999997210503,0|8|0
388,216,83244,2,0,B|387:123|479:106,2,155.999997210503,8|0|8
328,256,84278,1,0
272,216,84485,1,0
132,192,84899,5,14
132,192,85106,1,0
132,192,85313,1,0
172,56,85727,1,14
172,56,85934,1,0
172,56,86140,2,0,B|236:104,1,77.9999986052513
284,52,86554,2,0,B|332:120,1,77.9999986052513,14|0
400,124,86968,2,0,B|392:80,2,38.9999993026257,8|8|8
472,128,87382,2,0,B|472:84,2,38.9999993026257,8|8|8
472,200,87796,6,0,B|473:291|380:308,1,155.999997210503,4|8
332,260,88416,1,0
280,308,88623,2,0,B|116:308,1,155.999997210503,0|8
44,192,89451,2,0,B|44:116,1,77.9999986052513,0|2
112,100,89865,2,0,B|112:184,1,77.9999986052513,8|2
180,160,90278,2,0,B|180:80,1,77.9999986052513,0|2
248,68,90692,2,0,B|248:152,2,77.9999986052513,8|0|2
384,36,91520,5,8
384,36,91727,2,0,B|384:196,1,155.999997210503
384,264,92347,1,8
384,264,92761,2,0,B|464:264,2,77.9999986052513,0|0|8
312,264,93382,1,0
280,328,93589,1,0
208,328,93796,1,0
176,264,94003,1,8
244,264,94209,1,0
244,264,94416,6,0,B|244:108,1,155.999997210503,12|8
292,56,95037,1,0
360,44,95244,2,0,B|449:60|448:153,2,155.999997210503,10|8|10
304,172,96485,1,8
360,300,96899,1,8
360,300,97106,1,0
312,352,97313,1,8
312,352,97520,1,0
268,300,97727,6,0,B|104:300,1,155.999997210503,12|8
88,236,98347,1,0
88,236,98554,2,0,B|244:236,1,155.999997210503,10|8
256,96,99382,2,0,B|88:96,1,155.999997210503,10|8
32,76,100003,2,0,B|32:24|88:24,2,77.9999986052513,0|8|0
32,148,100623,1,8
32,148,100830,2,0,B|32:316,1,155.999997210503,6|0
100,280,101451,6,0,B|100:360,2,77.9999986052513,8|0|8
100,208,102072,2,0,B|100:156,2,38.9999993026257,8|8|8
160,244,102485,2,0,B|332:244,1,155.999997210503,6|8
316,316,103106,1,8
376,280,103313,1,0
376,208,103520,1,8
316,172,103727,1,8
316,172,103934,2,0,B|316:96,2,77.9999986052513,0|0|4
180,144,104761,6,0,B|16:144,2,155.999997210503,10|2|10
232,192,105796,1,2
184,324,106209,1,2
184,324,106416,1,10
184,324,106623,2,0,B|356:324,1,155.999997210503,2|2
408,308,107244,2,0,B|408:356,2,38.9999993026257,10|0|0
468,268,107658,5,0
468,268,107865,1,2
488,200,108072,1,8
488,200,108278,2,0,B|488:106|399:90,1,155.999997210503,2|2
332,68,108899,2,0,B|332:16|400:16,2,77.9999986052513,8|2|8
264,88,109520,2,0,B|180:88,2,77.9999986052513,2|10|2
284,228,110347,1,2
284,228,110554,2,0,B|328:228,2,38.9999993026257,2|0|0
284,300,110968,5,2
284,300,111175,2,0,B|332:300|332:368,2,77.9999986052513,2|8|2
148,268,112003,2,0,B|100:272|100:332,2,77.9999986052513,2|8|2
148,128,112830,2,0,B|148:80|96:80,2,77.9999986052513,2|10|2
284,88,113658,1,2
284,88,113865,2,0,B|284:48,2,38.9999993026257,10|0|0
336,136,114278,5,0
384,88,114485,1,2
436,136,114692,1,8
488,88,114899,2,0,B|488:256,1,155.999997210503,2|2
472,312,115520,1,8
408,340,115727,2,0,B|319:324|320:231,1,155.999997210503,2|2
260,192,116347,2,0,B|260:112,2,77.9999986052513,10|2|8
212,240,116968,1,0
160,192,117175,1,0
108,240,117382,1,0
56,192,117589,1,0
256,192,127520,12,8,129796
256,88,130830,6,0,B|256:24,2,60
220,156,131451,2,0,B|96:156,1,120
52,220,132072,1,0
256,296,132485,6,0,B|256:360,2,60
292,228,133106,2,0,B|416:228,1,120
460,164,133727,1,0
336,72,134140,6,0,B|336:28|388:28,2,60
260,96,134761,2,0,B|128:96,1,120
80,148,135382,2,0,B|40:148|40:92,2,60
152,284,136209,2,0,B|196:324,1,60
352,336,136830,2,0,B|420:312,1,60
472,172,137451,5,0
380,48,137865,1,0
380,48,138072,2,0,B|309:57|308:129,1,120
256,184,138692,2,0,B|185:174|184:102,2,120
308,240,139727,1,0
256,300,139934,6,0,B|132:300,2,120
320,348,140968,2,0,B|364:304,1,60
400,236,141382,2,0,B|480:224,2,60
384,160,142003,2,0,B|352:160,2,30,8|8|8
400,84,142416,1,8
256,60,143244,6,0,B|256:100,7,30,2|0|0|0|2|0|0|0
256,116,144072,2,0,B|256:294,1,180,6|0
104,332,145106,1,0
104,332,145313,2,0,B|104:144,1,180
104,72,146140,1,0
256,36,146554,1,0
408,72,146968,1,0
472,216,147382,6,0,B|332:216,1,120
296,272,148003,2,0,B|188:264|188:132,2,180
316,348,149451,2,0,B|440:348,2,120,0|0|8
160,192,150692,5,0
352,192,151106,1,8
352,192,151313,1,0
352,192,151520,1,0
256,28,151934,1,8
256,28,152140,1,0
256,28,152347,5,0
32,192,152761,1,8
256,356,153175,1,0
480,192,153589,1,8
256,192,154003,6,0,B|120:192,1,131.999996066094,12|0
148,116,154623,1,0
148,116,154727,1,0
148,116,154830,2,0,B|288:116,1,131.999996066094,8|8
336,60,155451,1,0
336,60,155554,1,0
336,60,155658,2,0,B|412:75|415:166,1,131.999996066094,8|12
448,308,156485,2,0,B|484:308,2,32.9999990165234,8|8|8
372,324,156899,2,0,B|372:368,2,32.9999990165234,8|8|8
292,308,157313,6,0,B|144:308,1,131.999996066094,4|8
100,256,157934,1,0
160,204,158140,1,0
264,84,158554,1,8
368,204,158968,1,0
472,84,159382,2,0,B|472:236,2,131.999996066094,8|0|8
400,48,160416,1,0
322,32,160623,6,0,B|174:32,1,131.999996066094,0|8
190,352,161451,2,0,B|338:352,1,131.999996066094,0|8
380,300,162072,5,12
380,300,162485,2,0,B|448:300,2,65.9999980330468,0|8|0
324,244,163106,1,0
380,188,163313,1,0
380,188,163416,1,8
380,188,163520,1,8
324,132,163727,2,0,B|192:132,1,131.999996066094,4|0
192,52,164347,6,0,B|260:52,2,65.9999980330468,8|0|8
124,92,164968,1,0
124,172,165175,1,8
192,212,165382,2,0,B|194:289|268:304,1,131.999996066094,4|0
332,352,166003,1,8
396,308,166209,1,0
332,260,166416,1,8
396,212,166623,1,0
332,164,166830,1,8
396,116,167037,1,0
332,72,167244,6,0,B|188:72,1,131.999996066094,6|8
132,28,167865,1,8
64,72,168071,1,8
28,184,168382,2,0,B|48:236,1,32.9999990165234,8|8
48,292,168692,5,14
464,92,169106,1,14
464,92,169313,2,0,B|408:148|528:200|448:276,1,180,14|8
460,336,170140,6,0,B|508:336,2,38.9999993026257,8|8|8
392,296,170554,2,0,B|228:296,1,155.999997210503,4|8
272,368,171175,1,0
272,368,171382,2,0,B|331:298|272:226,1,155.999997210503,0|8
164,100,172209,6,0,B|192:64|164:28,1,77.9999986052513,0|2
100,164,172623,2,0,B|64:136|28:164,1,77.9999986052513,8|2
164,228,173037,2,0,B|136:264|164:300,1,77.9999986052513,0|2
228,164,173451,2,0,B|264:192|300:164,1,77.9999986052513,8|0
356,112,173865,5,2
356,112,174278,1,8
424,72,174485,1,0
424,72,174899,1,0
492,112,175106,1,8
492,112,175520,2,0,B|492:32,2,77.9999986052513,0|2|8
424,152,176140,2,0,B|424:308,1,155.999997210503,2|10
492,348,176761,1,0
178,356,177175,6,0,B|342:356,1,155.999997210503,4|8
32,114,178003,2,0,B|32:278,1,155.999997210503,0|8
334,28,178830,2,0,B|170:28,1,155.999997210503,0|8
480,270,179658,2,0,B|480:106,1,155.999997210503,0|8
480,114,180278,1,0
480,114,180485,1,0
32,270,180899,5,14
32,270,181106,1,0
32,270,181313,1,0
384,192,181727,1,14
384,192,181934,1,0
384,192,182140,2,0,B|296:192,1,77.9999986052513
128,192,182554,2,0,B|216:192,1,77.9999986052513,14|0
256,67,182968,2,0,B|256:28,2,38.9999993026257,8|8|8
256,317,183382,2,0,B|256:356,2,38.9999993026257,8|8|8
332,336,183796,6,0,B|421:320|420:227,1,155.999997210503,4|8
496,224,184416,1,0
496,224,184623,2,0,B|332:224,2,155.999997210503,0|8|0
476,148,185658,5,2
476,148,185865,2,0,B|428:88,1,77.9999986052513,8|2
288,120,186278,2,0,B|336:180,1,77.9999986052513,0|2
236,284,186692,2,0,B|188:224,1,77.9999986052513,8|0
108,220,187106,6,0,B|276:220,1,155.999997210503,2|8
332,260,187727,1,0
392,116,188140,1,0
392,116,188347,2,0,B|481:132|480:225,2,155.999997210503,8|0|8
324,76,189382,2,0,B|324:24|376:24,2,77.9999986052513,8|0|8
256,116,190003,2,0,B|204:116|204:52,2,77.9999986052513,8|0|4
32,270,190830,5,8
32,270,191037,1,0
32,270,191244,2,0,B|32:114,1,155.999997210503,10|8
480,114,192071,2,0,B|480:270,1,155.999997210503,10|8
256,192,192899,5,8
256,192,193106,2,0,B|256:112,2,77.9999986052513,0|8|0
188,228,193727,2,0,B|99:244|100:337,1,155.999997210503,12|8
178,356,194347,1,0
178,356,194554,6,0,B|334:356,1,155.999997210503,10|8
334,28,195382,2,0,B|178:28,1,155.999997210503,10|8
120,80,196003,5,0
176,132,196209,1,8
120,184,196416,1,8
120,184,196520,1,8
120,184,196623,1,8
176,236,196830,2,0,B|332:236,1,155.999997210503,4|0
332,236,197451,1,8
332,316,197658,1,0
400,276,197865,1,0
400,196,198071,1,0
332,156,198278,1,8
332,156,198485,2,0,B|172:156,1,155.999997210503,4|8
108,116,199106,6,0,B|108:68|160:68,2,77.9999986052513,8|0|8
36,257,199727,1,8
177,329,199934,1,0
249,187,200140,2,0,B|300:188|300:248,2,77.9999986052513,0|6|2
212,116,200761,6,0,B|212:64,2,38.9999993026257,10|0|0
288,100,201175,2,0,B|288:24,2,77.9999986052513,2|2|8
356,64,201796,2,0,B|445:80|444:173,1,155.999997210503,2|2
444,252,202416,1,10
444,252,202623,2,0,B|444:328,2,77.9999986052513,2|0|2
376,288,203244,2,0,B|220:288,1,155.999997210503,8|2
96,192,204071,6,0,B|52:192,2,38.9999993026257,10|0|0
144,132,204485,1,2
144,132,204692,1,2
96,72,204899,1,8
96,72,205106,2,0,B|260:72,1,155.999997210503,6|2
316,28,205727,1,8
380,72,205934,2,0,B|428:72,2,38.9999993026257,2|0|0
316,116,206347,1,2
316,128,206451,1,8
316,140,206554,1,8
316,152,206658,1,8
316,164,206761,1,0
316,176,206865,1,0
316,188,206968,2,0,B|316:280,1,77.9999986052513,6|2
316,344,207382,6,0,B|372:344,2,38.9999993026257,10|0|0
248,304,207796,1,10
180,344,208003,1,10
180,344,208106,1,8
180,344,208209,1,8
112,304,208416,2,0,B|23:288|24:195,1,155.999997210503,6|2
92,156,209037,1,10
132,88,209244,1,2
132,88,209347,1,8
132,88,209451,2,0,B|132:36|76:36,2,77.9999986052513,8|2|0
288,108,210278,6,0,B|452:108,2,155.999997210503,6|0|2
256,180,211313,2,0,B|256:260,2,77.9999986052513,2|0|6
256,192,225175,12,4,228071
196,48,228485,6,0,B|60:48,1,131.999996066094,4|0
32,120,229106,2,0,B|168:120,1,131.999996066094
196,192,229727,2,0,B|52:192,1,131.999996066094
144,328,230554,2,0,B|8:328,2,131.999996066094
316,336,231796,6,0,B|452:336,1,131.999996066094
480,264,232416,2,0,B|344:264,1,131.999996066094
316,192,233037,2,0,B|460:192,1,131.999996066094
368,56,233865,2,0,B|504:56,2,131.999996066094,0|0|8
292,32,234899,6,0,B|152:32,1,131.999996066094,10|10
116,96,235520,1,10
220,352,236554,6,0,B|360:352,1,131.999996066094,10|10
396,288,237175,1,10
256,192,238209,5,10
256,192,238623,2,0,B|256:120,1,65.9999980330468,10|10
256,192,239037,12,2,241313
108,252,241727,6,0,B|108:92,1,155.999997210503,4|8
176,56,242347,1,0
176,56,242554,2,0,B|107:-3|35:56,2,155.999997210503,0|8|0
256,56,243589,1,2
256,56,243796,6,0,B|256:136,1,77.9999986052513,8|2
373,260,244209,2,0,B|304:219,1,77.9999986052513,0|2
138,260,244623,2,0,B|207:220,1,77.9999986052513,8|0
208,144,245037,6,0,B|208:328,1,155.999997210503,2|8
256,360,245658,1,0
412,360,246071,1,0
464,304,246278,2,0,B|464:120,1,155.999997210503,8|0
404,96,246899,1,2
348,148,247106,1,8
292,96,247313,2,0,B|132:96,1,155.999997210503,2|10
56,96,247934,1,0
256,300,248347,5,4
364,192,248761,1,8
256,84,249175,1,0
148,192,249589,1,8
256,360,250003,5,0
32,192,250416,1,8
256,24,250830,1,0
480,192,251244,5,8
344,228,251451,1,0
296,360,251658,1,0
32,192,252071,5,14
168,156,252278,1,0
216,24,252485,1,0
256,304,252899,5,14
312,252,253106,1,0
256,200,253313,2,0,B|256:112,1,77.9999986052513,0|8
180,100,253727,2,0,B|180:180,1,77.9999986052513,14|0
104,200,254140,1,8
104,200,254347,2,0,B|104:252,5,38.9999993026257,8|8|8|8|8|8
104,272,254968,6,0,B|264:272,1,155.999997210503,4|8
300,340,255589,1,0
300,340,255796,2,0,B|389:324|388:231,1,155.999997210503,0|8
188,88,256623,6,0,B|136:92|136:144,1,77.9999986052513,0|2
192,192,257037,2,0,B|244:188|244:136,1,77.9999986052513,8|2
132,32,257451,6,0,B|80:36|80:88,1,77.9999986052513,0|2
248,248,257865,2,0,B|300:244|300:192,1,77.9999986052513,8|0
356,144,258278,5,2
356,144,258692,1,8
416,192,258899,1,0
416,192,259313,1,0
476,144,259520,2,0,B|476:50|387:34,1,155.999997210503,8|0
232,36,260347,2,0,B|140:48,1,77.9999986052513,8|0
200,112,260761,2,0,B|136:164,1,77.9999986052513
184,224,261175,2,0,B|152:308,1,77.9999986052513,8|0
76,300,261589,6,0,B|256:300,1,155.999997210503,4|8
280,360,262209,1,0
328,300,262416,1,10
328,300,262830,1,8
464,220,263244,1,10
464,220,263658,1,8
328,140,264071,5,8
276,80,264278,1,0
328,140,264485,1,8
276,80,264692,1,0
224,140,264899,2,0,B|64:140,1,155.999997210503,12|8
20,200,265520,1,0
64,264,265727,1,10
64,264,266140,1,8
192,352,266554,1,10
192,352,266968,2,0,B|284:352,2,77.9999986052513,8|0|8
160,280,267589,2,0,B|160:236,2,38.9999993026257,8|8|8
236,264,268003,6,0,B|392:264,1,155.999997210503,4|0
432,332,268623,1,8
472,264,268830,1,0
432,196,269037,1,8
472,132,269244,2,0,B|516:132,2,38.9999993026257,8|8|8
432,64,269658,2,0,B|272:64,1,155.999997210503,4|0
208,28,270278,1,8
140,64,270485,1,0
216,112,270692,1,8
216,112,270899,1,8
216,112,271106,1,0
216,112,271313,2,0,B|216:192,2,77.9999986052513,0|6|0
140,140,271934,6,0,B|88:204,1,77.9999986052513,10|0
136,264,272347,2,0,B|56:292,2,77.9999986052513,10|0|10
204,300,272968,2,0,B|376:300,1,155.999997210503,2|0
412,360,273589,1,10
464,300,273796,1,0
412,240,274003,2,0,B|412:200,2,38.9999993026257,10|8|8
336,220,274416,1,10
336,220,274623,6,0,B|336:126|247:110,1,155.999997210503,6|0
172,84,275244,2,0,B|172:32|232:32,2,77.9999986052513,10|0|10
116,136,275865,2,0,B|64:136,2,38.9999993026257,0|8|10
172,192,276278,1,4
256,192,276485,12,4,277934
