osu file format v6

[General]
AudioFilename: 01 - Snowstorm.mp3
AudioLeadIn: 1798
PreviewTime: 23784
Countdown: 0
SampleSet: Soft
StackLeniency: 0.7
Mode: 0
LetterboxInBreaks: 0

[Editor]
DistanceSpacing: 1
BeatDivisor: 4
GridSize: 8

[Metadata]
Title:Snowstorm
Artist:Kugimiya Rie
Creator:Ryuukun
Version:WyndII
Source:Rosario + Vampire
Tags:Mizore Shirayuki Roasrio to Vampire

[Difficulty]
HPDrainRate:8
CircleSize:5
OverallDifficulty:7
SliderMultiplier:1.6
SliderTickRate:1

[Events]
//Background and Video events
0,0,"pzxecae5fc.jpg"
//Break Periods
2,20517,22389
2,170376,175219
//Storyboard Layer 0 (Background)
//Storyboard Layer 1 (Fail)
//Storyboard Layer 2 (Pass)
//Storyboard Layer 3 (Foreground)
//Storyboard Sound Samples
//Background Colour Transformations
3,100,227,215,255

[TimingPoints]
1780,566.037735849057,4,2,0,50,1,0
62204,-100,4,1,0,50,0,0
62770,-100,4,1,0,50,0,0
86119,-100,4,2,0,20,0,0
87251,-100,4,2,0,49,0,0
126166,-100,4,1,0,50,0,0
147110,-100,4,1,0,80,0,0
147180,-100,4,2,0,80,0,1
147817,-100,4,2,0,100,0,0
170459,-100,4,1,0,51,0,0
176119,-100,4,1,0,80,0,1
185034,-100,4,1,0,80,0,0
185175,-100,4,1,0,80,0,1
187297,-100,4,1,0,80,0,0
187439,-100,4,1,0,80,0,1
196778,-100,4,1,0,80,0,0
196919,-100,4,1,0,80,0,1
200881,-100,4,1,0,0,0,0

[Colours]
Combo1 : 223,235,253
Combo2 : 118,43,202
Combo3 : 111,150,223
Combo4 : 154,207,206

[HitObjects]
64,88,12251,5,0
144,64,12534,2,0,B|200:48|224:112,1,80
208,168,13100,1,2
264,224,13383,2,0,B|304:256,2,40,0|0|0
208,280,13949,2,0,B|144:336,1,80,0|2
136,256,14515,2,0,B|72:312,2,80
136,176,15364,1,2
232,104,15789,2,0,B|368:88|360:240,1,200,0|2
472,328,17063,6,0,B|472:240,1,80
472,168,17629,1,2
328,96,18195,2,0,B|280:80|256:128,1,80
264,200,18761,1,2
184,200,19044,2,0,B|88:200,1,80
144,128,19610,1,0
224,128,19893,2,0,B|328:176|304:248,1,120,2|2
144,88,23289,5,0
384,88,23713,5,0
384,88,23855,1,0
448,128,24138,2,0,B|480:184|424:216,1,80,2|2
360,200,24704,5,2
328,272,24987,1,10
288,200,25270,1,0
256,272,25553,1,2
176,272,25836,2,0,B|128:272,1,40,2|0
96,272,26119,1,8
144,208,26402,2,0,B|208:152,1,80,0|2
264,104,26968,1,2
344,104,27251,6,0,B|440:104|440:168,1,120,10|0
440,200,27817,1,2
432,240,27959,1,0
392,232,28100,1,2
312,208,28383,1,8
312,288,28666,6,0,B|280:328|232:328,1,80,0|2
168,336,29232,1,2
128,336,29374,2,0,B|96:304,1,40,0|8
88,224,29798,1,0
160,192,30081,2,2,B|112:120,1,80
184,88,30647,1,8
232,152,30930,1,0
280,216,31213,2,2,B|328:264|384:272|440:224,1,160
432,112,32204,5,0
432,152,32346,1,2
368,200,32629,1,2
328,264,32912,1,8
256,120,33195,6,2,B|176:56,1,80
56,160,34044,2,2,B|40:264|144:296,1,160
192,240,34893,1,2
192,160,35176,2,0,B|216:96|320:112,1,120,8|0
328,120,35742,1,2
392,168,36025,1,2
336,224,36308,1,8
392,280,36591,1,0
424,256,36732,1,0
448,224,36874,1,2
504,264,37157,2,0,B|440:328,1,80,2|8
128,288,38006,5,2
168,216,38289,1,2
168,136,38572,1,8
320,88,39138,5,2
320,168,39421,1,2
360,240,39704,1,8
472,128,40270,5,0
360,240,40836,1,2
336,208,40978,1,0
304,184,41119,1,2
264,176,41261,1,0
224,184,41402,1,6
144,192,41685,1,0
256,72,41968,1,4
368,192,42251,1,0
256,312,42534,5,4
296,192,42959,1,0
256,216,43100,1,8
176,208,43383,1,2
160,288,43666,1,0
240,272,43949,1,2
256,192,44232,1,8
320,144,44515,2,0,B|408:88,1,80,2|0
392,176,45081,1,2
456,128,45364,1,0
392,176,45647,6,0,B|456:248,2,80,2|0|2
320,216,46496,2,0,B|240:272,1,80,8|2
184,296,47063,2,0,B|136:216,1,80,0|2
104,160,47629,2,2,B|144:88|256:72,2,160,8|0|8
72,232,49044,1,0
136,280,49327,1,2
192,224,49610,1,0
248,168,49893,1,8
248,288,50317,5,0
288,272,50459,1,2
328,256,50600,1,0
368,240,50742,1,2
440,208,51025,1,8
328,88,51591,6,2,B|224:56|152:72,1,160
104,120,52440,1,2
176,152,52723,1,0
128,216,53006,1,2
192,256,53289,1,8
352,256,53855,6,2,B|432:216|408:112,1,160
328,120,54704,2,2,B|232:120,1,80
168,120,55270,1,2
168,120,55412,1,0
168,120,55553,1,8
168,200,55836,1,2
248,200,56119,1,0
328,200,56402,6,6,B|280:280,1,80,2|6
232,328,56968,1,2
120,208,57534,2,2,B|88:168|128:128,1,80,2|6
192,96,58100,1,2
272,96,58383,5,6
272,96,58525,1,2
328,152,58808,1,2
272,208,59091,1,2
272,208,59232,1,2
328,264,59515,1,6
328,264,59657,1,2
272,320,59940,1,2
216,264,60223,1,2
216,264,60364,1,2
272,208,60647,1,6
256,192,60789,12,0,62063
256,32,62346,5,0
256,192,62912,5,4
336,192,63195,2,0,B|448:192,1,80,0|8
440,224,63619,1,0
416,256,63761,2,0,B|328:256,1,80
304,328,64327,5,0
224,328,64610,1,8
264,256,64893,1,0
184,256,65176,1,0
224,184,65459,1,0
264,184,65600,2,0,B|360:184|360:304,1,160,8|0
400,288,66308,1,8
480,288,66591,5,0
480,208,66874,2,0,B|440:128,1,80,8|0
368,160,67440,2,0,B|320:80,1,80
288,88,67864,2,0,B|208:88,2,40,0|8|0
288,48,68289,1,0
208,48,68572,2,0,B|120:48|120:168,2,160,0|8|0
240,120,69987,2,0,B|192:208,1,80,0|8
280,184,70553,2,0,B|240:264,1,80
224,288,70978,1,0
256,304,71119,1,8
336,304,71402,6,0,B|432:304,1,80,8|0
440,224,71968,2,0,B|352:224,1,80
360,184,72393,1,0
360,144,72534,1,8
384,64,72817,1,0
304,40,73100,1,0
232,72,73383,5,0
216,152,73666,1,8
232,232,73949,1,0
295,280,74232,2,0,B|224:360|160:272,1,160,0|8
160,192,75081,6,0,B|160:96,1,80,0|0
96,56,75647,2,0,B|96:160,1,80,0|8
96,176,76072,1,0
96,216,76213,1,0
160,256,76496,2,0,B|240:296|296:200,1,160,0|8
320,176,77204,1,0
344,144,77346,2,0,B|408:80|424:64,2,80
264,144,78195,1,8
208,88,78478,1,0
152,144,78761,1,0
208,248,79185,1,4
408,248,79893,6,0,B|480:192|432:104,1,160,0|8
368,56,80742,1,0
320,120,81025,2,0,B|264:192,1,80,0|0
248,216,81449,1,0
224,248,81591,2,0,B|160:328,1,80,8|0
112,264,82157,2,0,B|40:208,2,80,0|0|8
144,240,82864,1,0
176,216,83006,1,0
208,192,83147,1,0
240,168,83289,2,0,B|224:72|272:56,1,120,0|4
256,192,83855,12,2,86685
64,48,87251,6,0,B|176:48,1,80
96,112,87817,2,0,B|192:112,1,80,2|0
248,144,88383,1,2
272,112,88525,1,0
248,80,88666,1,0
328,72,88949,2,0,B|400:144,1,80,2|0
312,160,89515,2,0,B|368:232,1,80,2|0
256,192,89940,12,0,91213
104,160,91780,6,0,B|80:256,2,80,0|0|2
272,160,92912,2,0,B|192:96,1,80,0|2
176,88,93336,2,0,B|72:88|64:168,1,120
72,216,94044,2,0,B|72:128,1,80
72,216,94610,1,4
480,216,96166,5,0
480,216,96307,1,0
400,216,96591,6,0,B|304:216,1,80,0|2
160,216,97440,2,0,B|64:152|136:48,1,160
280,64,98572,2,0,B|376:64,1,80,2|0
440,64,99138,1,0
360,200,99704,1,2
200,200,100270,1,2
120,64,100836,1,2
280,64,101402,1,4
144,144,101968,6,0,B|104:96,2,40
112,216,102534,2,0,B|176:280,1,80,2|0
232,224,103100,2,0,B|304:288,1,80,2|0
352,328,103666,1,0
352,208,104091,1,4
72,152,105364,5,2
72,152,105647,1,0
72,152,105930,2,0,B|72:56,1,80,2|0
152,72,106496,1,10
232,48,106780,1,2
256,120,107063,1,0
184,144,107346,1,2
184,224,107629,2,0,B|88:224,1,80,8|2
104,264,108053,1,0
104,304,108195,2,0,B|200:304,1,80,2|0
264,304,108761,5,8
336,272,109044,1,2
408,232,109327,1,0
424,152,109610,1,10
376,88,109893,1,8
296,64,110176,5,2
216,64,110459,2,0,B|160:136,1,80,0|2
232,168,111025,2,0,B|312:224,1,80,8|2
256,280,111591,2,0,B|200:360,2,80,0|2|8
256,192,112440,12,2,113855
256,192,114138,5,0
256,192,114421,1,8
120,96,114987,5,2
192,64,115270,1,0
232,128,115553,1,8
304,88,115836,1,2
344,152,116119,1,2
192,216,116685,1,12
40,264,117251,5,2
72,336,117534,1,0
144,296,117817,1,8
192,360,118100,1,2
264,328,118383,1,2
184,192,118949,1,8
184,32,119515,5,0
112,72,119798,1,0
112,152,120081,1,8
184,192,120364,1,0
328,32,120930,5,0
400,72,121213,1,8
400,152,121496,1,0
328,192,121780,1,4
328,192,121921,1,0
256,120,122204,1,0
184,192,122487,1,2
184,192,122629,1,2
184,112,122912,1,6
184,112,123053,1,2
256,40,123336,1,2
328,112,123619,1,2
328,112,123761,1,2
256,152,124044,1,6
256,192,124256,12,0,125742
256,192,126025,5,0
256,192,126166,1,0
256,192,126308,1,4
296,120,126591,2,0,B|408:120,1,80,0|8
408,144,127015,1,0
424,184,127157,2,0,B|336:184,1,80
320,256,127723,5,0
256,304,128006,1,8
192,256,128289,1,0
256,216,128572,1,0
256,136,128855,1,0
256,136,128996,2,0,B|256:40|136:56,1,160,8|0
112,72,129704,1,8
64,224,129987,5,0
143,223,130270,2,0,B|179:295,1,80,8|0
256,264,130836,2,0,B|208:184,1,80
208,152,131260,2,0,B|128:152,2,40,0|8|0
248,152,131685,1,0
328,152,131968,2,0,L|416:152|416:32,2,160,0|8|0
248,152,133383,2,0,B|200:240,1,80,0|8
136,183,133949,2,0,B|185:103,1,80
200,88,134374,1,0
224,56,134515,1,8
304,56,134798,6,0,B|400:56,1,80,8|0
424,128,135364,2,0,B|336:128,1,80
304,128,135789,1,0
264,128,135930,1,8
264,208,136213,1,0
344,208,136496,1,0
344,288,136779,5,0
264,288,137062,1,8
184,288,137345,1,0
184,208,137628,2,0,L|153:166|82:246,1,160,0|8
32,176,138477,6,0,B|32:80,1,80,0|0
104,56,139043,2,0,B|104:160,1,80,0|8
144,136,139468,1,0
184,136,139609,1,0
184,216,139892,2,0,B|264:256|320:160,1,160,0|8
352,184,140600,1,0
384,160,140742,2,0,B|448:96|464:80,2,80
344,88,141591,1,8
264,72,141874,1,0
208,128,142157,1,0
208,248,142581,1,4
384,336,143289,6,0,L|456:280|408:192,1,160,0|8
392,144,144138,1,0
312,144,144421,2,0,B|312:240,1,80,0|0
272,224,144845,1,0
232,224,144987,2,0,B|168:304,1,80,8|0
120,232,145553,2,0,B|48:176,2,80,0|0|8
152,208,146261,2,0,B|192:176,1,40
152,152,146544,1,0
152,112,146685,2,0,B|296:112,1,120,0|4
408,288,148383,6,0,B|464:296,2,40,0|0|2
328,288,148949,2,0,B|328:168,2,80,0|2|0
248,288,149798,1,2
248,288,149940,1,0
248,288,150081,1,0
248,208,150364,2,2,B|168:168|88:208,1,160
96,288,151213,5,0
168,256,151496,1,2
160,336,151780,1,0
168,256,152063,1,2
224,200,152346,2,0,B|264:160,1,40
280,144,152629,1,2
336,88,152912,2,0,B|416:160,1,80,0|2
320,168,153478,2,0,B|384:232,1,80,0|2
344,296,154044,5,0
272,336,154327,1,2
200,296,154610,1,4
200,216,154893,1,2
272,176,155176,1,0
344,216,155459,1,2
272,256,155742,5,4
200,296,156025,1,2
128,256,156308,1,0
128,176,156591,1,6
200,136,156874,1,4
272,176,157157,1,2
272,176,157440,5,0
200,216,157723,1,2
128,176,158006,1,4
128,96,158289,1,2
200,56,158572,1,0
272,96,158855,1,2
272,176,159138,5,4
344,216,159421,1,2
416,176,159704,1,0
416,96,159987,1,2
344,56,160270,1,4
272,96,160553,1,2
272,176,160836,1,0
272,176,160978,5,0
272,176,161119,2,2,L|272:256,1,80,0|4
112,272,161968,5,0
80,248,162110,1,0
64,208,162251,1,2
72,168,162393,1,0
104,136,162534,1,0
136,120,162676,1,0
176,128,162817,1,2
200,160,162959,1,2
200,200,163100,2,2,B|304:200,1,80
280,120,163666,6,0,B|384:120,2,80,0|2|2
280,200,164515,1,2
280,280,164798,2,0,B|192:280,2,80,0|2|0
360,280,165647,1,2
360,280,165789,1,0
480,272,166213,6,0,B|480:160,2,80,2|0|2
480,304,166921,1,0
480,344,167063,1,0
400,304,167346,1,2
400,264,167487,1,0
400,224,167629,1,0
328,264,167912,1,2
328,224,168053,1,0
328,184,168195,1,0
328,104,168478,6,0,B|224:104,2,80,2|0|0
408,104,169327,1,0
408,104,169751,1,0
408,104,170176,1,4
256,56,176119,5,4
208,120,176402,2,0,B|320:120,1,80,0|8
288,160,176826,1,0
288,200,176968,2,0,B|368:200,1,80,0|4
440,232,177534,2,8,B|440:296|384:304,1,80,0|8
320,304,178100,1,0
239,303,178383,2,8,B|204:301|204:237,1,80,0|0
200,200,178807,2,0,B|200:104|80:120,1,160,8|0
48,120,179515,6,0,B|48:224,1,80,4|0
128,192,180081,2,0,B|128:288,1,80,8|0
207,256,180647,2,0,B|208:345,1,80
248,336,181072,1,0
288,320,181213,1,8
320,288,181355,1,0
320,248,181496,1,0
320,168,181779,2,0,C|232:168|232:288,2,160,0|8|0
392,192,183194,2,0,B|344:280,1,80,0|8
400,328,183760,2,0,B|449:248,1,80,0|0
464,224,184185,2,8,C|488:168,1,40,0|8
488,104,184609,6,0,B|408:104,1,80,8|0
384,176,185175,2,0,B|296:176,1,80,4|0
264,176,185600,1,0
224,168,185742,2,0,C|224:256,1,80,0|4
152,216,186307,1,0
72,216,186591,6,8,C|72:320,1,80
152,296,187156,1,0
232,296,187440,2,0,B|232:112,1,160
304,168,188288,6,0,B|304:72,1,80,0|4
376,128,188854,2,0,B|376:232,1,80,0|8
376,248,189279,1,0
376,288,189420,1,0
296,288,189703,2,0,B|244:379|164:339,1,160,0|8
192,312,190411,1,0
224,288,190553,2,0,B|288:224|304:208,2,80
224,208,191402,1,8
168,152,191685,1,0
88,168,191968,1,0
112,288,192392,1,4
304,328,193100,6,0,B|376:272|328:184,1,160,0|8
344,104,193949,1,0
264,104,194232,6,0,B|192:160|240:246,1,160,0|8
240,328,195081,1,0
160,328,195364,2,0,B|120:304|64:328,2,80
240,328,196213,1,0
240,328,196496,1,0
240,328,196921,1,4
256,192,197060,12,0,202013
