osu file format v6

[General]
AudioFilename: 01 - Snowstorm.mp3
AudioLeadIn: 3000
PreviewTime: 23784
Countdown: 1
SampleSet: Soft
StackLeniency: 0.7
Mode: 0
LetterboxInBreaks: 1

[Editor]
Bookmarks: 6367,7287,7783,8207,8632,21367,22570,27806,31221,32193,35094,37500,40613,45707,50165,55754,63891,66084,70825,72877,75283,85542,86745,90778,91132,101179,109457,113632,119221,121768,127004,129693,134009,136273,138608,143207,146462,148231,166768,167334,167830,168466,171226,173915,177240,179433,183962,186014,188490,190188,192452,196556,197051,199740
DistanceSpacing: 1.5
BeatDivisor: 4
GridSize: 8

[Metadata]
Title:Snowstorm
Artist:Kugimiya Rie
Creator:Ryuukun
Version:Snowflake
Source:Rosario + Vampire
Tags:Mizore Shirayuki Roasrio to Vampire

[Difficulty]
HPDrainRate:3
CircleSize:4
OverallDifficulty:5
SliderMultiplier:0.6
SliderTickRate:2

[Events]
//Background and Video events
0,0,"pzxecae5fc.jpg"
//Break Periods
2,8772,11051
2,20517,22655
2,58300,60013
2,121979,123410
2,148017,161334
//Storyboard Layer 0 (Background)
//Storyboard Layer 1 (Fail)
//Storyboard Layer 2 (Pass)
//Storyboard Layer 3 (Foreground)
//Storyboard Sound Samples
//Background Colour Transformations
3,100,227,215,255

[TimingPoints]
1780,566.037735849057,4,2,0,60,1,0
99067,-100,4,2,0,50,0,0
99208,-100,4,2,0,100,0,0
176127,-100,4,2,0,60,0,1
184051,-100,4,2,0,60,0,0
184334,-100,4,2,0,60,0,1
196645,-100,4,2,0,60,0,0

[Colours]
Combo1 : 223,235,253
Combo2 : 118,43,202
Combo3 : 111,150,223
Combo4 : 78,167,165

[HitObjects]
256,192,6308,5,4
256,56,7157,1,4
256,144,7723,1,4
256,208,8147,1,4
256,272,8572,1,4
408,248,12251,5,0
376,216,12534,1,0
344,184,12817,1,0
296,184,13100,1,0
296,256,13525,1,2
104,248,14515,5,0
136,216,14798,1,0
168,184,15081,1,0
216,184,15364,1,0
216,256,15789,1,2
256,32,17063,5,0
256,72,17346,1,0
256,112,17629,1,0
256,200,18195,6,0,L|256:232,6,30
256,264,20317,1,2
312,96,23855,5,8
312,136,24138,1,0
312,176,24421,1,0
200,176,24987,5,8
200,136,25270,1,0
202,95,25553,1,0
256,72,25836,5,0
256,112,26119,1,8
256,152,26402,1,0
256,152,26544,2,0,L|256:288,1,135,0|0
168,208,28383,5,8
120,208,28666,1,0
120,256,28949,1,0
200,288,29515,5,8
232,256,29798,1,0
256,288,30081,1,0
288,256,30364,1,0
320,288,30647,1,8
344,256,30930,1,0
384,288,31213,2,0,B|416:288|416:288|416:240|416:240|417:197,1,120,0|0
312,160,32912,5,8
280,200,33195,1,0
248,160,33478,1,0
160,160,34044,1,8
72,160,34610,2,0,L|72:224,1,60,0|8
72,264,35459,5,0
120,264,35742,1,0
200,264,36308,1,8
248,264,36591,1,0
272,264,36732,2,0,L|352:264,1,75,0|8
224,120,38572,6,0,L|192:120,6,30,8|0|0|0|8|0|0
320,120,40695,5,0
320,120,40836,1,8
392,296,41968,5,8
392,248,42251,1,0
344,248,42534,1,0
272,248,42959,1,0
272,248,43100,1,8
224,248,43383,1,0
200,160,43949,5,0
248,160,44232,1,8
296,160,44515,2,0,L|448:160,1,150
328,272,46496,5,8
376,272,46779,1,0
328,272,47063,1,0
256,272,47487,1,0
256,272,47629,1,8
256,224,47912,1,0
256,112,48478,5,0
304,112,48761,1,8
352,112,49044,2,0,L|412:165|376:232,1,150
328,304,51025,1,8
280,232,51591,5,0
200,232,52015,1,0
200,232,52157,1,8
200,272,52440,1,0
160,304,52723,1,0
64,304,53289,1,8
64,216,53855,5,0
64,144,54279,1,0
64,144,54421,1,8
24,88,54704,2,0,L|30:88|65:64|105:96,1,90,0|8
184,200,56402,5,0
216,168,56685,1,4
248,136,56968,1,0
312,72,57534,5,0
344,104,57817,1,4
376,136,58100,1,0
256,344,61213,5,0
256,256,61779,1,0
256,168,62346,1,0
256,80,62912,2,2,L|256:200,1,120,2|10
296,200,64327,5,0
296,152,64610,1,2
296,104,64893,1,0
296,56,65176,2,0,L|176:56,1,120,0|8
136,96,66591,5,0
104,128,66874,1,2
136,160,67157,1,0
104,192,67440,1,8
144,256,67864,1,0
208,256,68289,1,0
256,256,68572,1,8
360,192,69138,5,0
312,192,69421,1,0
312,192,69563,2,0,L|176:192,1,135,0|8
128,192,71119,5,0
128,144,71402,1,2
128,192,71685,1,0
128,240,71968,2,0,B|128:312|128:312|184:312,1,120,0|8
216,312,73383,5,0
264,312,73666,1,2
312,312,73949,1,0
360,312,74232,2,0,L|352:248|296:248,1,120,0|8
288,144,75930,5,0
288,96,76213,1,0
240,96,76496,1,2
152,96,77063,5,0
152,144,77346,1,0
152,168,77487,1,2
80,168,77912,5,0
80,216,78195,1,0
80,264,78478,1,0
128,264,78761,1,2
192,264,79185,1,2
296,264,79893,1,4
344,112,80459,5,0
296,112,80742,1,0
296,160,81025,1,2
296,248,81591,5,0
336,248,81874,1,0
360,248,82015,1,2
360,176,82440,1,0
360,128,82723,1,0
272,72,83289,5,0
272,128,83713,2,0,L|272:176|208:176|208:240,1,172.5,0|2
256,192,85553,12,0,86544
384,104,87251,5,0
336,104,87534,1,0
384,104,87817,1,2
336,184,88383,5,0
288,184,88666,1,0
264,184,88808,1,2
264,112,89232,5,0
216,112,89515,1,2
168,112,89798,1,0
120,112,90081,2,0,L|120:168|184:168,1,120,2|2
280,168,91779,5,0
328,168,92063,1,0
280,168,92346,1,2
320,248,92982,5,0
368,248,93265,1,0
392,248,93407,1,2
384,312,93831,5,2
336,312,94114,1,0
288,312,94397,1,2
240,312,94680,1,2
256,192,94893,12,0,96308
432,64,96591,5,0
384,64,96874,1,4
408,152,97440,1,0
320,152,98006,1,2
184,152,98855,5,0
136,152,99138,1,4
160,240,99704,1,0
208,240,99987,1,0
232,240,100129,2,0,L|368:240,1,135,0|2
408,128,101968,5,0
384,88,102251,1,0
360,128,102534,1,8
336,88,102817,1,0
312,128,103100,1,0
288,88,103383,1,0
264,128,103666,1,8
208,88,104091,1,0
104,88,104798,1,4
104,272,105364,5,0
56,272,105647,1,0
104,272,105930,1,8
176,272,106355,1,0
248,272,106779,1,2
344,272,107346,5,0
344,224,107629,1,8
344,176,107912,2,0,L|192:176,1,150
112,128,109893,5,8
112,176,110176,1,0
112,128,110459,1,0
112,56,110883,1,0
184,56,111308,1,8
272,56,111874,5,0
320,56,112157,1,0
368,56,112440,2,0,L|400:56|400:176,1,150
400,264,114421,1,8
240,288,114987,5,0
168,288,115412,1,0
192,232,115836,1,0
144,232,116119,1,0
56,232,116685,1,8
104,160,117251,5,0
168,160,117676,1,0
232,160,118100,2,0,L|312:160|328:160,1,90,0|8
352,248,119798,5,0
352,296,120081,1,4
352,248,120364,1,0
264,248,120930,2,0,L|216:248|216:296,1,90
376,80,124610,5,4
288,80,125176,1,4
376,80,125742,1,4
376,168,126308,2,0,B|376:232|376:232|312:232,1,120,0|4
272,232,127723,5,0
240,200,128006,1,2
208,232,128289,1,0
176,200,128572,2,0,L|104:200|104:248,1,120,0|4
104,288,129987,5,0
136,320,130270,1,2
168,288,130553,1,0
200,320,130836,1,0
256,288,131261,1,0
320,288,131685,1,0
320,240,131968,1,0
408,240,132534,5,0
408,192,132817,1,0
408,168,132959,2,0,B|408:64|408:64|376:64,1,135,0|4
328,64,134515,5,0
296,96,134798,1,2
264,64,135081,1,0
232,96,135364,2,0,L|232:144|200:144|160:144,1,120,0|4
160,192,136779,5,0
160,240,137063,1,2
160,288,137346,1,0
160,336,137629,2,0,L|40:336,1,120,0|4
112,184,139327,5,0
64,184,139610,1,0
112,184,139893,1,0
200,184,140459,1,0
240,184,140742,1,0
264,184,140883,1,0
328,184,141308,5,0
360,216,141591,1,0
328,248,141874,1,0
360,280,142157,1,0
328,336,142581,2,0,L|248:336,1,75,0|8
152,336,143855,5,0
200,336,144138,1,0
152,336,144421,1,0
160,248,144987,5,0
112,248,145270,1,0
88,248,145412,1,0
88,176,145836,5,0
88,128,146119,1,0
88,80,146402,1,4
88,32,146685,1,0
152,32,147110,2,0,L|232:32,1,75,0|2
256,192,162534,12,0,166213
408,96,166780,6,0,L|344:96,3,60
304,96,168761,5,0
256,96,169044,1,0
256,144,169327,1,0
256,216,169751,5,0
256,304,170176,2,0,L|256:232|256:208,1,90
256,192,171308,12,0,173855
168,128,174421,5,4
168,216,174987,1,4
168,128,175553,1,4
256,128,176119,2,0,L|256:256,1,120,0|4
296,248,177534,5,0
344,248,177817,1,2
344,200,178100,1,0
344,152,178383,2,0,B|344:104|344:104|264:104,1,120,0|4
216,104,179798,5,0
184,136,180081,1,2
152,104,180364,1,0
120,136,180647,1,0
64,104,181072,1,0
64,168,181496,1,0
64,216,181780,1,2
152,216,182346,5,0
152,264,182629,1,0
176,264,182770,2,0,L|312:264,1,135,0|4
352,264,184327,5,0
400,264,184610,1,2
400,216,184893,1,0
400,168,185176,2,0,L|400:40,1,120,0|4
352,48,186591,5,0
320,80,186874,1,2
288,48,187157,1,0
240,48,187440,2,0,L|112:48,1,120,0|4
176,120,189138,5,0
216,120,189421,1,2
176,120,189704,1,0
88,120,190270,1,0
88,168,190553,1,0
88,192,190695,1,8
152,192,191119,5,0
184,224,191402,1,2
216,192,191685,1,0
248,224,191968,2,0,L|376:224,1,120,0|4
440,272,193666,5,0
440,320,193949,1,2
440,272,194232,1,0
440,184,194798,1,0
392,184,195081,1,0
368,184,195223,1,8
368,112,195647,5,0
336,80,195930,1,2
304,112,196213,1,0
272,80,196496,1,0
256,192,197063,12,2,199751
