osu file format v12

[General]
AudioFilename: Say Yes.mp3
AudioLeadIn: 1000
PreviewTime: 95730
Countdown: 0
SampleSet: Soft
StackLeniency: 0.7
Mode: 0
LetterboxInBreaks: 0

[Editor]
DistanceSpacing: 1
BeatDivisor: 4
GridSize: 8

[Metadata]
Title:Say Yes!
TitleUnicode:Say Yes!
Artist:Kugimiya Rie
ArtistUnicode:釘宮理恵
Creator:Nymph
Version:Hard
Source:Rosario + Vampire CAPU2
Tags:shirayuki mizore kikuchi momoko
BeatmapID:247340
BeatmapSetID:91344

[Difficulty]
HPDrainRate:6
CircleSize:4
OverallDifficulty:6
ApproachRate:8
SliderMultiplier:1.4
SliderTickRate:1

[Events]
//Background and Video events
0,0,"snow.jpg",0,0
//Break Periods
2,30146,35863
//Storyboard Layer 0 (Background)
//Storyboard Layer 1 (Fail)
//Storyboard Layer 2 (Pass)
//Storyboard Layer 3 (Foreground)
//Storyboard Sound Samples
//Background Colour Transformations
3,100,163,162,255

[TimingPoints]
1502,444.444444444444,4,2,2,50,1,0
36501,-100,4,2,2,40,0,0
36724,-100,4,2,2,55,0,0
37057,-100,4,2,2,43,0,0
95724,-100,4,2,2,65,0,1
124168,-100,4,2,2,45,0,0
127724,-100,4,2,2,45,0,0
134946,-100,4,2,2,40,0,0
136613,-100,4,2,2,20,0,0

[Colours]
Combo1 : 191,128,255
Combo2 : 0,120,240
Combo3 : 255,176,255
Combo4 : 113,184,255

[HitObjects]
157,39,1502,2,0,P|105:91|104:156,1,140,4|8,0:0|0:0,0:0:0:0:
224,269,2390,2,0,L|193:342,1,70
271,371,2835,1,8,0:0:0:0:
354,369,3057,2,0,P|425:353|464:298,1,140
443,219,3724,2,0,L|460:151,1,70,8|0,0:0|0:0,0:0:0:0:
448,67,4168,2,0,P|377:83|338:138,1,140,0|8,0:0|0:0,0:0:0:0:
205,31,5057,5,0,0:0:0:0:
72,133,5501,1,8,0:0:0:0:
161,275,5946,2,0,L|128:341,1,70
206,372,6390,1,8,0:0:0:0:
289,379,6613,2,0,P|353:342|363:279,1,140
320,209,7279,1,8,0:0:0:0:
479,156,7724,2,0,L|447:85,1,70
411,17,8168,1,8,0:0:0:0:
334,51,8390,1,0,0:0:0:0:
321,57,8501,1,0,0:0:0:0:
308,64,8613,6,0,P|251:93|175:87,1,140,4|8,0:0|0:0,0:0:0:0:
40,185,9501,2,0,P|69:242|63:318,1,140,0|8,0:0|0:0,0:0:0:0:
129,368,10168,2,0,P|186:339|262:345,1,140
334,305,10835,2,0,L|391:354,1,70,8|0,0:0|0:0,0:0:0:0:
466,324,11279,2,0,P|495:267|489:191,1,140,0|8,0:0|0:0,0:0:0:0:
357,16,12168,6,0,P|328:73|334:149,1,140,0|8,0:0|0:0,0:0:0:0:
256,182,12835,1,0,0:0:0:0:
193,238,13057,2,0,P|198:312|169:369,1,140,0|8,0:0|0:0,0:0:0:0:
30,273,13724,2,0,P|25:199|54:142,1,140,4|0,0:0|0:0,0:0:0:0:
105,75,14390,1,4,0:0:0:0:
266,28,14835,1,0,0:0:0:0:
325,138,15057,1,0,0:0:0:0:
392,31,15279,1,8,0:0:0:0:
451,141,15501,1,0,0:0:0:0:
492,260,15724,6,0,P|465:326|405:355,1,140,4|8,0:0|0:0,0:0:0:0:
85,324,16613,2,0,P|112:258|172:229,1,140,0|8,0:0|0:0,0:0:0:0:
257,240,17279,2,0,P|247:178|183:146,1,140
108,106,17946,2,0,L|132:30,1,70,8|0,0:0|0:0,0:0:0:0:
207,10,18390,1,0,0:0:0:0:
419,84,18835,1,8,0:0:0:0:
484,298,19279,6,0,P|436:346|365:355,1,140,0|8,0:0|0:0,0:0:0:0:
267,186,20168,2,0,P|197:195|149:243,1,140,0|8,0:0|0:0,0:0:0:0:
66,230,20835,1,0,0:0:0:0:
91,310,21057,2,0,L|70:382,2,70,0|0|8,0:0|0:0|0:0,0:0:0:0:
134,62,21946,2,0,P|167:46|205:40,1,70
346,77,22390,2,0,P|324:100|313:135,1,70,8|0,0:0|0:0,0:0:0:0:
424,152,22835,6,0,P|468:213|451:269,1,140,0|8,0:0|0:0,0:0:0:0:
208,358,23724,2,0,P|191:301|235:240,1,140,0|8,0:0|0:0,0:0:0:0:
276,165,24390,2,0,P|320:103|303:47,1,140
234,95,25057,1,8,0:0:0:0:
155,64,25279,1,0,0:0:0:0:
75,89,25501,2,0,P|27:140|27:210,1,140,0|8,0:0|0:0,0:0:0:0:
192,184,26390,6,0,P|240:133|240:63,1,140,0|8,0:0|0:0,0:0:0:0:
442,120,27279,2,0,L|421:186,1,70
393,266,27724,1,8,0:0:0:0:
476,269,27946,2,0,P|449:333|385:353,1,140
222,320,28613,2,0,P|253:307|289:304,1,70,8|0,0:0|0:0,0:0:0:0:
136,264,29057,2,0,P|106:284|85:310,1,70
56,341,29390,2,0,L|27:311,1,35,0|8,0:0|0:0,0:0:0:0:
9,208,29724,1,0,0:0:0:0:
84,125,29946,1,4,0:0:0:0:
256,32,36613,6,0,L|256:104,1,70,0|4,1:0|0:0,0:0:0:0:
256,248,37279,5,0,0:0:0:0:
222,325,37501,1,8,0:0:0:0:
146,362,37724,1,0,0:0:0:0:
62,351,37946,2,0,P|11:305|5:238,1,140,2|8,0:0|0:0,0:0:0:0:
185,43,38835,2,0,P|236:89|242:156,1,140,2|8,0:0|0:0,0:0:0:0:
316,195,39501,2,0,L|342:125,1,70,0|2,0:0|0:0,0:0:0:0:
424,120,39946,1,0,0:0:0:0:
486,175,40168,1,8,0:0:0:0:
471,257,40390,1,0,0:0:0:0:
471,257,40501,1,0,0:0:0:0:
471,257,40613,1,2,0:0:0:0:
294,342,41057,6,0,P|259:357|223:359,1,70,8|0,0:0|0:0,0:0:0:0:
150,325,41501,2,0,P|118:327|83:342,2,70,2|0|8,0:0|0:0|0:0,0:0:0:0:
141,241,42168,1,0,0:0:0:0:
61,214,42390,2,0,P|20:158|37:95,1,140,2|8,0:0|0:0,0:0:0:0:
109,50,43057,1,0,0:0:0:0:
190,69,43279,2,0,P|231:125|214:188,1,140,2|8,0:0|0:0,0:0:0:0:
141,241,43946,2,0,L|126:314,1,70,0|2,0:0|0:0,0:0:0:0:
261,370,44390,6,0,L|276:297,1,70,0|8,0:0|0:0,0:0:0:0:
334,242,44835,1,0,0:0:0:0:
417,240,45057,2,0,P|468:288|464:364,2,140,2|8|2,0:0|0:0|0:0,0:0:0:0:
491,33,46390,2,0,P|475:65|447:87,1,70,8|0,0:0|0:0,0:0:0:0:
364,94,46835,2,0,P|337:115|321:147,1,70,2|0,0:0|0:0,0:0:0:0:
256,199,47279,1,8,0:0:0:0:
188,148,47501,1,0,0:0:0:0:
188,148,47613,1,0,0:0:0:0:
188,148,47724,1,2,0:0:0:0:
63,260,48168,5,8,0:0:0:0:
36,339,48390,1,0,0:0:0:0:
113,372,48613,2,0,L|189:372,2,70,2|0|8,0:0|0:0|0:0,0:0:0:0:
317,314,49501,2,0,P|388:316|441:357,1,140,2|8,0:0|0:0,0:0:0:0:
498,295,50168,1,0,0:0:0:0:
492,211,50390,2,0,L|476:135,1,70,2|0,0:0|0:0,0:0:0:0:
400,108,50835,1,8,2:0:0:0:
395,87,50946,1,0,2:0:0:0:
390,67,51057,1,0,2:0:0:0:
256,26,51279,5,4,0:0:0:0:
71,90,51724,2,0,L|50:162,1,70,8|0,0:0|0:0,0:0:0:0:
94,279,52168,2,0,L|114:212,1,70,2|0,0:0|0:0,0:0:0:0:
214,167,52613,2,0,L|193:239,1,70,8|0,0:0|0:0,0:0:0:0:
308,358,53057,1,2,0:0:0:0:
457,281,53501,2,0,L|478:209,1,70,8|0,0:0|0:0,0:0:0:0:
433,92,53946,2,0,L|413:159,1,70,2|0,0:0|0:0,0:0:0:0:
314,204,54390,2,0,L|335:132,1,70,8|0,0:0|0:0,0:0:0:0:
239,31,54835,5,2,0:0:0:0:
155,32,55057,1,0,0:0:0:0:
82,74,55279,2,0,P|75:109|60:140,1,70,8|0,0:0|0:0,0:0:0:0:
86,274,55724,2,0,P|93:239|108:208,1,70,2|0,0:0|0:0,0:0:0:0:
171,270,56168,1,8,0:0:0:0:
135,346,56390,2,0,P|204:374|272:367,1,140,2|0,0:0|0:0,0:0:0:0:
466,331,57057,2,0,P|434:322|397:325,1,70,8|0,0:0|0:0,0:0:0:0:
367,295,57390,2,0,P|369:275|374:256,1,35,0|2,0:0|0:0,0:0:0:0:
490,216,57724,1,0,0:0:0:0:
408,120,57946,1,8,0:0:0:0:
290,166,58168,1,4,0:0:0:0:
88,36,58613,5,0,0:0:0:0:
170,21,58835,1,8,0:0:0:0:
227,81,59057,1,0,0:0:0:0:
145,102,59279,2,0,P|132:173|84:218,1,140,2|8,0:0|0:0,0:0:0:0:
17,269,59946,1,0,0:0:0:0:
50,345,60168,2,0,P|84:352|122:352,1,70,2|0,0:0|0:0,0:0:0:0:
172,289,60613,2,0,P|207:289|241:296,1,70,8|0,0:0|0:0,0:0:0:0:
409,363,61057,1,2,0:0:0:0:
486,330,61279,1,0,0:0:0:0:
499,247,61501,1,10,0:0:0:0:
428,200,61724,1,0,0:0:0:0:
428,200,61835,1,0,0:0:0:0:
428,200,61946,1,2,0:0:0:0:
485,30,62390,6,0,P|465:61|462:100,1,70
399,150,62835,2,0,P|379:119|376:80,2,70,2|0|8,0:0|0:0|0:0,0:0:0:0:
366,227,63501,1,0,0:0:0:0:
393,306,63724,2,0,P|345:353|272:365,1,140,2|8,0:0|0:0,0:0:0:0:
197,334,64390,1,0,0:0:0:0:
27,326,64613,2,0,P|75:279|145:267,1,140,2|8,0:0|0:0,0:0:0:0:
203,207,65279,2,0,P|195:170|182:140,1,70,0|2,0:0|0:0,0:0:0:0:
103,109,65724,5,0,0:0:0:0:
46,171,65946,2,0,P|54:208|67:238,1,70,8|0,0:0|0:0,0:0:0:0:
146,264,66390,2,0,P|103:318|34:320,2,140,2|8|2,0:0|0:0|0:0,0:0:0:0:
299,78,67724,2,0,P|336:79|368:92,1,70,8|0,0:0|0:0,0:0:0:0:
440,52,68168,1,2,0:0:0:0:
440,135,68390,1,0,0:0:0:0:
364,172,68613,1,8,0:0:0:0:
388,252,68835,1,0,2:0:0:0:
394,272,68946,1,0,0:0:0:0:
400,292,69057,1,2,0:0:0:0:
240,347,69501,6,0,P|203:361|172:364,1,70,8|0,0:0|0:0,0:0:0:0:
93,337,69946,2,0,P|79:300|76:269,2,70,2|0|8,0:0|0:0|0:0,0:0:0:0:
161,287,70613,1,0,0:0:0:0:
224,232,70835,2,0,P|232:163|190:110,1,140,2|8,0:0|0:0,0:0:0:0:
106,103,71501,1,0,0:0:0:0:
42,158,71724,2,0,P|33:226|75:279,1,140,2|8,0:0|0:0,0:0:0:0:
161,287,72390,1,0,0:0:0:0:
211,354,72613,6,0,L|287:354,1,70,4|0,0:0|0:0,0:0:0:0:
364,354,73057,1,8,0:0:0:0:
488,241,73501,2,0,L|418:241,1,70,2|0,0:0|0:0,0:0:0:0:
349,192,73946,2,0,L|279:192,1,70,8|0,0:0|0:0,0:0:0:0:
295,109,74390,6,0,L|371:109,1,70,2|0,0:0|0:0,0:0:0:0:
448,109,74835,1,8,0:0:0:0:
340,275,75279,2,0,L|270:275,1,70,2|0,0:0|0:0,0:0:0:0:
217,341,75724,2,0,L|147:341,1,70,8|0,0:0|0:0,0:0:0:0:
65,322,76168,5,2,0:0:0:0:
35,243,76390,1,0,0:0:0:0:
96,185,76613,1,8,0:0:0:0:
66,106,76835,1,0,0:0:0:0:
124,42,77057,2,0,P|143:71|149:107,1,70,2|0,0:0|0:0,0:0:0:0:
208,165,77501,1,8,0:0:0:0:
278,118,77724,2,0,P|341:93|412:105,1,140,2|0,0:0|0:0,0:0:0:0:
476,158,78390,2,0,L|455:225,1,70,8|0,0:0|0:0,0:0:0:0:
319,226,78835,2,0,L|298:293,1,70,2|0,0:0|0:0,0:0:0:0:
351,357,79279,1,8,0:0:0:0:
434,352,79501,1,0,0:0:0:0:
500,218,79724,6,0,P|498:146|448:104,1,140,4|8,0:0|0:0,0:0:0:0:
365,107,80390,1,0,0:0:0:0:
301,51,80613,2,0,P|245:87|173:91,1,140,2|8,0:0|0:0,0:0:0:0:
92,69,81279,1,0,0:0:0:0:
108,151,81501,2,0,L|85:225,1,70,2|0,0:0|0:0,0:0:0:0:
129,339,81946,2,0,L|150:273,2,70,8|0|2,0:0|0:0|0:0,0:0:0:0:
129,340,82835,1,8,0:0:0:0:
376,351,83279,6,0,P|414:358|449:356,1,70,2|0,0:0|0:0,0:0:0:0:
494,288,83724,2,0,P|501:250|499:215,1,70,8|0,0:0|0:0,0:0:0:0:
428,174,84168,2,0,P|412:104|450:39,1,140,2|8,0:0|0:0,0:0:0:0:
367,8,84835,1,0,0:0:0:0:
283,15,85057,2,0,L|210:25,1,70,2|0,0:0|0:0,0:0:0:0:
184,103,85501,2,0,L|111:113,2,70,8|0|2,0:0|0:0|0:0,0:0:0:0:
256,254,86390,5,8,0:0:0:0:
256,254,86613,2,0,P|200:299|132:310,1,140,4|0,0:0|0:0,0:0:0:0:
52,293,87279,2,0,P|34:322|27:357,2,70,8|0|2,0:0|0:0|0:0,0:0:0:0:
27,212,87946,1,0,0:0:0:0:
27,212,88057,1,0,0:0:0:0:
27,212,88168,1,8,0:0:0:0:
57,133,88390,2,0,P|98:74|161:52,1,140,4|0,0:0|0:0,0:0:0:0:
236,86,89057,6,0,P|267:100|302:103,1,70,8|0,0:0|0:0,0:0:0:0:
380,70,89501,1,2,0:0:0:0:
459,99,89724,1,0,0:0:0:0:
459,99,89835,1,0,0:0:0:0:
459,99,89946,1,8,0:0:0:0:
484,179,90168,2,0,L|468:248,1,70,0|2,0:0|0:0,0:0:0:0:
256,322,90835,1,8,0:0:0:0:
256,139,91279,5,2,0:0:0:0:
222,15,91501,1,0,0:0:0:0:
98,48,91724,1,8,0:0:0:0:
131,172,91946,1,8,0:0:0:0:
256,192,92057,12,0,93724,0:0:0:0:
185,130,94168,5,0,1:0:0:0:
148,250,94390,1,0,1:0:0:0:
327,254,94613,1,0,1:0:0:0:
364,134,94835,1,0,1:0:0:0:
256,192,95057,2,0,L|192:224,2,70,8|0|0,0:0|1:0|0:0,1:0:0:0:
398,44,95724,6,0,P|451:87|460:136,1,105,4|0,0:0|0:0,0:0:0:0:
462,162,96168,1,8,0:0:0:0:
398,236,96390,1,0,0:0:0:0:
448,320,96613,2,0,P|476:294|490:264,1,70,2|0,0:0|0:0,0:0:0:0:
351,320,97057,1,8,0:0:0:0:
260,297,97279,2,0,P|192:315|143:367,1,140,2|0,0:0|0:0,0:0:0:0:
48,343,97946,2,0,L|91:288,1,70,8|0,0:0|0:0,0:0:0:0:
54,197,98390,2,0,P|30:131|38:83,1,105,2|0,0:0|0:0,0:0:0:0:
124,28,98835,2,0,P|148:94|140:142,1,105,8|0,0:0|0:0,0:0:0:0:
146,176,99279,5,2,0:0:0:0:
262,315,99501,1,0,0:0:0:0:
168,271,99724,2,0,L|128:340,1,70,8|0,0:0|0:0,0:0:0:0:
260,198,100168,2,0,P|311:151|382:140,1,140,2|8,0:0|0:0,0:0:0:0:
418,49,100835,1,0,0:0:0:0:
491,114,101057,2,0,L|473:184,1,70,2|0,0:0|0:0,0:0:0:0:
382,314,101501,2,0,L|400:247,1,70,8|0,0:0|0:0,0:0:0:0:
290,355,101946,1,2,0:0:0:0:
207,259,102168,1,0,0:0:0:0:
207,259,102279,1,0,0:0:0:0:
207,259,102390,1,8,0:0:0:0:
124,355,102613,1,0,0:0:0:0:
41,259,102835,6,0,P|17:212|21:155,1,105,4|0,0:0|0:0,0:0:0:0:
25,112,103279,1,8,0:0:0:0:
178,22,103501,1,0,0:0:0:0:
270,54,103724,2,0,P|308:120|301:182,1,140,2|8,0:0|0:0,0:0:0:0:
242,330,104390,2,0,P|204:264|211:202,1,140,2|0,0:0|0:0,0:0:0:0:
119,167,105057,2,0,L|94:239,1,70,8|0,0:0|0:0,0:0:0:0:
66,326,105501,1,2,0:0:0:0:
66,58,105946,1,8,0:0:0:0:
333,58,106390,6,0,P|402:71|447:126,1,140,2|8,0:0|0:0,0:0:0:0:
381,196,107057,1,0,0:0:0:0:
362,292,107279,2,0,P|405:343|474:356,2,140,2|8|2,0:0|0:0|0:0,0:0:0:0:
287,227,108390,1,0,0:0:0:0:
381,196,108613,2,0,L|396:128,1,70,8|0,0:0|0:0,0:0:0:0:
321,26,109057,1,2,0:0:0:0:
226,109,109279,1,0,0:0:0:0:
226,109,109390,1,0,0:0:0:0:
226,109,109501,1,8,0:0:0:0:
117,44,109724,1,0,0:0:0:0:
39,142,109946,6,0,P|26:191|43:247,1,105,4|0,0:0|0:0,0:0:0:0:
59,287,110390,1,8,0:0:0:0:
215,367,110613,1,0,0:0:0:0:
306,330,110835,2,0,P|325:256|302:198,1,140,2|8,0:0|0:0,0:0:0:0:
206,54,111501,2,0,P|186:127|209:185,1,140,2|0,0:0|0:0,0:0:0:0:
168,274,112168,2,0,L|136:339,1,70,8|0,0:0|0:0,0:0:0:0:
306,330,112613,2,0,P|369:362|439:356,1,140,2|8,0:0|0:0,0:0:0:0:
496,279,113279,1,0,0:0:0:0:
477,182,113501,6,0,P|414:150|344:156,2,140,2|8|2,0:0|0:0|0:0,0:0:0:0:
268,13,114835,2,0,L|249:80,1,70,8|0,0:0|0:0,0:0:0:0:
152,78,115279,2,0,L|133:145,1,70,2|0,0:0|0:0,0:0:0:0:
46,190,115724,1,8,0:0:0:0:
24,285,115946,1,0,0:0:0:0:
140,362,116168,1,2,0:0:0:0:
182,228,116390,1,0,0:0:0:0:
182,228,116501,1,0,0:0:0:0:
182,228,116613,1,8,0:0:0:0:
298,305,116835,1,0,0:0:0:0:
436,326,117057,6,0,P|473:281|483:234,1,105,4|0,0:0|0:0,0:0:0:0:
484,187,117501,1,8,0:0:0:0:
362,24,117724,1,0,0:0:0:0:
264,20,117946,2,0,P|222:77|231:145,1,140,2|8,0:0|0:0,0:0:0:0:
248,364,118613,2,0,P|290:307|281:239,1,140,2|0,0:0|0:0,0:0:0:0:
197,192,119279,2,0,L|125:192,1,70,8|0,0:0|0:0,0:0:0:0:
47,133,119724,2,0,P|16:192|47:252,1,140,2|8,0:0|0:0,0:0:0:0:
136,293,120390,1,0,0:0:0:0:
225,251,120613,6,0,P|256:192|225:132,1,140,2|8,0:0|0:0,0:0:0:0:
38,192,121501,2,0,B|72:168|136:216|176:192,1,140,2|8,0:0|0:0,0:0:0:0:
272,192,122168,1,0,0:0:0:0:
368,192,122390,2,0,L|440:192,1,70,2|0,0:0|0:0,0:0:0:0:
496,272,122835,2,0,L|424:272,1,70,8|0,0:0|0:0,0:0:0:0:
368,352,123279,1,2,0:0:0:0:
272,352,123501,1,0,0:0:0:0:
272,352,123613,1,0,0:0:0:0:
272,352,123724,2,0,L|200:352,1,70,8|0,0:0|0:0,0:0:0:0:
40,304,124168,6,0,L|40:232,1,70,4|0,0:0|0:0,0:0:0:0:
40,152,124613,1,8,0:0:0:0:
184,64,125057,1,0,0:0:0:0:
184,64,125279,1,0,0:0:0:0:
184,232,125724,1,0,0:0:0:0:
184,232,125946,1,0,0:0:0:0:
256,352,126390,1,8,0:0:0:0:
328,232,126835,6,0,L|328:160,1,70,0|0,0:0|0:0,0:0:0:0:
392,112,127279,1,8,0:0:0:0:
392,112,127501,1,0,0:0:0:0:
456,160,127724,2,0,L|456:230,1,70,4|0,0:0|0:0,0:0:0:0:
456,312,128168,1,8,0:0:0:0:
296,360,128613,1,0,0:0:0:0:
296,360,128835,1,0,0:0:0:0:
128,360,129279,1,0,0:0:0:0:
128,360,129501,1,0,0:0:0:0:
56,320,129724,2,0,L|56:248,2,70,0|8|0,0:0|0:0|0:0,0:0:0:0:
160,128,130613,5,0,0:0:0:0:
160,48,130835,1,8,0:0:0:0:
160,128,131057,1,4,0:0:0:0:
256,256,131501,1,0,0:0:0:0:
256,336,131724,1,8,0:0:0:0:
256,256,131946,1,0,0:0:0:0:
352,128,132390,5,0,0:0:0:0:
352,48,132613,1,8,0:0:0:0:
352,128,132835,1,0,0:0:0:0:
408,192,133057,2,0,P|440:256|408:312,1,140,2|8,0:0|0:0,0:0:0:0:
248,344,133946,2,0,L|176:344,1,70,2|0,0:0|0:0,0:0:0:0:
128,272,134390,2,0,L|56:272,1,70,8|0,0:0|0:0,0:0:0:0:
24,192,134835,1,4,0:0:0:0:
256,192,134946,12,0,136613,0:0:0:0:
