osu file format v9

[General]
AudioFilename: koi.mp3
AudioLeadIn: 2000
PreviewTime: 57575
Countdown: 0
SampleSet: Soft
StackLeniency: 0.7
Mode: 0
LetterboxInBreaks: 0

[Editor]
DistanceSpacing: 0.8
BeatDivisor: 4
GridSize: 4

[Metadata]
Title:Renai Circulation (Short Ver.)
Artist:Kugimiya Rie
Creator:Nymph
Version:Normal
Source:
Tags:Nymph_ Bakemonogatari zero no tsukaima THE IDOLM@STER Minase Iori

[Difficulty]
HPDrainRate:1
CircleSize:4
OverallDifficulty:1
ApproachRate:3
SliderMultiplier:1.1
SliderTickRate:1

[Events]
//Background and Video events
0,0,"wallpaper_18491_1024x768.jpg"
Video,0,"koi.avi"
//Break Periods
2,9809,16169
//Storyboard Layer 0 (Background)
//Storyboard Layer 1 (Fail)
//Storyboard Layer 2 (Pass)
//Storyboard Layer 3 (Foreground)
//Storyboard Sound Samples
//Background Colour Transformations
3,100,163,162,255

[TimingPoints]
-391,500,4,2,1,21,1,0
1484,-100,4,2,1,29,0,0
25109,-100,4,2,1,38,0,0
41484,-100,4,2,1,45,0,0
57609,-100,4,2,1,58,0,1
73609,-100,4,2,1,50,0,0
88609,-100,4,2,1,50,0,1
88610,-100,4,2,1,35,0,0

[Colours]
Combo1 : 128,0,255
Combo2 : 181,255,255
Combo3 : 0,128,255
Combo4 : 255,128,255

[HitObjects]
212,192,609,1,0
300,192,1109,1,0
256,116,1609,6,0,B|308:96|364:116,1,110
428,180,2609,1,0
444,268,3109,1,0
400,344,3609,6,0,B|348:364|292:344,1,110
204,336,4609,1,0
124,300,5109,1,0
56,240,5609,6,0,B|36:188|56:132,1,110
140,160,6609,2,0,B|148:104|194:66,1,110
236,144,7609,2,0,B|271:100|329:90,1,110
408,128,8609,5,0
456,200,9109,1,8
408,272,9609,1,4
300,168,17609,6,0,B|356:148|408:168,1,110,2|0
408,256,18609,2,0,B|352:276|300:256,1,110
212,256,19609,6,0,B|156:276|104:256,1,110,2|0
104,168,20609,2,0,B|160:148|212:168,1,110
300,168,21609,6,0,B|360:168,2,55,2|0|0
320,252,22609,2,0,B|375:252,2,55,2|0|0
232,252,23609,2,0,B|177:252,2,55,2|0|0
176,320,24609,1,2
104,268,25109,1,0
120,180,25609,5,4
256,72,26609,1,8
392,180,27609,1,0
436,256,28109,5,8
396,336,28609,2,0,B|368:348|332:336,1,55
300,336,29109,1,8
256,256,29609,5,2
256,76,30609,1,2
256,256,31609,5,2
256,164,32109,1,8
256,76,32609,2,0,B|264:56|244:32|264:8,2,55,2|0|8
256,164,33609,5,2
168,316,34609,1,2
344,316,35609,5,2
256,316,36109,1,8
168,316,36609,2,0,B|108:316,2,55,2|0|8
168,228,37609,5,2
204,56,38609,1,2
380,52,39609,6,0,B|408:40|432:52,1,55,2|0
468,80,40109,2,0,B|492:98|493:125,1,55,8|0
494,170,40609,1,2
494,258,41109,1,8
432,320,41609,6,0,B|376:340|320:320,2,110,4|8|0
384,244,43109,2,0,B|440:224|496:244,2,110,8|0|8
296,244,44609,6,0,B|240:244,1,55,0|0
196,244,45109,2,0,B|140:244,1,55,8|0
96,244,45609,5,0
40,176,46109,1,8
92,104,46609,1,0
144,176,47109,1,8
144,264,47609,6,0,B|168:292|188:292,1,55
232,300,48109,2,0,B|288:300,1,55,8|0
332,292,48609,2,0,B|364:292|380:272,2,55,0|8|8
284,220,49609,5,4
232,292,50109,1,8
184,220,50609,1,0
136,292,51109,5,8
84,220,51609,1,0
36,148,52109,1,8
84,72,52609,5,0
172,72,53109,1,8
260,72,53609,2,0,B|316:72,2,55,0|0|8
216,148,54609,2,0,B|160:148,2,55,0|0|8
288,200,55609,6,0,B|344:200,2,55,0|0|8
244,200,56359,2,0,B|216:208|208:240,1,55
196,280,56859,2,0,B|181:305|198:333,1,55,0|8
112,320,57609,5,4
60,248,58109,1,8
112,176,58609,1,2
60,108,59109,1,8
108,36,59609,5,2
196,36,60109,1,8
240,36,60359,2,0,B|352:36,1,110
392,36,61109,1,8
392,124,61609,5,2
440,196,62109,1,8
392,268,62609,2,0,B|280:268,1,110,2|8
240,268,63359,1,0
196,268,63609,5,2
136,332,64109,1,8
76,268,64609,1,0
76,268,64859,1,8
76,268,65109,1,8
136,204,65609,5,4
76,140,66109,1,8
136,76,66609,1,2
196,140,67109,1,8
284,140,67609,5,2
372,140,68109,1,8
396,176,68359,2,0,B|420:228|396:284,1,110
372,320,69109,1,8
284,320,69609,5,2
196,320,70109,1,8
240,244,70609,1,2
152,244,71109,1,8
108,168,71609,5,2
196,168,72109,1,8
284,168,72609,1,8
444,96,73609,6,0,B|472:152|444:208,1,110,4|8
424,240,74359,1,0
424,240,74609,1,0
344,276,75109,1,8
256,292,75609,6,0,B|221:344|159:348,1,110,0|8
121,345,76359,1,0
121,345,76609,1,0
76,268,77109,1,8
56,180,77609,6,0,B|28:124|56:67,2,110,0|8|0
56,268,79109,1,8
116,332,79609,2,0,B|172:360|228:332,1,110,0|8
264,332,80359,1,0
308,332,80609,1,0
396,332,81109,1,8
448,264,81609,6,0,B|476:208|448:152,1,110,4|8
428,120,82359,1,0
428,120,82609,1,0
368,56,83109,1,8
284,76,83609,6,0,B|240:40|180:40,1,110,0|8
139,40,84359,1,0
139,40,84609,1,0
88,112,85109,1,8
60,196,85609,6,0,B|88:256|144:256,2,110,0|8|0
144,176,87109,2,0,B|172:116|228:116,2,110,8|0|0
144,220,88359,1,0
144,264,88609,1,0
