osu file format v9

[General]
AudioFilename: koi.mp3
AudioLeadIn: 2000
PreviewTime: 57575
Countdown: 0
SampleSet: Soft
StackLeniency: 0.7
Mode: 0
LetterboxInBreaks: 0

[Editor]
DistanceSpacing: 1
BeatDivisor: 4
GridSize: 4

[Metadata]
Title:Renai Circulation (Short Ver.)
Artist:Kugimiya Rie
Creator:Nymph
Version:Hard
Source:
Tags:Nymph_ Bakemonogatari zero no tsukaima THE IDOLM@STER Minase Iori

[Difficulty]
HPDrainRate:3
CircleSize:5
OverallDifficulty:4
ApproachRate:6
SliderMultiplier:1.2
SliderTickRate:1

[Events]
//Background and Video events
0,0,"wallpaper_18491_1024x768.jpg"
Video,0,"koi.avi"
//Break Periods
2,9809,16559
//Storyboard Layer 0 (Background)
//Storyboard Layer 1 (Fail)
//Storyboard Layer 2 (Pass)
//Storyboard Layer 3 (Foreground)
//Storyboard Sound Samples
//Background Colour Transformations
3,100,163,162,255

[TimingPoints]
-391,500,4,2,1,20,1,0
609,-200,4,2,1,20,0,0
1234,-100,4,2,1,40,0,0
41359,-100,4,2,1,45,0,0
57609,-100,4,2,1,58,0,1
73609,-100,4,2,1,50,0,0
88609,-100,4,2,1,50,0,1
88610,-100,4,2,1,35,0,0

[Colours]
Combo1 : 128,0,255
Combo2 : 181,255,255
Combo3 : 0,128,255
Combo4 : 255,128,255

[HitObjects]
228,104,609,2,0,B|256:88|284:104,1,60
256,192,1359,5,0
316,192,1609,2,0,B|436:192,1,120
452,252,2359,1,0
392,252,2609,2,0,B|272:252,1,120
272,312,3359,5,0
212,312,3609,2,0,B|92:312,1,120
76,252,4359,1,0
136,252,4609,2,0,B|256:252,1,120
256,192,5359,5,0
316,192,5609,2,0,B|436:192,1,120
496,192,6359,1,0
480,132,6609,2,0,B|360:132,1,120
300,132,7359,1,0
240,132,7609,5,0
120,132,8109,1,0
32,212,8609,1,0
76,252,8859,1,0
120,292,9109,1,8
240,292,9609,1,4
256,88,17609,6,0,B|376:88,1,120,2|0
436,88,18359,1,0
424,148,18609,2,0,B|304:148,1,120,2|0
244,148,19359,1,0
184,148,19609,6,0,B|64:148,1,120,2|0
48,208,20359,1,0
108,208,20609,2,0,B|228:208,1,120,2|0
288,208,21359,1,0
348,208,21609,5,2
468,208,22109,1,0
408,312,22609,1,2
288,312,23109,1,0
168,312,23609,6,0,B|48:312,1,120,2|0
36,252,24359,2,0,B|96:252,1,60,2|0
216,252,25109,1,0
256,140,25609,5,4
256,140,25734,1,0
256,140,25859,1,0
316,140,26109,1,8
436,140,26609,2,0,B|496:140,2,60,2|0|8
436,260,27609,6,0,B|376:260,1,60,2|0
376,320,28109,2,0,B|316:320,1,60,8|0
256,320,28609,1,2
196,320,28859,1,0
136,320,29109,1,8
136,200,29609,5,2
76,200,29859,2,0,B|48:200,2,30,0|0|8
196,200,30609,1,2
256,200,30859,2,0,B|284:200,2,30,0|0|8
196,96,31609,6,0,B|256:96,1,60,2|0
256,36,32109,2,0,B|320:36,1,60,8|0
376,36,32609,1,2
376,96,32859,1,0
376,96,32984,1,0
376,96,33109,1,8
420,208,33609,6,0,B|480:208,2,60,2|0|8
360,312,34609,2,0,B|420:312,2,60,2|0|8
240,312,35609,5,2
240,312,35859,1,0
180,312,36109,1,8
180,312,36359,1,0
120,312,36609,1,2
120,312,36859,2,0,B|88:312,2,30,0|0|8
120,192,37609,6,0,B|184:192,1,60,2|0
180,132,38109,2,0,B|240:132,1,60,8|0
240,192,38609,2,0,B|300:192,1,60,2|0
360,192,39109,1,8
360,312,39609,6,0,B|424:312,2,60,2|0|8
300,312,40359,1,0
240,312,40609,2,0,B|176:312,2,60,2|0|8
360,312,41609,6,0,B|360:248,1,60,4|0
360,192,42109,2,0,B|360:128,1,60,8|0
360,72,42609,1,0
152,72,43109,6,0,B|152:132,1,60,8|0
152,192,43608,2,0,B|152:252,1,60
152,312,44108,1,8
256,256,44609,5,0
256,256,44859,1,0
256,196,45109,1,8
256,196,45359,1,0
256,136,45609,5,0
196,136,45859,2,0,B|168:136,2,30,0|0|8
256,32,46609,1,0
316,32,46859,2,0,B|348:32,2,30,0|0|8
256,136,47609,6,0,B|196:136,1,60
256,136,48109,2,0,B|316:136,1,60,8|0
256,136,48609,2,0,B|256:76,2,60,0|8|8
256,256,49609,5,4
207,292,49859,1,0
226,351,50109,1,8
287,351,50359,1,0
306,292,50609,1,0
256,184,51109,5,8
305,148,51359,1,0
286,89,51609,1,0
225,89,51859,1,0
206,148,52109,1,8
256,256,52609,5,0
256,256,52859,1,0
256,316,53109,1,8
256,316,53359,1,0
316,316,53609,5,0
316,316,53859,2,0,B|346:316,2,30,0|0|8
196,316,54609,1,0
196,316,54859,2,0,B|168:316,2,30,0|0|8
256,212,55609,6,0,B|256:152,1,60
256,152,56109,2,0,B|256:84,1,60,8|0
256,32,56609,1,0
256,32,56859,1,8
256,32,57109,1,8
256,152,57609,5,4
196,256,58109,1,8
316,256,58609,1,2
256,152,59109,1,8
196,152,59359,1,0
136,152,59609,2,0,B|76:152,1,60,2|0
60,212,60109,1,8
120,212,60359,2,0,B|240:212,1,120
300,212,61109,1,8
376,304,61609,5,2
256,304,62109,1,8
136,304,62609,1,2
256,304,63109,1,8
316,304,63359,1,0
376,304,63609,2,0,B|436:304,1,60,2|0
452,244,64109,1,8
392,244,64359,2,0,B|272:244,1,120,0|8
212,244,65109,1,8
104,192,65609,5,4
44,88,66109,1,8
164,88,66609,1,2
284,88,67109,1,8
344,88,67359,1,0
404,88,67609,2,0,B|464:88,2,60,2|0|8
344,88,68359,2,0,B|224:88,1,120
164,88,69109,1,8
104,88,69359,1,0
44,88,69609,5,2
44,208,70109,1,8
104,312,70609,1,2
216,356,71109,1,8
328,312,71609,1,2
448,312,72109,2,0,B|508:312,2,60,0|0|0
328,312,73109,1,8
268,312,73359,1,0
208,312,73609,6,0,B|88:312,1,120,4|8
72,252,74359,1,0
132,252,74609,2,0,B|252:252,1,120,0|8
252,192,75359,1,0
312,192,75609,6,0,B|432:192,1,120,0|8
448,132,76359,1,0
388,132,76609,2,0,B|268:132,1,120,0|8
268,72,77359,1,0
208,72,77609,6,0,B|88:72,1,120,0|8
72,132,78359,1,0
132,132,78609,2,0,B|252:132,1,120,0|8
312,132,79359,1,0
372,132,79609,5,0
456,216,80109,1,8
372,304,80609,1,0
312,304,80859,1,8
252,304,81109,1,8
160,224,81609,6,0,B|40:224,1,120,4|8
24,164,82359,1,0
84,164,82609,2,0,B|204:164,1,120,0|8
204,104,83359,1,0
264,104,83609,6,0,B|384:104,1,120,0|8
444,104,84359,1,0
432,164,84609,2,0,B|312:164,1,120,0|8
252,164,85359,1,0
192,164,85609,6,0,B|72:164,1,120,0|8
56,224,86359,1,0
116,224,86609,2,0,B|236:224,1,120,0|8
296,224,87359,1,0
356,224,87609,5,0
328,340,88109,1,0
328,340,88359,1,0
328,340,88609,1,0
