osu file format v9

[General]
AudioFilename: Pre-Parade- Kugimiya Rie.mp3
AudioLeadIn: 2000
PreviewTime: 53777
Countdown: 0
SampleSet: Normal
StackLeniency: 0.7
Mode: 0
LetterboxInBreaks: 0

[Editor]
DistanceSpacing: 1
BeatDivisor: 4
GridSize: 8

[Metadata]
Title:Pre-Parade (TV Size)
Artist:Kugimiya Rie
Creator:KuraiPettan
Version:Hard
Source:Toradora!
Tags:Horie Yui Kitamura Eri Toradora Kuroneko-sHerald Kurosanyan

[Difficulty]
HPDrainRate:7
CircleSize:4
OverallDifficulty:6
ApproachRate:8
SliderMultiplier:1.8
SliderTickRate:1

[Events]
//Background and Video events
Video,0,"Video.avi"
0,0,"BG Hard.jpg"
//Break Periods
//Storyboard Layer 0 (Background)
//Storyboard Layer 1 (Fail)
//Storyboard Layer 2 (Pass)
//Storyboard Layer 3 (Foreground)
//Storyboard Sound Samples
//Background Colour Transformations
3,100,255,199,162

[TimingPoints]
-35,375,4,1,1,60,1,0
1932,-100,4,1,1,64,0,0
12619,-100,4,1,1,38,0,0
12807,-100,4,1,1,41,0,0
12994,-100,4,1,1,45,0,0
13182,-100,4,1,1,50,0,0
13369,-100,4,1,1,55,0,0
13557,-100,4,1,1,64,0,0
24479,-100,4,1,1,45,0,0
24666,-100,4,1,1,36,0,0
24994,-100,4,1,1,41,0,0
25182,-100,4,1,1,48,0,0
25369,-100,4,1,1,59,0,0
25557,-100,4,1,1,64,0,0
30807,-100,4,1,1,48,0,0
30947,-100,4,1,1,53,0,0
31041,-100,4,1,1,58,0,0
31135,-100,4,1,1,61,0,0
31229,-100,4,1,1,64,0,0
31744,-100,4,1,1,46,0,0
31932,-100,4,1,1,64,0,0
34744,-100,4,1,1,46,0,0
34932,-100,4,1,1,64,0,0
46369,-100,4,1,0,64,0,0
47307,-100,4,1,1,64,0,0
53776,-100,4,1,1,64,0,1
74026,-100,4,1,1,64,0,0
79557,-100,4,1,0,64,0,0
80307,-100,4,1,1,64,0,0
85557,-100,4,1,0,64,0,0
86307,-100,4,1,1,64,0,0

[Colours]
Combo1 : 255,150,0
Combo2 : 219,26,171
Combo3 : 151,218,27
Combo4 : 47,141,198

[HitObjects]
256,40,1465,21,2
256,48,1558,1,2
256,56,1652,1,2
256,64,1746,1,2
256,72,1840,1,2
184,136,2027,5,2
112,80,2214,2,0,B|77:122|82:192|141:241|200:216,1,180
184,136,2777,2,0,B|8:208,2,180,2|0|2
176,224,3714,2,0,B|0:296,2,180,0|4|0
352,184,4840,5,0
424,240,5027,1,0
392,328,5215,1,0
320,272,5402,1,2
320,272,5495,1,0
320,272,5589,1,2
256,336,5777,1,2
176,296,5964,2,0,B|136:272|144:208,1,90
232,224,6339,2,0,B|152:280|48:296,1,180,2|0
0,232,6902,5,2
0,232,6996,1,2
0,232,7090,1,6
64,168,7277,1,0
24,88,7464,2,0,B|88:64|144:96|160:152|144:200,1,180,0|2
488,88,8214,2,0,B|424:64|368:96|352:152|368:200,1,180,2|0
456,176,8777,2,0,B|352:16,2,180,2|0|2
376,208,9714,2,0,B|480:368,2,180,0|4|0
328,128,10652,5,0
288,208,10839,2,0,B|296:272|352:296,2,90,2|0|2
328,128,11402,2,0,B|273:99|209:122|181:181|208:240,1,180
112,208,11964,2,0,B|122:265|179:290,1,90
248,280,12340,1,0
248,280,12433,1,0
248,280,12527,5,2
336,256,12715,1,4
424,232,12902,1,4
448,144,13089,1,4
360,168,13277,1,4
272,192,13464,1,4
112,112,13652,6,0,B|95:61|134:21,1,90
192,88,14027,1,0
192,88,14121,1,0
192,88,14215,1,2
168,176,14402,2,0,B|184:226|145:266,1,90
64,240,14777,2,0,B|47:290|86:330,1,90
256,352,15152,5,0
256,352,15245,1,0
256,352,15339,1,2
296,272,15527,1,0
384,304,15714,2,0,B|400:248|360:200,1,90
304,160,16089,1,0
392,128,16277,1,0
320,72,16464,1,0
176,184,16652,5,0
176,184,16745,1,0
176,184,16839,2,0,B|205:220|183:280,2,90,2|0|0
106,235,17402,1,0
96,144,17589,1,0
176,96,17777,1,0
256,136,17964,1,0
256,312,18152,5,0
256,312,18245,1,0
256,312,18339,1,2
336,272,18527,1,0
256,224,18714,1,0
432,184,18902,1,0
256,136,19089,1,0
80,104,19277,5,0
80,104,19370,1,0
80,104,19464,1,2
32,176,19652,2,0,B|0:224|16:288,2,90
96,240,20214,2,0,B|107:296|163:330,1,90
184,232,20589,1,0
232,312,20777,1,2
320,312,20964,1,0
320,128,21152,5,0
320,128,21245,1,0
320,128,21339,1,2
256,64,21527,1,0
192,128,21714,1,0
256,192,21902,1,0
320,256,22089,1,0
256,320,22277,1,2
192,256,22464,1,0
376,152,22652,5,0
376,152,22746,1,0
376,152,22840,1,2
336,72,23027,1,0
256,32,23214,1,0
176,72,23402,1,0
136,152,23589,1,0
176,232,23777,1,2
256,152,23964,5,2
264,168,24058,1,2
272,184,24152,1,2
280,200,24245,1,2
288,216,24339,1,2
424,232,24527,5,2
416,240,24620,1,2
408,248,24714,1,6
336,304,24902,1,4
256,344,25089,1,4
176,304,25277,1,4
104,248,25464,1,6
256,152,25652,6,0,B|208:152|160:208,1,90
256,152,26027,2,0,B|304:152|352:208,1,90,2|0
256,240,26402,1,0
104,144,26777,5,0
256,48,27152,1,0
256,48,27339,1,2
408,144,27714,1,0
384,320,28089,5,2
336,248,28277,1,0
312,160,28464,1,0
256,232,28652,1,0
256,232,28839,1,0
200,160,29027,1,2
176,248,29214,1,0
128,320,29402,1,0
112,144,29777,5,2
176,80,29964,1,0
256,40,30152,1,0
336,80,30339,1,0
400,144,30527,1,0
256,288,30902,5,2
256,280,30995,1,2
256,272,31089,1,2
256,264,31183,1,2
256,256,31277,1,2
176,296,31464,6,0,B|150:247|169:180|237:144|290:181,2,180,0|4|2
256,256,32402,2,0,B|88:176,2,180,0|2|0
336,216,33339,2,0,B|361:264|342:331|274:367|221:330,1,180,2|0
168,344,33902,5,0
168,344,33995,1,0
168,344,34089,1,2
120,264,34277,1,0
32,248,34464,6,0,B|48:192|112:176,1,90,0|0
112,96,34839,2,0,B|168:112|184:176,1,90,4|0
256,112,35214,2,0,B|256:216,2,90,2|0|2
335,153,35777,6,0,B|353:112|400:96,1,90
424,184,36152,1,2
352,240,36339,1,2
424,296,36527,1,0
256,352,36902,5,0
200,280,37089,1,2
200,280,37183,1,2
200,280,37277,1,2
256,112,37464,5,2
168,112,37652,1,0
80,112,37839,1,0
32,192,38027,1,2
120,192,38215,1,2
208,192,38402,1,0
360,288,38777,5,0
360,288,38870,1,0
360,288,38964,2,0,B|408:272|424:216,1,90
336,200,39339,1,0
256,40,39714,1,0
168,64,39902,1,2
136,144,40089,1,2
48,168,40277,1,0
256,336,40652,6,0,B|312:352|352:312,1,90
288,248,41027,1,8
256,48,41402,2,0,B|312:32|352:72,1,90
288,136,41777,1,8
360,192,41964,5,0
360,192,42058,1,0
360,192,42152,2,0,B|288:248,1,90,8|0
360,192,42527,2,0,B|280:128,1,90
216,192,42902,1,8
128,192,43089,1,0
40,192,43277,1,0
80,112,43464,1,2
152,56,43652,6,0,B|160:112|216:128,1,90
256,48,44027,1,0
308,123,44214,2,0,B|352:107|361:54,1,90,0|2
432,112,44589,1,2
464,200,44777,5,0
408,264,44965,1,0
320,264,45152,1,0
320,264,45245,1,0
320,264,45339,1,2
256,328,45527,1,0
132,197,45902,5,0
214,161,46089,2,0,B|195:116|145:111,1,90
132,197,46464,2,4,B|270:50,2,180
176,280,47402,1,2
256,320,47589,1,2
336,280,47777,1,0
336,104,48152,5,2
256,64,48339,1,2
176,104,48527,1,0
256,192,48620,12,0,50777
256,368,50964,5,2
256,280,51152,1,2
384,64,51339,5,2
307,108,51527,1,2
128,64,51714,5,2
205,108,51902,1,2
256,192,52089,5,2
256,192,52183,12,2,53589
256,192,53777,5,0
432,192,54152,5,0
408,280,54339,1,0
344,344,54527,1,0
256,360,54714,1,2
168,344,54902,1,0
104,280,55089,1,4
80,192,55277,1,0
104,104,55464,1,2
168,40,55652,1,0
256,24,55839,1,0
344,40,56027,1,0
440,192,56402,6,0,B|352:192,1,90,0|4
256,192,56777,1,2
256,192,57152,5,0
256,280,57339,2,0,B|208:280|160:320,2,90
344,256,57902,1,0
408,192,58089,1,4
344,128,58277,1,0
256,104,58464,2,0,B|208:104|160:64,2,90
256,192,59027,1,0
101,284,59402,5,0
104,192,59589,1,4
104,104,59777,1,0
200,256,60152,5,0
208,264,60245,1,0
216,272,60339,1,2
264,192,60527,5,0
272,192,60620,1,0
280,192,60714,1,2
200,128,60902,5,0
208,120,60995,1,0
216,112,61089,1,2
424,192,61370,5,0
424,192,61464,1,2
400,104,61652,2,0,B|344:128|336:192,1,90
360,256,62027,2,0,B|320:264|272:256|248:208|240:168|272:136,1,180
304,72,62589,1,4
216,72,62777,1,0
80,192,63152,5,0
168,192,63339,1,2
256,192,63527,1,2
344,192,63714,1,0
476,320,64089,5,4
476,320,64183,1,0
476,320,64277,2,0,B|280:320,1,180
212,320,64839,1,2
124,320,65027,1,0
36,320,65214,1,0
80,144,65589,5,4
80,144,65683,1,0
80,144,65777,1,0
144,88,65964,1,0
184,168,66152,1,0
248,112,66339,37,0
256,104,66433,1,0
264,96,66527,1,2
344,128,66714,37,0
352,120,66808,1,0
360,112,66902,1,2
448,88,67089,21,4
416,216,67370,5,2
416,216,67464,2,0,B|408:264|360:296,1,90
328,208,67839,1,0
256,264,68027,1,0
88,192,68402,5,0
88,192,68495,1,0
88,192,68589,1,4
112,104,68777,2,0,B|128:56|176:24|232:24|280:56,1,180
328,104,69339,1,2
360,192,69527,1,0
432,248,69714,1,0
424,336,69902,5,0
336,304,70089,1,4
336,304,70183,1,0
256,352,70370,1,0
256,352,70464,1,0
176,304,70652,1,0
176,304,70839,1,2
88,336,71027,1,0
256,40,71589,5,4
256,40,71777,1,0
432,72,72152,5,0
464,104,72245,1,0
488,144,72339,1,4
496,192,72433,1,0
488,240,72527,1,0
464,280,72620,1,0
432,312,72714,1,0
368,248,72902,5,0
336,280,72995,1,0
336,328,73089,1,4
216,264,73370,6,0,B|256:296,1,45,0|2
168,328,73652,2,0,B|136:360|80:360,2,90,0|4|0
256,168,74589,5,4
256,168,74777,1,0
120,112,75152,6,0,B|88:160|112:208,1,90,0|2
168,264,75527,1,0
256,296,75714,1,2
344,264,75902,1,0
404,198,76089,2,0,B|418:153|391:112,1,90,4|0
256,48,76652,5,0
216,128,76839,1,2
128,112,77027,1,0
128,112,77214,1,2
104,200,77402,1,0
16,184,77589,1,4
47,268,77777,6,0,B|119:316|191:268|191:196,1,180
216,128,78339,1,2
280,192,78527,1,0
320,112,78714,2,0,B|360:144|368:192,1,90,2|0
344,272,79089,1,4
432,256,79277,1,0
320,112,79652,5,4
144,80,79839,1,4
192,272,80027,1,4
368,304,80214,1,4
256,192,80589,5,4
256,192,80777,1,0
80,192,81152,6,0,B|112:232|104:288,1,90,0|2
184,328,81527,1,0
256,280,81714,1,2
328,328,81902,1,0
406,276,82089,2,0,B|400:232|432:192,1,90,4|0
344,40,82652,5,0
302,119,82839,1,2
256,40,83027,1,0
214,119,83214,1,2
302,119,83402,1,0
256,40,83589,1,4
168,40,83777,1,0
72,192,84152,5,0
96,280,84339,1,2
168,328,84527,1,0
256,344,84714,1,2
344,328,84902,1,0
416,280,85089,1,4
440,192,85277,1,0
96,280,85652,5,4
344,328,85839,1,4
416,104,86027,1,4
168,56,86214,1,4
256,192,86589,21,4
