osu file format v9

[General]
AudioFilename: Kugimiya Rie - Kiss Shite Agenai (TV Size).mp3
AudioLeadIn: 1000
PreviewTime: 82870
Countdown: 0
SampleSet: Soft
StackLeniency: 0.4
Mode: 0
LetterboxInBreaks: 1

[Editor]
Bookmarks: 1138,9319,21592,32501,43410,55683,66592,77501
DistanceSpacing: 1
BeatDivisor: 4
GridSize: 4

[Metadata]
Title:Kiss Shite Agenai (TV Size)
Artist:Kugimiya Rie
Creator:ykcarrot
Version:Normal
Source:Zero no Tsukaima F
Tags:ZnT Final Louise

[Difficulty]
HPDrainRate:4
CircleSize:4
OverallDifficulty:4
ApproachRate:5
SliderMultiplier:1.1
SliderTickRate:2

[Events]
//Background and Video events
Video,600,"ED.avi"
0,0,"BG.jpg"
//Break Periods
//Storyboard Layer 0 (Background)
//Storyboard Layer 1 (Fail)
//Storyboard Layer 2 (Pass)
//Storyboard Layer 3 (Foreground)
//Storyboard Sound Samples
//Background Colour Transformations
3,100,163,162,255

[TimingPoints]
1138,340.909090909091,4,2,1,60,1,0
7103,-100,4,2,1,50,0,0
7274,-100,4,2,1,60,0,0
8126,-100,4,2,1,50,0,0
8297,-100,4,2,1,60,0,0
9319,-100,4,2,1,70,0,0
30797,-100,4,1,1,50,0,0
32331,-100,4,2,1,70,0,0
38893,-100,4,2,2,70,0,0
39064,-100,4,2,1,70,0,0
41365,-100,4,1,1,50,0,0
43069,-100,4,2,1,50,0,0
43240,-100,4,2,1,70,0,0
55683,-100,4,2,1,70,0,1
62757,-100,4,2,2,70,0,1
62927,-100,4,2,1,70,0,1
65058,-100,4,1,1,50,0,1
66251,-100,4,2,1,70,0,1
73666,-100,4,2,2,70,0,1
73836,-100,4,2,1,70,0,1
74603,-100,4,2,1,60,0,1
76308,-100,4,2,1,70,0,1
76990,-100,4,2,1,50,0,1
77501,-100,4,2,1,70,0,0

[Colours]
Combo1 : 255,255,255
Combo2 : 248,7,85
Combo3 : 0,0,123

[HitObjects]
464,300,1138,2,0,B|360:244|360:356|256:300,1,220,8|0
168,232,2160,1,0
56,232,2501,2,0,B|30:285|77:349|135:342,2,165,0|0|8
112,136,3865,6,0,B|216:72|320:136,1,220,8|0
416,192,4888,1,0
352,280,5228,2,0,B|368:336|464:336|480:280,2,165,8|8|8
416,192,6592,6,0,B|396:144|340:132|340:132|340:68,1,165,4|4
172,68,7615,2,0,B|172:132|172:132|116:144|96:192,1,165,4|4
200,320,8638,1,4
312,320,8978,1,4
412,272,9319,6,0,B|472:256|472:192,1,110,4|8
472,80,10001,1,0
472,80,10172,1,0
376,136,10513,2,0,B|296:172|216:136,1,165,0|8
120,80,11365,2,0,B|80:124,1,55,0|2
12,204,11876,6,0,B|28:264|84:264|84:264|148:264,1,165,2|8
256,264,12728,1,0
256,264,12899,1,0
364,264,13240,2,0,B|428:264|428:264|484:264|500:204,1,165,0|8
428,120,14092,2,0,B|388:76,2,55,0|2|8
364,212,14774,6,0,B|364:276|312:304,1,110,4|8
212,348,15456,2,0,B|152:348,1,55
48,348,15967,2,0,B|-8:332|-8:236|48:220,1,165,0|8
160,220,16819,1,0
160,220,16990,1,2
252,280,17331,6,0,B|328:336|404:280,1,165,2|8
496,220,18183,2,0,B|496:156,1,55
404,104,18694,2,0,B|328:48|252:104,1,165,4|8
160,164,19547,2,0,B|160:224,2,55,0|0|8
160,52,20228,5,2
56,88,20569,1,2
20,192,20910,1,2
56,296,21251,1,10
160,332,21592,6,0,B|212:364|264:332,1,110,4|8
364,288,22274,2,0,B|308:264|312:200,1,110,0|8
312,88,22956,1,0
200,88,23297,1,8
200,200,23638,2,0,B|204:264|148:288,2,110,0|8|0
88,200,24660,5,8
36,104,25001,2,0,B|88:72|140:104,1,110,2|8
244,140,25683,2,0,B|296:172|348:140,2,110,2|8|2
296,44,26706,1,8
404,52,27047,6,0,B|444:72|448:116|448:116|468:136,1,110,0|8
468,248,27728,2,0,B|448:268|448:268|444:312|404:332,1,110,0|8
312,268,28410,1,0
200,268,28751,1,8
108,332,29092,2,0,B|68:312|64:268|64:268|44:248,1,110,0|8
44,136,29773,2,0,B|64:116|64:116|68:72|108:52,2,110,0|10|2
200,192,30967,5,2
256,288,31308,1,2
312,192,31649,1,2
312,192,31819,1,2
92,192,32501,6,0,B|40:224|40:284,1,110,4|8
152,284,33183,2,0,B|180:336|244:336,1,110,0|8
244,224,33865,1,0
184,132,34206,1,8
92,192,34547,2,0,B|40:224|40:284,2,110,0|8|0
152,284,35569,5,8
244,224,35910,2,0,B|296:192|348:224,1,110,2|8
440,284,36592,2,0,B|472:232|440:180,2,110,2|8|2
348,344,37615,1,8
256,284,37956,6,0,B|256:160,1,110,4|8
184,92,38638,2,0,B|216:48|296:48|328:92,2,165,0|0|8
156,200,40001,1,0
256,248,40342,1,8
356,200,40683,2,0,B|416:200|448:252,1,110,0|8
308,344,41535,6,0,B|256:376|204:344,2,110,2|2|2
256,248,42558,1,2
256,248,42728,2,0,B|256:128,1,110,2|8
256,28,43410,1,4
160,80,43751,6,0,B|108:48|56:80,2,110,0|0|8
160,192,44774,2,0,B|108:224|56:192,2,110,0|0|0
256,136,45797,1,8
352,80,46138,6,0,B|404:48|456:80,1,110,4|8
456,192,46819,2,0,B|404:224|352:192,1,110,0|8
256,136,47501,2,0,B|256:320,2,165,2|2|8
256,24,48865,1,0
160,80,49206,6,0,B|108:80|112:120|60:120,2,110,0|0|8
256,136,50228,1,0
352,80,50569,2,0,B|404:80|400:120|452:120,2,110,0|0|8
352,192,51592,6,0,B|352:224|352:224|352:264|312:288,1,110,4|8
200,288,52274,2,0,B|160:264|160:224|160:224|160:192,1,110,0|8
256,192,52785,12,4,54319
256,304,55001,5,2
256,192,55342,1,2
256,80,55683,6,0,B|316:80|348:132,1,110,4|8
384,236,56365,1,0
456,152,56706,1,8
492,256,57047,2,0,B|492:320|432:340,1,110,2|8
324,340,57728,2,0,B|272:340|272:304|220:304,1,110,2|8
112,304,58410,6,0,B|52:304|28:244,1,110,2|8
124,192,59092,1,0
32,132,59433,1,8
128,80,59774,2,0,B|192:80|216:132,2,110,2|10|0
124,192,60797,1,8
216,252,61138,6,0,B|240:284|280:284|280:284|328:284,1,110,2|8
412,336,61819,2,0,B|444:284|412:232,1,110,0|8
316,180,62501,2,0,B|340:124|404:104|456:132,2,165,2|2|8
256,272,63865,6,0,B|204:304|152:272,1,110,2|8
56,220,64547,1,2
152,168,64888,1,8
56,112,65228,5,2
152,60,65569,1,2
152,60,65740,1,2
248,112,66081,1,2
248,224,66422,6,0,B|248:256|248:256|248:296|272:320|312:320|312:320|344:320,1,165,4|8
452,320,67274,1,0
504,224,67615,1,8
452,128,67956,2,0,B|428:96|392:96|392:96|352:96,1,110,2|8
240,96,68638,2,0,B|200:96|200:96|164:96|140:128,1,110,2|8
80,220,69319,6,0,B|96:280|160:280,1,110,2|8
256,224,70001,1,0
256,336,70342,1,8
352,280,70683,2,0,B|416:280|432:220,2,110,2|10|0
256,224,71706,1,8
200,128,72047,6,0,B|148:96|96:128,1,110,2|8
44,224,72728,2,0,B|96:256|148:224,1,110,0|8
256,224,73410,2,0,B|288:144|224:144|256:64,2,165,2|2|8
200,320,74774,5,6
116,248,75115,1,6
116,136,75456,1,6
200,64,75797,1,6
312,64,76138,5,6
396,136,76479,1,8
396,248,76820,1,0
312,320,77161,1,8
200,320,77501,6,0,B|144:320|112:264,1,110,4|8
64,164,78183,1,0
64,164,78354,1,0
64,52,78695,2,0,B|116:52|148:96|148:96|216:96,1,165,0|8
324,96,79547,2,0,B|368:140,1,55,0|2
440,212,80058,6,0,B|392:264|392:264|392:320|352:344,1,165,2|8
256,288,80910,1,0
256,288,81081,1,0
160,344,81422,2,0,B|120:320|120:264|120:264|72:212,1,165,0|8
148,136,82274,2,0,B|192:92,2,55,0|2|8
208,228,82956,6,0,B|228:256|284:256|304:228,1,110,4|8
364,136,83638,2,0,B|324:96,1,55
248,20,84149,2,0,B|160:20|100:80,1,165,0|8
20,156,85001,1,0
20,156,85172,1,2
20,268,85513,6,0,B|72:268|100:228|100:228|172:228,1,165,2|8
284,228,86365,2,0,B|332:276,1,55
432,268,86876,2,0,B|460:248|460:192|432:172,1,110,4|8
348,96,87558,1,8
256,156,87899,1,8
164,96,88240,1,12
