osu file format v9

[General]
AudioFilename: Kugimiya Rie - Kiss Shite Agenai (TV Size).mp3
AudioLeadIn: 1000
PreviewTime: 82870
Countdown: 0
SampleSet: Soft
StackLeniency: 0.4
Mode: 0
LetterboxInBreaks: 1

[Editor]
Bookmarks: 1138,9319,21592,32501,43410,55683,66592,77501
DistanceSpacing: 1
BeatDivisor: 4
GridSize: 4

[Metadata]
Title:Kiss Shite Agenai (TV Size)
Artist:Kugimiya Rie
Creator:ykcarrot
Version:Insane
Source:Zero no Tsukaima F
Tags:ZnT Final Louise

[Difficulty]
HPDrainRate:8
CircleSize:4
OverallDifficulty:8
ApproachRate:8
SliderMultiplier:2
SliderTickRate:2

[Events]
//Background and Video events
Video,600,"ED.avi"
0,0,"BG.jpg"
//Break Periods
//Storyboard Layer 0 (Background)
//Storyboard Layer 1 (Fail)
//Storyboard Layer 2 (Pass)
//Storyboard Layer 3 (Foreground)
//Storyboard Sound Samples
//Background Colour Transformations
3,100,163,162,255

[TimingPoints]
1138,340.909090909091,4,2,1,60,1,0
1138,-133.333333333333,4,2,1,60,0,0
6422,-100,4,2,1,60,0,0
7018,-100,4,2,1,50,0,0
7189,-100,4,2,1,60,0,0
8126,-100,4,2,1,50,0,0
8211,-100,4,2,1,60,0,0
9319,-100,4,2,1,70,0,0
30882,-100,4,1,1,50,0,0
31905,-100,4,1,1,40,0,0
32245,-100,4,2,1,70,0,0
41450,-100,4,1,1,50,0,0
42814,-100,4,2,1,70,0,0
42984,-100,4,2,1,50,0,0
43240,-100,4,2,1,70,0,0
43751,-133.333333333333,4,2,1,70,0,0
46138,-100,4,2,1,70,0,0
49206,-133.333333333333,4,2,1,70,0,0
51592,-100,4,2,1,70,0,0
55683,-100,4,2,1,70,0,1
65143,-100,4,1,1,50,0,1
66251,-100,4,2,1,70,0,1
74603,-100,4,2,1,60,0,1
76308,-100,4,2,1,70,0,1
76990,-100,4,2,1,50,0,1
77501,-100,4,2,1,70,0,0

[Colours]
Combo1 : 255,255,255
Combo2 : 248,7,85
Combo3 : 0,0,123

[HitObjects]
180,356,1138,1,8
332,356,1478,1,0
256,224,1819,1,0
216,288,1990,1,0
296,288,2160,1,0
408,96,2501,6,0,B|328:96,1,74.9999977648259
292,32,2842,2,0,B|256:12|220:32,1,74.9999977648259
180,96,3183,2,0,B|100:96,2,74.9999977648259,0|0|8
256,96,3694,1,0
256,172,3865,6,0,B|256:260,2,74.9999977648259,8|0|0
256,96,4376,1,0
256,96,4461,1,0
256,96,4547,2,0,B|256:4,2,74.9999977648259
296,240,5228,6,0,B|332:260|332:300,2,74.9999977648259,8|0|0
216,240,5740,2,0,B|180:260|180:300,2,74.9999977648259,8|0|0
256,304,6251,1,8
256,380,6422,5,8
256,380,6507,1,8
256,380,6592,1,4
344,332,6763,1,0
432,284,6933,1,8
256,304,7103,5,4
168,256,7274,1,0
80,208,7444,1,8
256,228,7615,5,4
344,180,7786,1,0
432,132,7956,1,8
432,132,8041,1,8
432,132,8126,1,4
344,84,8297,5,8
256,36,8467,1,8
224,48,8552,1,8
204,80,8638,1,12
204,116,8723,1,8
216,148,8808,1,8
204,180,8893,1,8
172,196,8978,1,12
136,192,9064,1,8
108,172,9149,1,8
72,172,9234,1,8
40,184,9319,6,0,B|-24:204|-24:324|40:344,2,200,4|8|0
100,264,10172,1,0
160,344,10342,1,8
260,344,10513,2,0,B|368:316|368:196,1,200
368,96,11024,1,8
280,144,11194,1,0
368,196,11365,2,0,B|424:196|456:156,2,100,0|2|8
192,96,11876,6,0,B|100:28|8:96,1,200,2|0
140,168,12388,2,0,B|232:236|324:168,1,200,8|0
388,92,12899,1,0
452,168,13069,1,8
452,268,13240,2,0,B|432:336|360:336|360:336|280:336,1,200,0|2
184,336,13751,1,8
56,200,13922,2,0,B|112:200|136:248,1,100,2|0
284,168,14263,2,0,B|284:224|236:248,2,100,2|8|2
140,28,14774,6,0,B|64:28|92:168|20:168,2,200,4|8|0
204,108,15626,1,0
308,108,15797,1,8
372,28,15967,2,0,B|448:28|420:168|492:168,1,200
492,268,16478,1,8
404,216,16649,1,0
492,168,16819,2,0,B|520:144|520:104|492:80,2,100,0|2|8
312,264,17331,6,0,B|220:332|128:264,1,200,2|0
0,184,17842,2,0,B|92:116|184:184,1,200,8|0
264,244,18353,1,0
344,184,18524,1,8
452,352,18694,6,0,B|523:332|523:220|451:200,1,200,4|0
384,276,19206,1,8
296,332,19376,1,0
188,356,19547,1,0
76,336,19717,1,0
4,240,19887,1,8
4,116,20058,1,0
80,12,20228,5,2
116,28,20569,1,2
152,44,20910,1,2
188,60,21251,1,10
284,96,21422,5,0
284,96,21507,1,0
284,96,21592,2,0,B|284:152|228:172,1,100,4|0
124,176,21933,2,0,B|100:224|124:272,1,100,8|0
204,336,22274,1,0
308,336,22444,1,0
204,336,22615,1,8
309,336,22785,1,0
388,272,22956,6,0,B|412:224|388:176,1,100,0|0
252,39,23297,2,0,B|227:87|252:135,1,100,8|0
436,88,23638,2,0,B|387:63|339:88,1,100,0|0
204,224,23978,2,0,B|252:248|300:224,2,100,8|0|0
156,136,24490,5,2
56,136,24660,1,8
8,224,24831,1,0
56,312,25001,1,2
156,312,25172,1,0
204,224,25342,1,8
308,224,25512,1,0
356,312,25683,6,0,B|412:312|432:256,2,100,2|0|8
256,312,26194,1,2
256,312,26280,1,0
256,312,26365,1,0
156,312,26535,2,0,B|100:312|80:256,1,100,2|8
128,168,26876,6,0,B|80:140|32:168,2,100
208,228,27388,2,0,B|256:256|304:228,1,100,8|0
256,140,27728,1,0
256,40,27899,1,0
256,140,28069,1,8
256,40,28240,1,0
340,92,28410,6,0,B|388:92|372:140|424:140,1,100
172,92,28751,2,0,B|124:92|140:140|88:140,1,100,8|0
156,240,29092,1,0
256,304,29262,1,0
356,240,29433,1,8
304,132,29603,2,0,B|256:108|208:132,1,100
156,240,29944,5,2
208,352,30115,2,0,B|256:376|304:352,1,100,10|0
356,240,30456,1,2
256,176,30626,1,2
156,240,30797,1,10
12,192,30967,5,2
256,16,31308,1,2
500,192,31649,1,2
500,192,31819,1,2
400,192,31990,1,0
400,192,32075,1,0
400,192,32160,1,0
304,224,32331,6,0,B|256:248|208:224,2,100,0|4|0
256,136,32842,2,0,B|256:28,1,100,8|0
168,88,33183,1,0
256,136,33353,1,0
344,88,33524,1,8
256,36,33694,1,0
168,88,33865,6,0,B|148:108|148:108|104:108|104:108|84:128,1,100
116,324,34206,2,0,B|136:304|136:304|180:304|180:304|200:284,1,100,8|0
396,324,34547,2,0,B|376:304|376:304|332:304|332:304|312:284,1,100
344,88,34888,2,0,B|364:108|364:108|408:108|408:108|428:128,2,100,8|0|0
256,36,35399,5,2
256,136,35569,1,8
168,184,35740,1,0
168,84,35910,1,2
80,136,36081,1,0
80,236,36251,1,8
168,284,36422,1,0
256,236,36592,6,0,B|256:340,2,100,2|0|8
256,136,37103,1,2
256,136,37189,1,0
256,136,37274,1,0
256,36,37444,1,2
344,84,37615,1,8
340,184,37785,1,0
256,236,37956,6,0,B|164:304|72:236,1,200,4|8
72,136,38467,2,0,B|72:84|116:52,1,100
256,136,38808,2,0,B|256:84|212:52,1,100,0|8
164,140,39149,2,0,B|164:224|164:224|164:288|220:320,1,200
312,356,39660,2,0,B|340:308|396:308,1,100,8|0
496,308,40001,6,0,B|496:253|444:228,1,100
496,76,40342,2,0,B|496:130|444:156,1,100,8|0
352,192,40683,2,0,B|256:240|256:144|160:192,1,200,0|8
76,240,41194,2,0,B|44:192|76:144,1,100
124,60,41535,5,2
208,116,41706,1,2
256,28,41876,1,2
512,192,42217,1,2
256,356,42558,1,2
256,356,42728,2,0,B|152:356,2,100,2|2|8
256,356,43410,1,4
512,192,43751,6,0,B|512:152|484:124,1,74.9999977648259
432,180,44092,2,0,B|404:208|364:208,1,74.9999977648259
372,132,44433,2,0,B|352:100|308:100,1,74.9999977648259,8|0
292,172,44774,2,0,B|256:192|220:172,1,74.9999977648259
204,100,45115,2,0,B|160:100|140:132,1,74.9999977648259,0|0
148,208,45456,2,0,B|108:208|80:180,1,74.9999977648259
28,124,45797,2,0,B|0:152|0:192,1,74.9999977648259,8|0
172,296,46138,6,0,B|204:356|308:356|340:296,2,200,4|8|0
204,200,46990,2,0,B|164:184|140:220|100:200,2,100,0|8|0
308,200,47501,2,0,B|348:184|372:220|412:200,2,100,2|0|8
340,296,48013,2,0,B|364:340|364:340|412:356,1,100,2|0
256,264,48353,2,0,B|256:368,1,100,2|8
172,296,48694,2,0,B|148:340|148:340|100:356,1,100,2|0
72,208,49206,6,0,B|36:208|0:180,1,74.9999977648259,0|0
120,152,49547,2,0,B|80:140|64:100,1,74.9999977648259
184,112,49887,2,0,B|148:92|148:48,1,74.9999977648259,8|0
256,96,50228,2,0,B|256:8,1,74.9999977648259
328,112,50569,2,0,B|364:92|364:48,1,74.9999977648259,0|0
392,152,50910,2,0,B|432:140|448:100,1,74.9999977648259
440,208,51251,2,0,B|476:208|512:180,1,74.9999977648259,8|0
340,320,51592,6,0,B|308:380|204:380|172:320,2,200,4|8|0
340,220,52444,1,0
256,164,52615,1,8
172,220,52785,1,4
256,192,52870,12,4,54319
256,352,55001,5,2
256,152,55342,1,2
308,68,55512,6,0,B|364:68|392:112,2,100,0|4|0
204,68,56024,2,0,B|148:68|120:112,1,100,8|0
204,168,56365,2,0,B|176:212|120:212,1,100,0|0
32,160,56706,1,8
120,112,56876,1,0
204,168,57047,5,2
256,308,57217,1,0
408,308,57388,1,8
356,168,57558,2,0,B|332:120|276:120,1,100,0|2
132,196,57899,2,0,B|156:244|212:244,1,100,0|8
364,244,58240,6,0,B|364:296|320:328,2,100,0|2|0
284,180,58751,2,0,B|284:128|328:96,1,100,8|0
416,48,59092,1,0
480,124,59262,1,0
392,172,59433,1,8
328,96,59603,1,0
236,56,59774,5,2
96,116,59944,1,2
96,268,60115,1,10
236,328,60285,2,0,B|284:328|272:360|328:360,1,100,2|0
428,360,60626,6,0,B|428:252,1,100,0|8
428,160,60967,2,0,B|484:160|512:208,2,100,0|2|0
340,212,61478,1,8
340,112,61649,1,0
252,160,61819,2,0,B|196:160|168:208,2,100,0|0|8
340,212,62331,5,0
424,268,62501,1,2
392,364,62672,1,0
288,364,62842,1,8
256,268,63012,2,0,B|160:224|160:312|64:268,1,200,2|0
0,192,63524,1,8
64,116,63694,6,0,B|64:60|12:40,2,100,0|2|0
132,192,64206,2,0,B|188:192|208:140,1,100,8|0
256,48,64547,1,2
304,136,64717,1,0
356,48,64887,1,8
408,136,65058,1,0
456,48,65228,5,2
356,224,65399,1,2
156,224,65569,1,2
56,48,65740,1,2
56,48,66081,1,2
56,48,66422,6,0,B|12:144|100:144|56:240,1,200,4|0
8,328,66933,2,0,B|56:356|104:328,1,100,8|0
192,280,67274,2,0,B|240:252|288:280,1,100,0|0
376,328,67615,1,8
464,280,67785,1,0
464,180,67956,5,2
376,60,68126,1,0
284,180,68297,1,8
196,60,68467,2,0,B|140:60|116:112,1,100,0|2
116,260,68808,2,0,B|172:260|196:208,1,100,0|8
284,88,69149,6,0,B|340:88|368:132,2,100,0|2|0
196,136,69660,2,0,B|140:136|112:92,1,100,8|0
196,36,70001,1,0
284,88,70172,1,0
196,136,70342,1,8
284,188,70512,1,0
196,236,70683,5,2
340,284,70853,1,2
196,336,71024,1,10
340,384,71194,2,0,B|396:384|424:340,1,100,2|0
448,240,71535,6,0,B|472:192|448:144,1,100,0|8
360,192,71876,2,0,B|336:240|360:288,2,100,0|2|0
448,144,72388,1,8
360,92,72558,1,0
360,192,72728,2,0,B|312:216|264:192,2,100,0|0|8
412,108,73240,5,0
464,192,73410,1,2
412,276,73581,1,0
312,280,73751,1,8
360,192,73922,2,0,B|300:100|192:100,1,200,2|0
92,100,74433,1,8
304,348,74774,6,0,B|256:360|256:360|208:348,1,100,6|0
12,192,75115,2,0,B|124:192,1,100,6|0
304,36,75456,2,0,B|256:24|256:24|208:36,1,100,6|0
400,192,75797,2,0,B|508:192,1,100,6|0
256,348,76138,5,6
12,192,76478,1,8
256,36,76819,1,0
500,192,77160,1,8
500,192,77501,6,0,B|500:312|404:352,2,200,4|8|0
400,192,78354,1,0
452,108,78524,1,8
352,108,78694,2,0,B|256:148|256:272,1,200,0|0
308,356,79206,1,8
204,356,79376,1,0
156,268,79547,2,0,B|108:288|104:348,2,100,0|2|8
356,268,80058,6,0,B|356:148|452:108,1,200,2|0
320,32,80569,2,0,B|320:152|224:192,1,200,8|0
132,232,81081,1,0
40,192,81251,1,8
44,92,81422,2,0,B|136:24|228:92,1,200,0|2
288,172,81933,1,8
468,172,82104,2,0,B|440:128|384:128,1,100,2|0
256,268,82444,2,0,B|236:320|184:328,2,100,2|8|2
316,76,82956,6,0,B|240:76|208:140|208:140|140:140,2,200,4|8|0
396,140,83808,1,0
396,244,83979,1,8
316,308,84149,2,0,B|240:308|208:244|208:244|140:244,1,200
40,244,84660,1,8
40,140,84831,1,0
140,140,85001,2,0,B|140:84|96:56,2,100,0|2|8
140,340,85513,6,0,B|224:340|224:340|292:340|320:288,1,200,2|0
420,176,86024,2,0,B|336:176|336:176|268:176|240:228,1,200,8|0
320,288,86535,1,0
420,288,86706,1,8
420,64,86876,6,0,B|328:-4|236:64,1,200,4|8
164,136,87388,1,0
92,64,87558,1,8
420,64,87899,1,8
256,348,88240,1,12
