osu file format v9

[General]
AudioFilename: Kugimiya Rie - Kiss Shite Agenai (TV Size).mp3
AudioLeadIn: 1000
PreviewTime: 82870
Countdown: 0
SampleSet: Soft
StackLeniency: 0.4
Mode: 0
LetterboxInBreaks: 1

[Editor]
Bookmarks: 1138,9319,21592,32501,43410,55683,66592,77501
DistanceSpacing: 1
BeatDivisor: 4
GridSize: 4

[Metadata]
Title:Kiss Shite Agenai (TV Size)
Artist:Kugimiya Rie
Creator:ykcarrot
Version:Hard
Source:Zero no Tsukaima F
Tags:ZnT Final Louise

[Difficulty]
HPDrainRate:5
CircleSize:4
OverallDifficulty:6
ApproachRate:7
SliderMultiplier:1.6
SliderTickRate:2

[Events]
//Background and Video events
Video,600,"ED.avi"
0,0,"BG.jpg"
//Break Periods
//Storyboard Layer 0 (Background)
//Storyboard Layer 1 (Fail)
//Storyboard Layer 2 (Pass)
//Storyboard Layer 3 (Foreground)
//Storyboard Sound Samples
//Background Colour Transformations
3,100,163,162,255

[TimingPoints]
1138,340.909090909091,4,2,1,60,1,0
1138,-133.333333333333,4,2,1,60,0,0
6422,-100,4,2,1,60,0,0
7018,-100,4,2,1,50,0,0
7189,-100,4,2,1,60,0,0
8041,-100,4,2,1,50,0,0
8211,-100,4,2,1,60,0,0
9319,-100,4,2,1,70,0,0
30882,-100,4,1,1,50,0,0
31905,-100,4,1,1,40,0,0
32245,-100,4,2,1,70,0,0
41450,-100,4,1,1,50,0,0
42814,-100,4,2,1,70,0,0
42984,-100,4,2,1,50,0,0
43240,-100,4,2,1,70,0,0
43751,-133.333333333333,4,2,1,70,0,0
46138,-100,4,2,1,70,0,0
49206,-133.333333333333,4,2,1,70,0,0
51592,-100,4,2,1,70,0,0
55683,-100,4,2,1,70,0,1
65143,-100,4,1,1,50,0,1
66251,-100,4,2,1,70,0,1
74603,-100,4,2,1,60,0,1
76308,-100,4,2,1,70,0,1
76990,-100,4,2,1,50,0,1
77501,-100,4,2,1,70,0,0

[Colours]
Combo1 : 255,255,255
Combo2 : 248,7,85
Combo3 : 0,0,123

[HitObjects]
256,84,1138,2,0,B|296:128|296:216|216:168|216:256|256:300,1,239.999992847443,8|0
288,352,1990,2,0,B|320:352|344:328,2,59.9999982118607
228,352,2501,2,0,B|172:316|116:352,1,119.999996423721
60,328,3013,2,0,B|24:272|60:216,1,119.999996423721
116,192,3524,1,8
48,96,3865,6,0,B|68:28|140:28|140:28|256:28,1,239.999992847443,8|0
376,28,4888,1,0
304,124,5228,1,8
472,192,5740,1,8
304,260,6251,1,8
208,328,6592,6,0,B|116:328,2,80,4|0|8
304,260,7103,2,0,B|392:260,2,80,4|0|8
208,192,7615,2,0,B|124:192,2,80,4|0|8
304,124,8126,2,0,B|392:124,2,80,4|8|0
208,56,8638,6,0,B|124:56,1,80,12|8
304,56,8978,2,0,B|396:56,1,80,12|8
464,56,9319,6,0,B|508:132|464:208,2,160,4|8|0
384,56,10172,2,0,B|384:100|348:124,1,80,0|8
272,152,10513,2,0,B|196:108|120:152,1,160
52,192,11024,1,8
120,232,11194,2,0,B|196:276|272:232,1,160,0|2
340,192,11706,1,8
420,192,11876,6,0,B|468:224|468:296|420:328,1,160,2|0
376,260,12388,2,0,B|336:284|340:328|340:328|248:328,1,160,8|0
180,328,12899,2,0,B|100:328,1,80,0|8
20,328,13240,2,0,B|20:280|56:260|56:260|56:176,1,160,0|2
56,100,13751,1,8
56,20,13922,2,0,B|104:20|128:64,1,80,2|0
124,136,14263,2,0,B|164:136|192:96,2,80,2|8|2
56,180,14774,6,0,B|56:260|56:260|20:280|20:328,2,160,4|8|0
56,100,15626,2,0,B|100:100|124:136,1,80,0|8
180,192,15967,2,0,B|256:148|332:192,1,160
400,232,16478,1,8
332,272,16649,2,0,B|256:316|180:272,1,160,0|2
112,232,17160,1,8
180,192,17331,6,0,B|228:160|228:88|180:56,1,160,2|0
136,124,17842,2,0,B|304:124,1,160,8|0
376,124,18353,2,0,B|376:168|412:192,1,80,0|8
472,244,18694,6,0,B|460:340|368:348,1,160,4|0
288,356,19206,1,8
208,352,19376,1,0
132,324,19547,1,0
76,264,19717,1,0
52,188,19888,1,8
48,108,20058,1,0
80,36,20228,5,2
116,48,20569,1,2
152,60,20910,1,2
188,72,21251,1,10
264,96,21422,6,0,B|300:116|300:164,2,80,0|4|0
220,164,21933,1,8
220,164,22103,1,0
140,164,22274,2,0,B|140:212|176:232,1,80
256,232,22615,2,0,B|256:276|216:300,1,80,8|0
140,300,22956,6,0,B|80:300|72:212|12:212,3,160,0|8|0|8
12,132,24149,2,0,B|12:88|52:68,1,80
124,32,24490,6,0,B|164:12|200:32,2,80,2|8|0
52,68,25001,1,2
64,148,25172,1,0
144,160,25342,1,8
180,88,25513,1,0
124,32,25683,6,0,B|84:12|48:32,2,80,2|0|8
180,88,26194,2,0,B|264:88,1,80,2|0
316,144,26535,2,0,B|396:144,1,80,2|8
476,144,26876,6,0,B|476:104|476:104|456:68,2,80
476,224,27388,1,8
476,224,27558,1,0
476,304,27728,2,0,B|444:304|444:304|432:316|432:316|400:316,1,80
400,236,28069,2,0,B|368:236|368:236|356:248|356:248|324:248,1,80,8|0
324,168,28410,6,0,B|264:168|264:168|232:192|232:192|172:192,2,160,0|8|0
404,168,29263,1,0
452,104,29433,1,8
392,52,29603,2,0,B|348:52|324:88,1,80
324,168,29944,5,2
324,248,30115,2,0,B|348:284|392:284,1,80,10|0
472,284,30456,2,0,B|472:328|436:352,2,80,2|2|10
432,212,30967,5,2
256,48,31308,1,2
80,212,31649,1,2
80,212,31819,1,2
160,212,31990,2,0,B|160:260,2,40
160,132,32331,6,0,B|140:92|96:92,2,80,0|4|0
228,176,32842,2,0,B|264:196|304:176,1,80,8|0
364,124,33183,1,0
436,160,33353,1,0
420,240,33524,1,8
340,248,33694,1,0
304,176,33865,6,0,B|256:104|168:104,3,160,0|8|0|8
88,104,35058,2,0,B|48:120|44:164,1,80
44,244,35399,6,0,B|48:288|88:304,2,80,2|8|0
116,208,35910,1,2
196,196,36081,1,0
276,208,36251,1,8
348,244,36422,1,0
416,284,36592,6,0,B|460:284|484:248,2,80,2|0|8
416,204,37103,2,0,B|416:120,1,80,2|0
416,44,37444,2,0,B|460:44|484:80,2,80,2|8|0
336,44,37956,6,0,B|256:44|256:44|220:44|188:80,1,160,4|8
256,124,38467,2,0,B|223:160|187:160|187:160|107:160,1,160
28,160,38978,1,8
28,240,39149,2,0,B|60:276|96:276|96:276|176:276,1,160
256,276,39660,2,0,B|340:276,1,80,8|0
416,276,40001,6,0,B|416:228|380:208|380:208|380:128,1,160,0|8
132,128,40683,2,0,B|132:208|132:208|96:228|96:276,1,160,0|8
176,276,41194,2,0,B|260:276,1,80
336,276,41535,6,0,B|428:276,2,80,2|2|2
256,48,42217,1,2
176,276,42558,1,2
176,276,42728,2,0,B|76:276,2,80,2|2|8
176,276,43410,1,4
96,184,43751,5,0
124,116,44092,1,0
184,76,44433,1,8
256,64,44774,1,0
328,76,45115,1,0
388,116,45456,1,0
416,184,45797,1,8
332,320,46138,6,0,B|256:364|180:320,2,160,4|8|0
292,252,46990,2,0,B|272:232|240:232|220:252,2,80,0|8|0
372,252,47501,2,0,B|364:208|344:184|296:168|296:168|296:128,1,160,2|8
216,128,48013,2,0,B|216:168|216:168|168:184|148:208|140:252,2,160,2|2|2
296,128,48865,1,0
400,192,49206,5,0
384,264,49547,1,0
324,304,49888,1,8
256,328,50228,1,0
188,304,50569,1,0
128,264,50910,1,0
112,192,51251,1,8
256,120,51592,6,0,B|256:284,2,160,4|8|0
218,48,52444,2,0,B|256:25|294:48,2,80,0|8|4
256,192,52870,12,4,54319
256,312,55001,5,2
256,152,55342,1,2
296,84,55513,6,0,B|336:84|364:124,2,80,0|4|0
216,84,56024,2,0,B|152:84|152:160|80:160,2,160,8|0|8
296,84,56876,1,0
336,152,57047,6,0,B|380:152|396:108,2,80,2|0|8
256,152,57558,2,0,B|256:236,1,80,0|2
176,232,57899,2,0,B|176:316,1,80,0|8
256,312,58240,6,0,B|332:356|408:312,1,160,2|0
488,312,58751,2,0,B|488:232,1,80,8|0
488,152,59092,2,0,B|488:60,2,80,0|0|8
420,192,59603,1,0
364,272,59774,5,2
276,240,59944,1,2
276,144,60115,1,10
364,112,60285,1,2
364,272,60626,6,0,B|364:320|328:340,1,80,0|8
248,340,60967,2,0,B|176:228|48:228,1,240,2|8
48,308,61649,1,0
48,228,61819,2,0,B|48:140|128:100,1,160,0|8
200,68,62331,6,0,B|184:24|140:24,2,80,0|2|0
236,140,62842,1,8
308,108,63013,2,0,B|392:108|444:184,1,160,2|0
456,260,63524,1,8
456,340,63694,6,0,B|412:340|388:304|388:304|304:304,1,160,2|0
228,304,64206,2,0,B|172:248,1,80,8|0
116,192,64547,1,2
116,192,64717,1,0
172,136,64888,2,0,B|228:80,1,80,8|0
340,80,65228,5,2
440,136,65399,1,2
440,248,65569,1,2
340,304,65740,1,2
340,304,66081,1,2
340,304,66422,6,0,B|264:348|188:304,1,160,4|0
124,256,66933,2,0,B|124:216|88:188,1,80,8|0
40,124,67274,2,0,B|-12:144|-12:232|40:252,1,160,0|8
124,256,67785,1,0
204,256,67956,6,0,B|204:300|168:324,2,80,2|0|8
204,176,68467,2,0,B|284:176,1,80,0|2
284,96,68808,2,0,B|372:96,1,80,0|8
444,96,69149,6,0,B|492:116|492:180|492:180|492:240,1,160,2|0
436,296,69660,2,0,B|398:273|360:296,1,80,8|0
294,341,70001,2,0,B|256:364|218:341,2,80,0|0|8
256,272,70513,1,0
340,224,70683,5,2
256,176,70853,1,2
340,128,71024,1,10
256,80,71194,1,2
256,272,71535,6,0,B|240:312|192:312,1,80,0|8
112,312,71876,2,0,B|72:268|72:180|152:228|152:140|112:96,1,239.999992847443,2|8
48,144,72558,1,0
112,96,72728,2,0,B|160:56|208:120|264:72,1,160,0|8
332,32,73240,5,0
412,32,73410,2,0,B|460:32|480:72,2,80,2|0|8
412,112,73922,2,0,B|392:200|296:200,1,160,2|0
216,200,74433,1,8
136,344,74774,6,0,B|228:344,1,80,6|0
376,272,75115,2,0,B|292:272,1,80,6|0
136,200,75456,2,0,B|220:200,1,80,6|0
376,128,75797,2,0,B|296:128,1,80,6|0
216,128,76138,5,6
296,200,76478,1,8
216,272,76819,1,0
296,344,77160,1,8
296,344,77501,6,0,B|368:344|368:292|444:292,2,160,4|8|0
216,344,78354,2,0,B|172:344|152:304,1,80,0|8
84,260,78694,2,0,B|116:212|188:212|220:260,1,160
152,304,79206,1,8
84,260,79376,2,0,B|84:96,1,160,0|2
84,20,79888,1,8
152,60,80058,6,0,B|176:96|220:96|220:96|264:96|288:132,1,160,2|0
220,176,80569,2,0,B|244:212|288:212|288:212|332:212|356:248,1,160,8|0
288,292,81081,2,0,B|312:328|356:328,1,80,0|8
436,328,81422,2,0,B|488:308|488:240|488:240|488:184,1,160,0|2
488,108,81933,1,8
420,148,82103,2,0,B|396:184|352:184,1,80,2|0
312,116,82444,2,0,B|336:80|380:80,2,80,2|8|2
272,184,82956,6,0,B|112:184,2,160,4|8|0
352,184,83808,2,0,B|392:184|424:216,1,80,0|8
464,284,84149,2,0,B|424:304|384:284|384:284|304:284,1,160
228,284,84660,1,8
268,216,84831,2,0,B|228:196|188:216|188:216|108:216,1,160,0|2
32,216,85342,1,8
72,284,85513,6,0,B|132:344|216:344,1,160,2|0
296,344,86024,2,0,B|380:344|440:284,1,160,8|0
480,216,86535,2,0,B|444:192|444:148,1,80,0|8
400,80,86876,6,0,B|360:40|296:40|256:80,1,160,4|8
184,132,87388,1,0
112,80,87558,1,8
400,80,87899,1,8
256,328,88240,1,12
