osu file format v9

[General]
AudioFilename: Kugimiya Rie - Kiss Shite Agenai (TV Size).mp3
AudioLeadIn: 1000
PreviewTime: 82870
Countdown: 0
SampleSet: Soft
StackLeniency: 0.4
Mode: 0
LetterboxInBreaks: 1

[Editor]
Bookmarks: 1138,9319,21592,32501,43410,55683,66592,77501
DistanceSpacing: 1
BeatDivisor: 2
GridSize: 4

[Metadata]
Title:Kiss Shite Agenai (TV Size)
Artist:Kugimiya Rie
Creator:ykcarrot
Version:Easy
Source:Zero no Tsukaima F
Tags:ZnT Final Louise

[Difficulty]
HPDrainRate:2
CircleSize:3
OverallDifficulty:2
ApproachRate:3
SliderMultiplier:0.799999999999999
SliderTickRate:2

[Events]
//Background and Video events
Video,600,"ED.avi"
0,0,"BG.jpg"
//Break Periods
//Storyboard Layer 0 (Background)
//Storyboard Layer 1 (Fail)
//Storyboard Layer 2 (Pass)
//Storyboard Layer 3 (Foreground)
//Storyboard Sound Samples
//Background Colour Transformations
3,100,163,162,255

[TimingPoints]
1138,340.909090909091,4,2,1,60,1,0
7103,-100,4,2,1,50,0,0
7274,-100,4,2,1,60,0,0
8126,-100,4,2,1,50,0,0
8297,-100,4,2,1,60,0,0
9319,-100,4,2,1,70,0,0
10257,-100,4,2,2,70,0,0
10427,-100,4,2,1,70,0,0
12984,-100,4,2,2,70,0,0
13155,-100,4,2,1,70,0,0
15711,-100,4,2,2,70,0,0
15882,-100,4,2,1,70,0,0
18439,-100,4,2,2,70,0,0
18609,-100,4,2,1,70,0,0
30797,-100,4,1,1,50,0,0
32331,-100,4,2,1,70,0,0
41365,-100,4,1,1,50,0,0
43240,-100,4,2,1,70,0,0
46393,-100,4,2,2,70,0,0
46564,-100,4,2,1,70,0,0
47075,-100,4,2,2,70,0,0
47245,-100,4,2,1,70,0,0
55683,-100,4,2,1,70,0,1
55939,-100,4,2,2,70,0,1
56109,-100,4,2,1,70,0,1
57302,-100,4,2,2,70,0,1
57473,-100,4,2,1,70,0,1
58666,-100,4,2,2,70,0,1
58836,-100,4,2,1,70,0,1
61393,-100,4,2,2,70,0,1
61564,-100,4,2,1,70,0,1
62757,-100,4,2,2,70,0,1
62927,-100,4,2,1,70,0,1
65058,-100,4,1,1,50,0,1
66251,-100,4,2,1,70,0,1
66848,-100,4,2,2,70,0,1
67018,-100,4,2,1,70,0,1
68211,-100,4,2,2,70,0,1
68382,-100,4,2,1,70,0,1
69575,-100,4,2,2,70,0,1
69745,-100,4,2,1,70,0,1
72302,-100,4,2,2,70,0,1
72473,-100,4,2,1,70,0,1
73666,-100,4,2,2,70,0,1
73836,-100,4,2,1,70,0,1
74603,-100,4,2,1,60,0,1
76308,-100,4,2,1,70,0,1
77501,-100,4,2,1,70,0,0
78439,-100,4,2,2,70,0,0
78609,-100,4,2,1,70,0,0
81166,-100,4,2,2,70,0,0
81336,-100,4,2,1,70,0,0
83893,-100,4,2,2,70,0,0
84064,-100,4,2,1,70,0,0
86620,-100,4,2,2,70,0,0
86791,-100,4,2,1,70,0,0

[Colours]
Combo1 : 255,255,255
Combo2 : 248,7,85
Combo3 : 0,0,123

[HitObjects]
404,208,1138,2,0,B|356:244|272:244|312:172|228:172|180:208,1,240,8|0
120,260,2501,2,0,B|88:236|88:180|120:156,2,120,0|0|8
180,312,3865,6,0,B|256:356|332:312,1,160,8|0
256,172,5228,2,0,B|256:40,2,120,8|8|8
196,228,6592,6,0,B|160:284|196:340,1,120,4|4
316,340,7615,2,0,B|352:284|316:228,1,120,4|4
256,120,8638,1,4
256,40,8978,1,4
176,40,9319,6,0,B|132:40|112:80,1,79.9999999999999,4|8
112,160,10001,2,0,B|40:156|32:88,2,120,0|0|8
192,160,11365,2,0,B|248:160,1,40,0|2
312,160,11876,6,0,B|380:160|408:220,1,120,2|8
408,300,12728,2,0,B|476:300|488:228,2,120,0|0|8
328,300,14092,2,0,B|300:272|300:272|300:232,1,79.9999999999999,0|8
300,152,14774,6,0,B|300:112|300:112|328:84,1,79.9999999999999,4|8
408,84,15456,2,0,B|476:84|488:156,2,120,0|0|8
408,164,16819,2,0,B|408:216,1,40,0|2
408,284,17331,6,0,B|352:324|296:284,1,120,2|8
216,284,18183,2,0,B|160:324|104:284,2,120,0|4|8
256,216,19547,2,0,B|256:132,1,79.9999999999999,0|8
256,56,20228,5,2
184,92,20569,1,2
112,128,20910,1,2
40,164,21251,1,10
40,244,21592,5,4
176,328,22274,1,0
336,328,22956,2,0,B|424:328|464:244,2,160,2|0|2
256,188,25001,1,0
176,328,25683,2,0,B|112:328|80:268,2,120,2|2|0
256,328,27047,5,2
396,252,27728,1,0
256,176,28410,2,0,B|296:100|216:100|256:24,2,160,2|0|2
116,252,30456,1,2
216,328,30967,5,2
296,328,31308,1,2
256,260,31649,2,0,B|256:200,1,40,2|2
336,84,32501,5,4
176,84,33183,1,0
184,244,33865,2,0,B|224:284|288:284|328:244,2,160,2|0|2
176,84,35910,1,0
336,84,36592,2,0,B|400:84|432:144,2,120,2|2|0
256,84,37956,6,0,B|208:132|208:228|304:196|304:292|256:340,2,280,4|2|0
336,84,40683,2,0,B|400:84|432:144,1,120,2|0
432,224,41535,6,0,B|476:224|500:188,2,79.9999999999999,2|2|2
352,224,42558,2,0,B|316:188,1,40,2|2
216,80,43410,1,4
136,80,43751,6,0,B|96:80|60:104|44:148|64:196,1,160,0|8
136,160,44774,2,0,B|184:232|268:232|268:232|352:232,1,240,0|8
432,232,46138,6,0,B|432:296|432:296|432:348|372:364,2,160,4|0|2
432,112,48013,2,0,B|432:24,2,79.9999999999999,2|2|2
432,232,49206,6,0,B|400:280|328:280|296:232,1,160,0|8
364,188,50228,2,0,B|336:100|256:100|256:100|160:100,1,240,0|8
84,100,51592,6,0,B|84:144|120:168,1,79.9999999999999,4|8
184,216,52274,2,0,B|212:248|256:248,1,79.9999999999999,0|8
256,192,52785,12,4,54319
216,152,55683,6,0,B|180:256|332:256|296:360,1,240,4|8
216,360,57047,2,0,B|180:256|332:256|296:152,1,240,2|8
352,96,58410,6,0,B|320:16|192:16|160:96,1,240,2|8
96,144,59774,2,0,B|16:144,2,79.9999999999999,2|10|0
160,192,60797,1,8
224,144,61138,6,0,B|304:176|304:304|224:336,1,240,2|8
144,336,62501,2,0,B|88:336|104:280|44:280,2,120,2|2|8
224,336,63865,6,0,B|264:336|296:304,1,79.9999999999999,2|8
376,304,64547,2,0,B|416:288|416:240,1,79.9999999999999,2|8
496,240,65228,2,0,B|496:172|452:132,1,120,2|2
372,132,66081,1,2
316,76,66422,6,0,B|180:16|44:76,1,280,4|8
64,152,67956,2,0,B|180:96|296:152,1,240,2|8
296,232,69319,6,0,B|180:288|64:232,1,240,2|8
64,152,70683,2,0,B|16:152|-4:188,2,79.9999999999999,2|10|0
144,152,71706,1,8
224,152,72047,6,0,B|268:284|404:284,1,240,2|8
464,232,73410,2,0,B|496:256|496:312|464:336,2,120,2|2|8
396,192,74774,5,6
328,152,75115,1,6
328,72,75456,1,6
396,32,75797,1,6
464,72,76138,1,6
464,152,76478,1,8
296,324,77501,6,0,B|216:324,1,79.9999999999999,4|8
136,324,78183,2,0,B|92:324|92:324|68:300|68:300|24:300,2,120,0|0|8
136,244,79547,2,0,B|136:192,1,40,0|2
136,124,80058,6,0,B|188:48|188:48|216:48,1,120,2|8
296,48,80910,2,0,B|324:48|324:48|376:124,2,120,0|0|8
256,116,82274,2,0,B|256:204,1,79.9999999999999,0|8
256,276,82956,6,0,B|296:276|296:276|320:244,1,79.9999999999999,4|8
400,244,83638,2,0,B|428:272|428:272|428:312|428:312|456:340,2,120,0|0|8
360,176,85001,2,0,B|360:132,1,40,0|2
308,76,85513,6,0,B|284:44|228:44|204:76,1,120,2|8
256,136,86365,2,0,B|256:256,1,120,0|4
296,324,87217,1,8
216,324,87558,2,8,B|176:344|140:324,2,79.9999999999999,8|8|12
