osu file format v7

[General]
AudioFilename: Kugimiya Rie - Gomen ne.mp3
AudioLeadIn: 0
PreviewTime: 45837
Countdown: 0
SampleSet: Soft
StackLeniency: 0.7
Mode: 0
LetterboxInBreaks: 1

[Editor]
Bookmarks: 32053,32357,32661,81513,91648,108269,108573,108675,108877,158945,169091,172334
DistanceSpacing: 1
BeatDivisor: 8
GridSize: 8

[Metadata]
Title:Gomen ne
Artist:Kugimiya Rie
Creator:Lizbeth
Version:Insane
Source:Zero no Tsukaima
Tags:Princess no Rondo ykcarrot Lissette LoweH Lunah

[Difficulty]
HPDrainRate:7
CircleSize:4
OverallDifficulty:7
SliderMultiplier:2
SliderTickRate:2

[Events]
//Background and Video events
0,0,"zoro_no_louise.jpg"
//Break Periods
2,82940,88326
//Storyboard Layer 0 (Background)
Sprite,Background,Centre,"SB\black.jpg",320,240 M,0,0,,320,240 S,0,15025,,1 F,0,15025,15228,1,0
//Storyboard Layer 1 (Fail)
//Storyboard Layer 2 (Pass)
//Storyboard Layer 3 (Foreground)
Sprite,Foreground,Centre,"SB\low.png",320,240 M,0,0,,168,117 F,0,0,1647,0,1 R,0,0,1647,-0.2457602 S,0,1647,2052,1,1.37888 R,0,1647,2052,-0.2457602,-0.08192016 F,0,1647,15025,1 S,0,2052,2660,1.37888,1 R,0,2052,2660,-0.08192016,-0.2662404 F,0,15025,15228,1,0 S,0,15025,15228,1,1.57344
Sprite,Foreground,Centre,"SB\Thanks.png",320,240 M,0,3674,,225,157 R,0,3674,,0.14336 F,0,3674,4485,0,1 F,0,4485,15025,1 F,0,15025,15228,1,0 S,0,15025,15228,1,1.69632
Sprite,Foreground,Centre,"SB\for.png",320,240 M,0,4485,,243,189 R,0,4485,,-0.2457602 F,0,4485,5295,0,1 F,0,15025,15228,1,0 S,0,15025,15228,1,1.6144
Sprite,Foreground,Centre,"SB\be.png",320,240 M,0,5295,,280,198 R,0,5295,,0.14336 F,0,5295,6106,0,1 F,0,15025,15228,1,0 S,0,15025,15228,1,1.62464
Sprite,Foreground,Centre,"SB\a.png",320,240 M,0,6106,,258,217 F,0,6106,6917,0,1 F,0,15025,15228,1,0 S,0,15025,15228,1,2.024
Sprite,Foreground,Centre,"SB\good.png",320,240 M,0,6917,,324,212 R,0,6917,,-0.1228799 F,0,6917,7728,0,1 F,0,15025,15228,1,0 S,0,15025,15228,1,1.512
Sprite,Foreground,Centre,"SB\friend.png",320,240 M,0,7728,,358,238 R,0,7728,,0.2252798 F,0,7728,8539,0,1 F,0,15025,15228,1,0 S,0,15025,15228,1,1.512
Sprite,Foreground,Centre,"SB\This.png",320,240 M,0,9349,,419,427 S,0,9755,9958,1,1.54272 F,0,9755,10160,0,1 S,0,9958,10160,1.54272,1 F,0,15025,15228,1,0 S,0,15025,15228,1,1.52224
Sprite,Foreground,Centre,"SB\is.png",320,240 M,0,10160,,457,439 S,0,10160,,1 F,0,10160,10971,0,1 F,0,15025,15228,1,0 S,0,15025,15228,1,1.73728
Sprite,Foreground,Centre,"SB\for.png",320,240 M,0,10971,,491,427 F,0,10971,11782,0,1 F,0,15025,15228,1,0 S,0,15025,15228,1,1.75776
Sprite,Foreground,Centre,"SB\you.png",320,240 M,0,11782,,538,436 F,0,11782,12593,0,1 F,0,15025,15228,1,0 S,0,15025,15228,1,1.68608
//Storyboard Sound Samples
//Background Colour Transformations
3,100,163,162,255

[TimingPoints]
13416,405.405405405405,4,2,1,50,1,0
31850,-100,4,1,1,29,0,0
32762,-100,4,2,1,30,0,0
33776,-100,4,2,1,50,0,0
34485,-100,4,2,1,29,0,0
36310,-100,4,2,1,51,0,0
42087,-100,4,2,1,29,0,0
42492,-100,4,2,1,51,0,0
42898,-100,4,2,1,29,0,0
43100,-100,4,2,1,50,0,0
43708,-100,4,2,1,30,0,0
43911,-100,4,2,1,51,0,0
44519,-100,4,2,1,31,0,0
44722,-100,4,2,1,35,0,0
44925,-100,4,2,1,40,0,0
45127,-100,4,2,1,45,0,0
45330,-100,4,2,1,51,0,0
45837,-100,4,2,1,51,0,1
49789,-100,4,2,1,31,0,1
50498,-100,4,2,1,50,0,1
57695,-100,4,2,1,50,0,1
58506,-100,4,2,1,30,0,0
58810,-100,4,2,1,30,0,1
58911,-100,4,2,1,50,0,1
62762,-100,4,2,1,31,0,1
63572,-100,4,2,1,51,0,1
63675,-100,4,2,1,50,0,1
69148,-100,4,2,1,51,0,1
70262,-100,4,2,1,30,0,0
70870,-100,4,2,1,41,0,0
71276,-100,4,2,1,50,0,0
71681,-100,4,2,1,49,0,0
76445,-100,4,2,1,31,0,0
76636,-200,4,2,1,31,0,0
77661,-100,4,2,1,50,0,0
77965,-100,4,2,1,29,0,0
78370,-100,4,2,1,50,0,0
90634,-100,4,2,1,30,0,0
91445,-100,4,2,1,50,0,0
104418,-100,4,2,1,29,0,0
105634,-100,4,2,1,51,0,0
108066,-100,4,1,1,30,0,0
108979,-100,4,2,1,31,0,0
109992,-100,4,2,1,50,0,0
110803,-100,4,2,1,29,0,0
112526,-100,4,2,1,49,0,0
118303,-100,4,2,1,21,0,0
118708,-100,4,2,1,51,0,0
119114,-100,4,2,1,21,0,0
119316,-100,4,2,1,51,0,0
119925,-100,4,2,1,21,0,0
120229,-100,4,2,1,52,0,0
121749,-100,4,2,1,31,0,0
122053,-100,4,2,1,31,0,1
122154,-100,4,2,1,51,0,1
126005,-100,4,2,1,31,0,1
126714,-100,4,2,1,50,0,1
134722,-100,4,2,1,32,0,0
135026,-100,4,2,1,32,0,1
135127,-100,4,2,1,49,0,1
138979,-100,4,2,1,30,0,1
139789,-100,4,2,1,49,0,1
145364,-100,4,2,1,49,0,0
146479,-100,4,2,1,20,0,0
146884,-100,4,2,1,31,0,0
147289,-100,4,2,1,41,0,0
147695,-100,4,2,1,49,0,0
152661,-100,4,1,1,31,0,0
152852,-200,4,1,1,31,0,0
153877,-100,4,2,1,51,0,0
154181,-100,4,2,1,30,0,0
154587,-100,4,2,1,51,0,0

[Colours]
Combo1 : 157,60,255
Combo2 : 255,85,170
Combo3 : 255,255,128
Combo4 : 255,138,255

[HitObjects]
256,32,15443,2,0,B|176:128|328:120|248:232,1,200
88,112,16253,1,8
40,200,16456,2,0,B|16:256|56:328,2,100
136,208,17064,1,8
192,128,17267,2,0,B|248:149|272:228,2,100,0|0|0
136,208,17875,1,8
272,56,18280,6,0,B|368:24|472:64,1,200,0|8
384,120,18888,2,0,B|312:104|256:152,2,100
448,200,19497,2,0,B|336:160|232:224,1,200,8|0
256,32,20307,5,8
472,344,20713,1,0
40,344,21118,1,8
128,296,21321,5,0
128,296,21524,2,0,B|144:184|80:88,1,200,0|8
176,56,22132,1,0
272,40,22334,1,0
368,56,22537,1,0
456,104,22740,1,8
456,192,22943,5,0
456,192,23145,1,2
256,344,23551,1,8
56,192,23956,1,2
256,40,24361,1,8
256,40,24767,1,2
256,344,25172,5,8
344,296,25375,1,0
400,216,25578,1,0
408,112,25780,1,0
408,112,25983,2,0,B|288:152|256:288,1,200,8|0
168,248,26591,6,0,B|136:144,1,100,0|8
40,128,26997,2,0,B|112:336,1,200
208,320,27605,1,8
224,320,27706,1,0
240,320,27807,1,0
256,320,27909,1,0
272,320,28010,1,2
472,320,28416,5,8
256,40,28821,1,0
40,320,29226,1,8
256,40,29632,5,4
256,40,30443,1,0
168,96,30645,2,0,B|120:136|120:200,2,100,0|0|4
280,192,32064,6,0,B|256:40,1,150,0|0
256,45,32470,2,0,B|368:93,1,100,0|0
256,48,32875,5,8
96,264,33280,1,8
416,264,33686,1,8
256,264,33888,2,0,B|256:152,2,100,0|8|0
432,128,34699,5,8
432,128,34902,1,8
432,128,35105,1,8
332,133,35307,1,8
332,133,35409,1,8
276,215,35611,1,8
276,215,35713,1,8
177,230,35916,1,8
177,230,36118,1,12
72,88,36524,5,8
168,48,36726,1,0
256,88,36929,1,0
344,48,37132,1,0
432,88,37334,1,8
416,184,37537,6,0,B|336:184|328:272,2,100,0|0|0
424,280,38145,1,8
336,328,38348,1,0
248,280,38551,1,0
160,328,38753,1,0
72,280,38956,1,8
256,40,39361,5,4
256,40,39564,2,0,B|160:40|160:168|280:144,2,200,4|2|2
360,40,40578,1,8
416,120,40780,1,0
472,200,40983,1,4
392,256,41186,1,4
304,312,41388,2,0,B|256:352|200:304,1,100,8|4
56,48,42199,5,8
56,48,42301,1,8
56,48,42402,1,8
56,48,42605,2,0,B|88:160|40:264,1,200,2|8
216,352,43415,2,0,B|216:232,2,100,2|0|8
296,32,44226,2,0,B|296:152,2,100,2|0|8
400,32,44834,5,8
472,104,45037,1,8
472,208,45240,1,8
416,296,45443,2,0,B|320:208|376:88,1,200,8|8
184,32,46253,6,0,B|56:32,1,100,8|2
160,96,46659,2,0,B|248:168,1,100,8|2
136,160,47064,2,0,B|8:160,1,100,8|2
112,224,47470,2,0,B|200:296,1,100,8|2
288,328,47875,6,0,B|288:216,1,100,8|2
376,272,48280,2,0,B|376:160,1,100,8|2
464,224,48686,2,0,B|464:112,1,100,8|2
400,48,49091,5,8
400,48,49294,1,2
320,112,49497,1,8
320,112,49699,1,2
240,40,49902,2,0,B|32:40,1,200,8|8
64,248,50713,6,0,B|176:304|280:240,1,200,2|8
256,152,51321,2,0,B|336:100|448:156,2,200,2|4|0
256,252,52334,2,0,B|176:304|64:248,1,200,2|8
64,152,52943,5,0
112,64,53145,1,0
123,53,53247,1,0
136,47,53348,1,0
150,43,53449,1,0
164,41,53551,1,8
178,43,53652,1,0
192,46,53753,1,0
204,53,53855,1,0
216,56,53956,6,0,B|280:120|256:200|168:200,1,200,0|8
175,199,54564,1,0
175,199,54767,1,8
256,256,54970,2,0,B|256:356,2,100,8|8|0
480,344,55578,5,12
32,344,55983,1,12
256,32,56388,1,8
256,32,56591,2,0,B|256:152,2,100,0|8|4
160,264,57199,5,8
80,208,57402,2,0,B|40:168,2,50,0|0|8
160,264,57807,5,4
288,104,58010,1,4
448,232,58213,1,4
320,368,58415,1,4
416,336,58618,5,8
416,336,58720,1,8
416,336,58821,2,0,B|312:272,1,100,8|2
297,165,59226,2,0,B|384:216,1,100,8|2
496,176,59632,2,0,B|400:120,1,100,8|2
376,16,60037,2,0,B|462:66,1,100,8|2
144,24,60443,6,0,B|40:88,1,100,8|2
25,194,60848,2,0,B|111:143,1,100,8|2
224,184,61253,2,0,B|128:240,1,100,8|2
104,344,61659,2,0,B|190:293,1,100,8|2
288,328,62064,5,8
288,328,62267,1,2
224,256,62470,1,8
224,256,62672,1,2
296,184,62875,1,8
296,184,63078,1,2
224,112,63280,1,8
224,112,63483,1,2
280,32,63686,6,0,B|416:24|496:112,1,200,8|8
368,104,64294,2,0,B|464:144|496:272,1,200,2|4
256,344,65105,5,2
256,344,65307,2,0,B|304:240|216:240|256:120,1,200,8|8
256,48,65915,1,2
152,48,66118,6,0,B|40:48,1,100,8|2
360,48,66524,2,0,B|460:48,1,100,8|2
152,144,66929,2,0,B|40:144,1,100,8|2
360,144,67334,2,0,B|460:144,1,100,8|2
256,312,67740,6,0,B|256:208,1,100,8|0
256,200,68044,1,0
256,184,68145,1,8
256,80,68348,1,0
40,40,68551,5,4
472,40,68956,1,4
256,352,69361,5,2
368,200,69564,1,2
200,80,69767,1,2
80,232,69970,1,2
80,232,70375,5,8
168,192,70578,1,8
264,232,70780,1,8
472,192,70983,5,8
376,232,71186,1,8
320,72,71388,5,8
320,176,71591,1,8
232,128,71794,6,0,B|120:128,2,100,0|0|8
168,208,72402,2,0,B|48:208,1,100,0|0
40,40,72807,5,4
40,40,73213,2,0,B|144:112|240:24,1,200,0|0
320,40,73821,1,8
416,40,74024,2,0,B|528:40,2,100
320,40,74632,1,8
256,192,75037,12,8,76253
248,52,76659,6,0,B|288:120,1,75
248,52,77216,2,0,B|207:99,1,62.5,0|0
256,296,77875,1,8
256,200,78078,1,8
256,200,78179,1,8
256,200,78280,1,8
456,296,78686,5,8
488,200,78888,1,0
448,112,79091,1,0
344,112,79294,1,0
368,208,79497,1,8
352,304,79699,1,0
243,296,79902,2,0,B|168:208|240:112,3,200,0|8|0|8
256,192,81524,12,8,82740
256,192,89226,12,8,90848
254,196,91253,5,8
250,48,91659,6,0,B|192:38|128:86,2,100,8|0|0
343,83,92267,2,0,B|343:197,1,100,0|8
440,159,92672,5,0
473,253,92875,2,0,B|457:310|495:353,1,100,0|0
383,231,93280,2,0,B|340:271|350:328,1,100,8|0
336,156,93686,2,0,B|277:166|255:220,1,100
200,64,94091,5,8
200,63,94497,2,0,B|103:-7|-30:77,1,200,0|8
104,120,95105,2,0,B|204:182|299:117,1,200
344,40,95713,6,0,B|448:40,2,100,8|0|0
256,344,96524,5,8
480,40,96929,1,0
32,40,97334,1,8
128,64,97537,5,0
128,64,97740,2,0,B|160:184|104:272,1,200,0|8
64,152,98348,2,0,B|24:264,1,100
64,152,98753,2,0,B|48:24,1,100,0|8
256,32,99159,5,0
256,32,99361,1,0
24,344,99767,1,8
488,344,100172,1,0
24,344,100578,1,8
488,344,100983,1,0
416,160,101388,6,0,B|416:104|352:80,2,100,8|0|0
320,176,101997,1,0
232,136,102199,2,0,B|182:192|208:286|315:270,1,200,8|0
400,272,102807,6,0,B|448:160,1,100,0|8
480,88,103213,1,2
480,88,103618,1,2
376,88,103821,1,8
360,88,103922,1,0
344,88,104024,1,0
328,88,104125,1,0
312,88,104226,1,2
256,336,104632,5,8
40,40,105037,1,8
472,40,105443,1,8
256,338,105848,5,8
256,336,106659,1,0
256,336,106861,2,0,B|208:296|216:232,2,100,0|8|4
370,45,108280,2,0,B|236:129,1,150
370,45,108686,2,0,B|368:155,1,100
333,238,109091,5,8
152,32,109497,1,8
80,296,109902,1,8
184,184,110105,1,0
184,184,110307,2,0,B|208:288,1,100,8|8
88,120,110916,5,8
168,64,111118,1,8
248,120,111321,1,0
344,120,111524,1,8
344,120,111625,1,8
440,120,111828,1,8
440,120,111929,1,8
392,208,112132,5,8
280,336,112334,1,12
64,344,112740,6,0,B|32:224|72:96,1,200,8|0
144,88,113348,2,0,B|192:72,2,50,0|0|8
160,184,113753,6,0,B|160:296,1,100
232,208,114159,2,0,B|232:96,1,100,0|8
304,32,114564,2,0,B|304:232,1,200
304,232,115172,1,8
472,336,115578,5,12
304,232,115780,1,12
304,232,116186,6,0,B|200:184|80:248,1,200
80,136,116794,2,0,B|40:32,1,100,8|0
44,42,117199,5,4
80,280,117402,1,4
312,248,117605,1,4
280,24,117807,1,4
472,328,118416,5,8
472,328,118517,1,8
472,328,118618,1,8
472,328,118821,2,0,B|376:256|256:320,1,200,2|8
32,328,119632,2,0,B|128:256|248:320,1,200,2|8
48,56,120443,5,2
144,80,120645,2,0,B|208:128|192:200,2,100,0|8|0
48,56,121253,2,0,B|48:272,1,200,0|8
144,312,121861,5,8
144,312,121963,1,8
144,312,122064,2,0,B|40:368,1,100,8|2
104,224,122470,2,0,B|0:256,1,100,8|2
104,136,122875,2,0,B|0:112,1,100,8|2
152,56,123280,2,0,B|64:0,1,100,8|2
360,56,123686,6,0,B|444:2,1,100,8|2
408,136,124091,2,0,B|505:113,1,100,8|2
408,224,124497,2,0,B|503:253,1,100,8|2
368,312,124902,2,0,B|456:359,1,100,8|2
312,216,125307,6,0,B|360:312,1,100,8|2
200,216,125713,2,0,B|152:312,1,100,8|2
256,104,126118,1,8
256,104,126524,1,8
48,48,126929,5,2
48,48,127334,1,8
208,144,127537,1,4
208,144,127943,6,0,B|248:40|376:88,1,200,4|0
312,160,128551,2,0,B|440:208|504:96,1,200,8|8
456,240,129159,6,0,B|456:344,1,100,2|8
360,256,129564,2,0,B|360:368,1,100,2|8
256,240,129970,2,0,B|256:360,1,100,2|8
160,256,130375,2,0,B|160:376,1,100,2|8
64,240,130780,2,0,B|64:352,1,100,2|8
64,160,131186,6,0,B|8:64,2,100,2|8|2
256,32,131794,5,4
256,32,132199,1,4
488,184,132605,6,0,B|448:288,1,100,0|4
256,344,133213,1,4
256,344,134024,5,4
64,256,134226,1,4
160,72,134429,1,4
344,160,134632,1,4
280,56,134834,5,8
280,56,134936,1,8
280,56,135037,2,0,B|392:56,1,100,8|2
224,120,135443,2,0,B|104:120,1,100,8|2
280,168,135848,2,0,B|392:168,1,100,8|2
224,224,136253,2,0,B|104:224,1,100,8|2
296,264,136659,6,0,B|392:320,1,100,8|2
216,264,137064,2,0,B|120:320,1,100,8|2
296,176,137470,2,0,B|392:232,1,100,8|2
216,176,137875,2,0,B|120:232,1,100,8|2
120,112,138280,5,8
200,48,138483,1,2
304,48,138686,1,8
384,104,138888,1,2
384,280,139091,5,8
304,336,139294,1,2
200,336,139497,1,8
120,272,139699,1,2
40,40,139902,6,0,B|56:160|208:152,1,200,8|8
136,64,140510,2,0,B|256:56|296:176,1,200,2|4
256,360,141321,5,0
256,360,141524,1,4
256,32,141929,5,8
400,240,142334,6,0,B|400:352,1,100,8|2
296,240,142740,2,0,B|184:288,1,100,8|2
296,128,143145,2,0,B|296:24,1,100,8|2
408,128,143551,2,0,B|499:88,1,100,8|2
480,208,143956,5,8
408,288,144159,2,0,B|496:352,2,100,2|8|2
256,32,144767,5,4
256,352,145172,1,4
256,352,145578,5,2
256,248,145780,1,0
160,272,145983,1,2
168,176,146186,1,0
168,176,146591,5,8
104,96,146794,1,8
256,176,146997,5,8
256,72,147199,1,8
344,176,147402,5,8
408,96,147605,1,8
456,184,147807,6,0,B|487:230|465:279,2,100,0|0|0
384,256,148416,1,8
312,328,148618,1,0
240,256,148821,1,0
312,72,149024,5,4
312,72,149429,2,0,B|216:16|96:88,1,200
128,176,150037,2,0,B|72:208|16:160,2,100,8|0|0
224,136,150645,1,0
312,176,150848,1,8
392,344,151253,5,0
320,272,151456,1,0
320,272,151557,1,0
320,272,151659,1,8
256,344,151861,1,0
184,272,152064,1,0
112,344,152267,1,0
112,344,152368,1,0
112,344,152470,1,8
88,56,152875,6,0,B|96:144,1,75
88,56,153432,2,0,B|144:88,1,62.5
272,288,154091,1,8
208,208,154294,1,8
208,208,154395,1,8
208,208,154497,1,8
320,64,154902,6,0,B|432:64,2,100,8|0|0
216,64,155510,1,0
120,72,155713,1,8
40,128,155916,1,0
120,184,156118,2,0,B|192:208|176:288,1,100
80,280,156524,2,0,B|80:344|152:360,1,100,8|0
232,352,156929,2,0,B|304:256|224:136,1,200,0|8
256,192,157740,12,8,160983
