osu file format v9

[General]
AudioFilename: Fuwatoro W Strawberry.mp3
AudioLeadIn: 0
PreviewTime: 53134
Countdown: 1
SampleSet: Soft
StackLeniency: 0.7
Mode: 0
LetterboxInBreaks: 1

[Editor]
Bookmarks: 187067
DistanceSpacing: 0.8
BeatDivisor: 4
GridSize: 8

[Metadata]
Title:Fuwatoro W Strawberry
Artist:Kugimiya Rie & Tamura Yukari
Creator:-[NYAN]-
Version:Insane
Source:Asutarotte no omocha
Tags:rotte asuha

[Difficulty]
HPDrainRate:7
CircleSize:4
OverallDifficulty:7
ApproachRate:8
SliderMultiplier:1.6
SliderTickRate:2

[Events]
//Background and Video events
0,0,"BG.jpg"
//Break Periods
2,9593,15223
2,78882,83351
2,147010,156124
//Storyboard Layer 0 (Background)
//Storyboard Layer 1 (Fail)
//Storyboard Layer 2 (Pass)
//Storyboard Layer 3 (Foreground)
//Storyboard Sound Samples
//Background Colour Transformations
3,100,255,128,128

[TimingPoints]
490,387.09,4,2,1,100,1,0
24296,-100,4,2,1,100,0,0
24489,-100,4,2,1,100,0,0
27392,-100,4,2,1,100,0,0
27586,-100,4,2,1,100,0,0
33586,-100,4,2,1,100,0,0
33779,-100,4,2,1,100,0,0
39779,-100,4,2,1,100,0,0
39973,-100,4,2,1,100,0,0
40166,-100,4,2,1,100,0,0
40360,-100,4,2,1,100,0,0
40553,-100,4,2,1,100,0,0
51392,-100,4,2,1,100,0,0
51585,-100,4,2,1,100,0,0
51779,-100,4,2,1,100,0,0
51972,-100,4,2,1,100,0,0
52166,-100,4,2,1,100,0,0
53134,-100,4,2,1,100,0,1
55456,-100,4,2,1,100,0,1
55650,-100,4,2,1,100,0,1
55843,-100,4,2,1,100,0,1
61843,-100,4,2,1,100,0,1
62037,-100,4,2,1,100,0,1
67843,-100,4,2,1,100,0,1
68037,-100,4,2,1,100,0,1
68230,-100,4,2,1,100,0,1
70940,-100,4,2,1,100,0,1
71133,-100,4,2,1,100,0,1
71327,-100,4,2,1,100,0,1
73262,-100,4,2,1,100,0,1
73456,-100,4,2,1,100,0,1
73650,-100,4,2,1,100,0,1
73843,-100,4,2,1,100,0,1
74037,-100,4,2,1,100,0,1
74230,-100,4,2,1,100,0,1
74424,-100,4,2,1,100,0,1
74617,-100,4,2,1,100,0,1
77520,-100,4,2,1,100,0,0
77908,-100,4,2,1,100,0,0
78101,-100,4,2,1,100,0,0
78295,-100,4,2,1,100,0,0
78488,-100,4,2,1,100,0,0
78682,-100,4,2,1,100,0,0
84101,-100,4,2,1,100,0,0
90294,-100,4,2,1,100,0,0
99585,-100,4,2,1,100,0,0
121262,-100,4,2,1,100,0,1
121358,-100,4,2,1,100,0,0
146035,-100,4,2,1,100,0,0
161519,-100,4,2,1,100,0,1
173132,-100,4,2,1,100,0,1
173325,-100,4,2,1,100,0,1
173519,-100,4,2,1,100,0,1
179325,-100,4,2,1,100,0,1
179519,-100,4,2,1,100,0,1
179712,-100,4,2,1,100,0,0

[Colours]
Combo1 : 255,153,0
Combo2 : 5,240,5
Combo3 : 5,5,240
Combo4 : 240,5,5

[HitObjects]
256,96,3586,2,0,B|256:176,1,80
256,288,3973,1,8
152,128,4360,1,0
320,208,4554,1,0
184,208,4747,1,8
352,128,4941,1,0
256,160,5135,6,0,B|256:80,1,80
352,48,5522,1,8
424,88,5715,2,0,B|440:128|424:168,1,80
87,166,6102,2,0,B|72:128|88:88,1,80,0|8
160,48,6489,1,0
256,192,6683,5,0
336,240,7070,2,0,B|344:288|400:296,2,80,8|0|0
176,240,7651,2,0,B|168:288|112:296,2,80,0|8|0
255,256,8231,1,0
316,211,8425,1,0
293,140,8618,1,8
218,140,8812,1,0
195,211,9005,5,0
195,211,9199,5,0
195,211,9393,5,12
136,168,15973,5,0
200,256,16360,1,8
200,256,16554,1,0
312,256,16941,1,0
376,168,17231,1,0
213,250,17715,5,0
256,119,17909,1,8
298,250,18102,1,0
187,169,18296,1,0
324,169,18489,1,0
213,250,18683,1,8
256,119,18876,1,0
136,176,19070,5,0
200,88,19457,1,8
200,88,19650,1,0
312,88,20038,1,0
256,192,20618,12,0,21779
152,160,21973,5,0
72,136,22167,2,0,B|56:184|96:224,1,80
136,272,22554,1,8
208,304,22747,1,0
200,224,22941,2,0,B|248:224|280:272,1,80
288,328,23328,2,0,B|320:304|363:306,1,80,8|0
440,304,23715,6,0,B|408:256|408:192|448:152,1,160,0|8
384,112,24296,1,0
384,112,24392,1,0
384,112,24489,1,0
168,72,24876,1,12
88,208,25263,6,0,B|88:304|184:320,1,160,0|8
216,256,25844,1,0
256,192,26037,1,0
296,256,26231,1,0
336,320,26425,2,0,B|428:304|428:208,1,160,8|0
392,152,27005,2,0,B|312:152,1,80,0|8
256,96,27392,1,0
256,96,27489,1,0
256,96,27586,1,0
200,152,27779,2,0,B|120:152,1,80,0|8
88,224,28166,5,0
144,296,28360,2,0,B|184:328|232:280,1,80
176,216,28747,2,0,B|336:216,1,160,8|0
304,296,29328,2,0,B|337:330|376:304,1,80,0|8
424,224,29908,2,0,B|392:128,1,80
336,96,30295,1,8
256,64,30489,1,0
176,96,30683,1,0
113,148,30876,2,0,B|88:224,1,80,0|8
344,128,31457,6,0,B|408:64,2,80,0|0|8
256,168,32037,1,0
168,128,32231,6,0,B|104:64,2,80,0|0|8
256,168,32812,1,0
184,216,33005,6,0,B|176:264|136:272,1,80
104,200,33392,1,8
224,272,33586,1,0
256,272,33682,1,0
288,272,33779,1,0
328,216,33973,2,0,B|336:264|376:272,1,80,0|8
408,200,34360,1,0
256,192,34553,6,0,B|256:104,1,80
200,64,34941,1,8
312,64,35134,1,0
312,144,35328,2,0,B|360:136|384:96,1,80
456,96,35715,1,8
408,40,35908,2,0,B|312:40,1,80
256,56,36295,1,0
184,40,36489,2,0,B|104:40,1,80,8|0
56,96,36876,1,0
133,103,37070,2,0,B|152:136|200:144,1,80,0|8
256,192,37457,5,0
176,216,37650,2,0,B|136:232|136:288,1,80
216,280,38037,1,8
296,280,38231,1,0
375,279,38424,2,0,B|376:232|336:216,1,80
256,192,38811,1,8
200,64,39199,1,0
312,64,39392,1,0
256,128,39779,5,4
256,152,39876,1,0
256,176,39973,1,0
256,200,40069,1,0
256,224,40166,1,0
256,256,40263,1,0
256,280,40360,1,8
80,152,40747,5,0
80,232,40940,1,0
152,96,41134,5,8
152,280,41327,1,0
168,192,41521,2,0,B|256:192|328:192,1,160,0|8
408,192,42102,1,0
328,264,42682,6,0,B|394:308,2,80,8|0|0
256,304,43263,1,0
184,264,43456,2,0,B|117:308,2,80,8|0|0
104,224,44037,1,0
104,136,44231,1,8
176,88,44424,2,0,B|256:136|328:88,1,160
408,136,45005,5,8
408,224,45198,1,0
336,176,45392,1,0
256,192,45779,2,0,B|256:112,1,80,8|0
192,128,46553,5,8
160,104,46747,2,0,B|96:48,2,80
192,256,47327,5,8
160,280,47521,2,0,B|96:336,2,80
320,256,48102,5,8
352,280,48295,2,0,B|416:336,2,80
320,128,48876,5,8
352,104,49069,2,0,B|416:48,2,80
256,272,49650,6,0,B|256:192,1,80,8|0
256,104,50037,1,0
344,192,50424,1,8
168,192,50618,1,0
256,192,51005,1,0
120,152,51392,5,0
152,128,51489,1,0
184,112,51585,1,0
216,104,51682,1,0
256,80,51779,1,0
296,104,51876,1,0
328,112,51972,1,8
360,128,52069,1,0
392,152,52166,1,0
256,192,52553,2,0,B|256:280,1,80,0|8
208,304,53134,5,0
304,304,53327,1,0
160,232,53521,1,8
352,232,53714,1,0
256,232,53908,2,0,B|256:152,1,80
176,136,54295,2,0,B|160:88|112:72,1,80,8|0
336,136,54682,2,0,B|352:88|400:72,1,80
312,72,55069,1,8
192,72,55263,1,0
256,144,55456,5,4
256,168,55553,1,0
256,192,55650,1,0
256,216,55747,1,0
256,240,55843,1,8
96,168,56230,5,0
184,200,56424,1,0
120,248,56618,2,0,B|88:328,2,80,8|0|0
184,312,57198,2,0,B|256:264|336:312,1,160
392,248,57779,2,0,B|424:328,2,80,0|0|8
328,200,58359,1,0
416,168,58553,1,0
344,112,58747,2,0,B|424:64,1,80,0|8
168,112,59327,6,0,B|88:64,1,80
112,304,59908,1,0
168,224,60101,1,0
224,304,60295,1,0
280,224,60488,1,8
336,304,60682,1,0
456,176,61263,1,8
360,96,61843,1,0
360,96,61940,1,0
360,96,62037,1,12
256,56,62424,6,0,B|256:136,1,70
200,192,62811,1,8
312,192,63005,1,0
96,192,63392,2,0,B|112:104|200:80,1,160
256,136,63972,1,0
200,192,64166,1,0
312,192,64359,1,8
256,136,64553,1,0
314,80,64746,2,0,B|400:104|416:192,1,160,0|8
256,336,65521,5,0
192,264,65811,1,0
328,264,66101,1,0
256,208,66488,2,0,B|256:48,1,160
160,64,67069,2,0,B|168:104|208:112,1,70
344,56,67456,2,0,B|344:104|304:112,1,70,8|0
256,128,67843,5,0
256,152,67940,1,0
256,176,68037,1,0
256,200,68133,1,0
256,224,68230,1,12
368,288,68617,5,0
368,288,68811,1,0
456,216,69004,2,0,B|424:144,1,80,8|0
376,80,69392,2,0,B|288:80,1,80
136,80,69779,2,0,B|224:80,1,80,8|0
64,128,70166,2,0,B|96:144|112:192|112:192|96:240|64:256,1,160,0|8
144,296,70746,1,0
256,248,70940,5,0
256,224,71037,1,0
256,200,71133,1,0
256,176,71230,1,0
256,152,71327,1,8
200,288,71714,6,0,B|184:240|144:232,1,80
312,288,72101,2,0,B|328:240|368:232,1,80,8|0
112,192,72488,2,0,B|192:192,1,80
400,192,72875,2,0,B|320:192,1,80,8|0
144,112,73262,5,0
137,135,73359,1,0
131,158,73456,1,0
192,288,73650,5,8
198,264,73746,1,0
204,241,73843,1,0
324,121,74037,5,0
318,144,74133,1,0
312,168,74230,1,0
400,288,74424,5,8
406,264,74520,1,0
412,241,74617,1,0
344,136,74811,6,0,B|424:136,2,80,0|0|8
256,136,75391,1,0
168,136,75585,2,0,B|88:136,2,80,0|0|8
256,136,76166,1,0
256,216,76359,2,0,B|256:296,1,80
256,296,76746,1,8
192,264,76940,1,0
328,264,77133,1,0
152,184,77327,1,0
368,184,77520,1,8
128,96,77908,5,0
160,96,78004,1,0
192,96,78101,1,0
224,96,78198,1,0
256,96,78295,1,8
288,96,78391,1,0
320,96,78488,1,0
352,96,78585,1,0
384,96,78682,1,0
424,264,84101,5,0
304,312,84488,1,8
304,312,84682,1,0
184,280,85069,1,0
80,136,85456,5,0
176,152,85649,1,0
248,80,85843,1,0
152,64,86036,1,8
272,168,86230,5,0
368,184,86423,1,0
448,112,86617,1,0
352,96,86811,1,8
368,184,87004,1,0
136,176,87198,5,0
200,88,87585,1,8
200,88,87778,1,0
312,88,88165,1,0
256,192,88746,12,0,89907
440,136,90294,2,0,B|456:184|416:224,1,80
376,272,90681,1,8
304,304,90875,1,0
312,224,91069,2,0,B|264:224|232:272,1,80
224,328,91456,2,0,B|192:304|149:306,1,80,8|0
72,304,91843,6,0,B|112:232|80:144,1,160,0|8
192,112,92423,1,0
192,112,92520,1,0
192,112,92617,1,0
368,88,93004,1,12
416,224,93391,6,0,B|416:320|320:336,1,160,0|8
280,272,94165,1,0
208,272,94359,1,0
168,336,94552,2,0,B|76:320|76:224,1,160,8|0
120,152,95133,2,0,B|200:152,1,80,0|8
256,96,95520,1,0
256,96,95617,1,0
256,96,95714,1,0
312,152,95907,2,0,B|392:152,1,80,0|8
424,224,96294,5,0
368,296,96488,2,0,B|328:328|280:280,1,80
336,216,96875,2,0,B|176:216,1,160,8|0
208,296,97456,2,0,B|175:330|136:304,1,80,0|8
88,224,98036,2,0,B|120:128,1,80
176,96,98423,1,8
256,64,98617,1,0
336,96,98810,1,0
399,148,99004,2,0,B|424:224,1,80,0|8
168,128,99585,6,0,B|104:64,2,80,0|0|8
256,168,100165,1,0
344,128,100359,6,0,B|408:64,2,80,0|0|8
256,168,100939,1,0
328,216,101133,2,0,B|336:264|376:272,1,80
408,200,101520,1,8
288,272,101714,1,0
256,272,101810,1,0
224,272,101907,1,0
184,216,102101,2,0,B|176:264|136:272,1,80,0|8
104,200,102488,1,0
256,192,102681,6,0,B|256:104,1,80
312,64,103068,1,8
200,64,103262,1,0
200,144,103455,2,0,B|152:136|128:96,1,80
56,96,103843,1,8
104,40,104036,2,0,B|200:40,1,80
256,56,104423,1,0
328,40,104617,2,0,B|408:40,1,80,8|0
456,96,105004,1,0
379,103,105197,2,0,B|360:136|312:144,1,80,0|8
256,192,105584,5,0
336,216,105778,2,0,B|376:232|376:288,1,80
296,280,106165,1,8
216,280,106359,1,0
137,279,106552,2,0,B|136:232|176:216,1,80
256,192,106939,1,8
312,64,107326,1,0
200,64,107520,1,0
256,128,107907,5,4
256,152,108004,1,0
256,176,108101,1,0
256,200,108197,1,0
256,224,108294,1,0
256,256,108391,1,0
256,280,108488,1,8
432,152,108875,5,0
432,232,109068,1,0
360,96,109262,1,8
360,280,109455,1,0
344,192,109649,2,0,B|256:192|184:192,1,160,0|8
104,192,110230,1,0
184,264,110810,6,0,B|118:308,2,80,8|0|0
256,304,111391,1,0
328,264,111584,2,0,B|395:308,1,80,8|0
408,224,111971,5,0
408,136,112165,1,0
336,88,112358,2,0,B|256:136|184:88,1,160,8|0
104,136,113133,5,8
104,224,113326,1,0
176,176,113520,1,0
256,192,113907,2,8,B|256:112,1,80,8|0
408,48,114681,5,8
380,75,114875,2,0,B|320:128,2,80
408,336,115455,5,8
380,308,115649,2,0,B|320:256,2,80
104,336,116229,5,8
131,308,116423,2,0,B|192:256,2,80
104,48,117004,5,8
131,75,117198,2,0,B|192:128,2,80
256,112,117778,6,0,B|256:192,1,80,8|0
256,280,118165,1,0
168,192,118552,1,8
344,192,118745,1,0
256,192,119133,1,0
120,232,119520,5,0
152,256,119617,1,0
184,272,119714,1,0
216,280,119810,1,0
256,304,119907,1,0
296,280,120004,1,0
328,272,120101,1,8
360,256,120198,1,0
392,232,120294,1,0
256,192,120681,2,0,B|256:280,1,80,0|8
208,304,121262,5,0
304,304,121455,1,0
160,232,121649,1,8
352,232,121842,1,0
256,232,122036,2,0,B|256:152,1,80
176,136,122423,2,0,B|160:88|112:72,1,80,8|0
336,136,122810,2,0,B|352:88|400:72,1,80
200,72,123197,1,8
320,72,123391,1,0
256,144,123584,5,4
256,168,123681,1,0
256,192,123778,1,0
256,216,123874,1,0
256,240,123971,1,8
416,168,124358,5,0
328,200,124552,1,0
392,248,124745,2,0,B|424:328,2,80,8|0|0
328,312,125326,2,0,B|256:264|176:312,1,160
120,248,125907,2,0,B|88:328,2,80,0|0|8
184,200,126487,1,0
96,168,126681,1,0
168,112,126874,2,0,B|88:64,1,80,0|8
344,112,127455,6,0,B|424:64,1,80
400,304,128036,1,0
344,224,128229,1,0
288,304,128423,1,0
232,224,128616,1,8
176,304,128810,1,0
56,176,129390,5,8
152,96,129971,1,0
152,96,130068,1,0
152,96,130165,1,12
256,56,130552,6,0,B|256:136,1,70
312,192,130939,1,8
200,192,131132,1,0
416,192,131519,2,0,B|400:104|312:80,1,160
256,136,132100,1,0
312,192,132294,1,0
200,192,132487,1,8
256,136,132681,1,0
198,80,132874,2,0,B|112:104|96:192,1,160,0|8
256,336,133648,5,0
176,264,134036,1,8
336,264,134229,1,0
256,208,134616,2,0,B|256:120,1,80,0|8
256,48,135003,1,0
168,56,135197,2,0,B|168:104|208:112,1,70
344,56,135584,2,0,B|344:104|304:112,1,70,8|0
256,128,135971,5,0
256,152,136068,1,0
256,176,136165,1,0
256,200,136261,1,0
256,224,136358,1,12
144,288,136745,5,0
144,288,136939,1,0
56,216,137132,2,0,B|88:144,1,80,8|0
136,80,137519,2,0,B|224:80,1,80
376,80,137906,2,0,B|288:80,1,80,8|0
448,128,138294,2,0,B|416:144|400:192|400:192|416:240|448:256,1,160,0|8
368,296,138874,1,0
256,248,139068,5,0
256,224,139164,1,0
256,200,139261,1,0
256,176,139358,1,0
256,152,139455,1,8
200,288,139842,6,0,B|184:240|144:232,1,80
312,288,140229,2,0,B|328:240|368:232,1,80,8|0
112,192,140616,2,0,B|192:192,1,80
400,192,141003,2,0,B|320:192,1,80,8|0
368,112,141390,5,0
375,135,141487,1,0
381,158,141584,1,0
320,288,141777,5,8
314,264,141874,1,0
308,241,141971,1,0
188,121,142164,5,0
194,144,142261,1,0
200,168,142358,1,0
112,288,142552,5,8
106,264,142648,1,0
100,241,142745,1,0
168,136,142939,6,0,B|88:136,2,80,0|0|8
256,136,143519,1,0
344,136,143713,2,0,B|424:136,2,80,0|0|8
256,136,144293,1,0
256,216,144487,6,0,B|256:296,1,80
256,296,144874,1,8
320,264,145068,1,0
184,264,145261,1,0
360,184,145455,1,0
144,184,145648,1,8
384,96,146035,5,0
352,96,146132,1,0
320,96,146229,1,0
288,96,146326,1,0
256,96,146422,1,8
224,96,146519,1,0
192,96,146616,1,0
160,96,146713,1,0
128,96,146810,1,0
256,192,156874,12,0,159971
88,96,160358,5,8
96,112,160454,1,0
104,128,160551,1,0
112,144,160648,1,0
104,168,160745,5,0
112,184,160842,1,0
120,200,160938,1,0
128,216,161035,1,0
120,232,161132,5,8
128,248,161229,1,0
136,264,161325,1,0
144,280,161422,1,0
160,304,161519,5,4
256,328,161906,1,8
344,312,162100,2,0,B|416:280,1,80
440,208,162487,1,0
448,160,162680,1,8
416,120,162874,1,0
336,104,163067,6,0,B|288:32,2,80,0|0|8
296,128,163648,1,0
248,128,163841,2,0,B|208:208,2,80,0|0|12
80,144,164616,6,0,B|64:224,1,80
88,264,165003,1,8
128,288,165196,1,0
216,296,165583,2,0,B|264:344|368:320,1,160
416,288,166164,2,0,B|480:352,2,80,0|0|8
416,232,166745,1,0
400,176,166938,2,0,B|320:200,2,80,0|0|12
320,88,167712,5,0
320,88,167906,1,0
208,72,168099,1,8
208,72,168293,1,0
144,152,168487,1,0
144,152,168680,1,0
256,192,169067,1,0
120,232,169261,6,0,B|152:312,1,80
232,272,169648,5,8
216,232,169745,1,0
200,192,169841,1,0
288,160,170035,6,0,B|320:240,1,80
400,208,170423,5,8
384,168,170520,1,0
368,128,170616,1,0
456,144,170809,5,0
456,240,171002,1,0
376,192,171196,1,8
288,192,171390,2,0,B|208:192,1,80
128,192,171777,1,0
96,192,171873,1,0
64,192,171970,1,8
80,96,172164,1,0
160,96,172357,6,0,B|168:144|224:160,1,80,0|4
352,96,172745,2,0,B|344:144|288:160,1,80,8|4
256,184,173132,1,0
256,208,173229,1,0
256,232,173326,1,0
256,256,173423,1,0
256,280,173519,1,8
256,192,173906,5,0
168,192,174099,2,0,B|80:192,2,70,0|8|0
256,192,174680,1,0
344,192,174874,2,0,B|432:192,2,80,0|8|0
384,112,175454,6,0,B|304:112,1,80
128,112,175841,2,0,B|208:112,1,80,8|0
256,184,176228,1,0
208,248,176422,1,0
304,248,176615,1,12
112,176,177003,6,0,B|104:120|152:64|208:72,1,160,0|8
216,152,177583,1,0
296,152,177777,1,0
304,72,177970,2,0,B|357:64|405:120|397:176,1,160
304,232,178551,1,0
208,232,178744,1,0
360,304,178938,1,8
160,304,179132,1,0
256,272,179325,5,0
256,240,179422,1,0
256,208,179519,1,0
256,176,179615,1,0
256,144,179712,1,12
376,264,180099,6,0,B|392:184,1,80
336,112,180486,6,0,B|320:190,1,80,8|0
136,264,180873,6,0,B|120:184,1,80
176,112,181261,6,0,B|191:190,1,80,8|0
256,136,181648,5,0
312,192,181842,1,0
256,248,182035,1,8
200,192,182229,1,0
256,136,182422,1,0
312,192,182616,1,0
256,248,182809,1,8
152,312,183196,6,0,B|208:240,1,70
360,312,183583,2,0,B|304:240,1,70,8|0
256,192,183970,1,0
312,112,184164,1,0
208,112,184357,1,8
256,40,184551,1,0
168,40,184744,2,0,B|96:48|64:120|96:176,1,160,0|8
120,240,185325,1,0
208,264,185519,2,0,B|368:264,1,160,0|12
168,192,186293,6,0,B|88:192,2,80,0|0|8
256,192,186874,1,0
344,192,187067,2,0,B|424:192,2,80,0|0|8
256,192,187648,1,0
128,272,187842,2,0,B|216:272,1,80
384,272,188228,2,0,B|296:272,1,80,8|0
256,208,188615,1,0
256,128,188809,1,0
256,48,189002,1,8
176,240,189389,5,0
336,144,189583,1,0
144,192,189777,1,8
368,192,189970,1,0
176,144,190164,1,0
336,240,190357,1,0
256,96,190551,1,8
256,280,190744,1,0
213,250,190938,5,0
256,119,191132,1,0
298,250,191325,1,8
187,169,191519,1,0
324,169,191712,1,0
213,250,191906,1,0
256,119,192100,1,8
