osu file format v13

[General]
AudioFilename: Holy Night.mp3
AudioLeadIn: 0
PreviewTime: 73183
Countdown: 0
SampleSet: Soft
StackLeniency: 0.7
Mode: 0
LetterboxInBreaks: 0
WidescreenStoryboard: 1

[Editor]
Bookmarks: 9268,104137
DistanceSpacing: 1
BeatDivisor: 4
GridSize: 4
TimelineZoom: 1

[Metadata]
Title:Holy Night (Short Version.)
TitleUnicode:Holy Night (Short Version.)
Artist:Kugimiya Rie & Kitamura Eri
ArtistUnicode:Kugimiya Rie & Kitamura Eri
Creator:Soldsaga KunG
Version:Normal
Source:Toradora!
Tags:christmas xmas aisaka taiga kawashima ami
BeatmapID:525658
BeatmapSetID:225257

[Difficulty]
HPDrainRate:5
CircleSize:3
OverallDifficulty:3
ApproachRate:4
SliderMultiplier:1.2
SliderTickRate:1

[Events]
//Background and Video events
0,0,"BG.jpg",0,0
//Break Periods
2,30468,35494
//Storyboard Layer 0 (Background)
//Storyboard Layer 1 (Fail)
//Storyboard Layer 2 (Pass)
//Storyboard Layer 3 (Foreground)
//Storyboard Sound Samples
//Background Colour Transformations
3,100,163,162,255

[TimingPoints]
1905,545.454545454546,4,2,1,50,1,0
6268,-100,4,2,1,50,0,1
6405,-100,4,2,1,50,0,0
6677,-100,4,2,3,30,0,0
6950,-100,4,2,1,55,0,0
17041,-100,4,2,4,40,0,0
17314,-100,4,2,1,55,0,0
19632,-100,4,2,1,55,0,0
20177,-100,4,2,1,60,0,0
20723,-100,4,2,1,65,0,0
21268,-100,4,2,1,50,0,0
21814,-100,4,2,1,55,0,0
22359,-100,4,2,1,60,0,0
22905,-100,4,2,1,65,0,0
23596,-100,4,2,1,50,0,0
25768,-100,4,2,1,55,0,0
26859,-100,4,2,3,22,0,0
27405,-100,4,2,1,55,0,0
28086,-100,4,2,2,45,0,1
28223,-100,4,2,2,45,0,0
36132,-100,4,2,3,22,0,0
36677,-100,4,2,2,45,0,0
52905,-100,4,2,0,45,0,0
53450,-100,4,2,2,45,0,0
54132,-100,4,2,2,35,0,0
62995,-100,4,2,2,45,0,0
64223,-100,4,2,2,30,0,0
64495,-100,4,2,2,45,0,0
68314,-100,4,2,0,45,0,0
68586,-100,4,2,2,45,0,0
68859,-100,4,2,2,45,0,0
69132,-100,4,2,2,45,0,0
69950,-100,4,2,2,48,0,0
70490,-100,4,2,2,51,0,0
71041,-100,4,2,2,54,0,0
71586,-100,4,2,2,57,0,0
72677,-100,4,2,3,25,0,0
73359,-100,4,2,2,45,0,1
73905,-100,4,2,2,60,0,1
74859,-100,4,2,0,60,0,1
75132,-100,4,2,2,60,0,1
91198,-100,4,2,1,50,0,1
91495,-100,4,2,2,60,0,1
92314,-100,4,2,0,60,0,1
92586,-100,4,2,2,60,0,1
93405,-100,4,2,1,50,0,1
93677,-100,4,2,2,60,0,1
94495,-100,4,2,0,60,0,1
94768,-100,4,2,2,60,0,1
97905,-100,4,2,2,60,0,0

[HitObjects]
108,68,6268,5,4,0:0:0:0:
40,168,6814,2,0,P|104:200|168:180,1,120,0|2,0:0|0:0,0:0:0:0:
244,264,7905,2,0,P|276:200|256:136,1,120,0|2,0:0|0:0,0:0:0:0:
276,36,8995,2,0,L|424:36,2,120,0|2|0,0:0|0:0|0:0,0:0:0:0:
340,136,10632,6,0,P|308:200|328:264,1,120,2|0,0:0|0:0,0:0:0:0:
356,360,11723,2,0,P|297:366|246:336,1,120,2|0,0:0|0:0,0:0:0:0:
232,216,12814,2,0,L|232:96,2,120,2|0|2,0:0|0:0|0:0,0:0:0:0:
140,140,14450,6,0,L|140:284,1,120,0|2,0:0|0:0,0:0:0:0:
244,320,15541,2,0,L|372:320,1,120,0|2,0:0|0:0,0:0:0:0:
436,224,16632,1,0,0:0:0:0:
436,104,17177,1,2,0:0:0:0:
316,104,17723,1,0,0:0:0:0:
316,224,18268,2,0,P|256:248|184:220,2,120,2|0|2,0:0|0:0|0:0,0:0:0:0:
256,192,19905,12,0,22632,0:0:0:0:
92,112,23723,6,0,P|80:184|216:240,1,240,2|2,0:0|0:0,0:0:0:0:
420,112,25905,2,0,P|432:184|296:240,1,240,2|2,0:0|0:0,0:0:0:0:
256,192,28086,12,0,30268,0:0:0:0:
120,68,36814,6,0,P|96:132|120:188,2,120,4|8|0,0:0|0:0|0:0,0:0:0:0:
224,132,38450,1,8,0:0:0:0:
328,68,38995,2,0,P|352:132|328:188,2,120,2|8|0,0:0|0:0|0:0,0:0:0:0:
224,132,40632,1,8,0:0:0:0:
156,232,41177,6,0,P|140:292|152:352,1,120,0|8,0:0|0:0,0:0:0:0:
256,296,42268,2,0,P|312:316|380:308,1,120,0|8,0:0|0:0,0:0:0:0:
456,224,43359,2,0,L|468:84,2,120,0|8|0,0:0|0:0|0:0,0:0:0:0:
488,340,44995,1,8,0:0:0:0:
371,310,45541,6,0,P|320:292|256:296,3,120,0|8|0|8,0:0|0:0|0:0|0:0,0:0:0:0:
160,360,47723,6,0,P|129:309|135:251,3,120,0|8|0|8,0:0|0:0|0:0|0:0,0:0:0:0:
252,224,49905,6,0,L|252:160,2,60,0|0|8,0:0|0:0|0:0,0:0:0:0:
368,256,50995,2,0,L|368:192,2,60,0|0|8,0:0|0:0|0:0,0:0:0:0:
484,288,52086,2,0,B|484:76|484:76|404:44|320:76,1,360,0|8,0:0|0:0,0:0:0:0:
276,172,54268,6,0,L|132:176,1,120,4|2,0:0|0:0,0:0:0:0:
216,280,55359,2,0,L|72:284,1,120,0|2,0:0|0:0,0:0:0:0:
80,164,56450,2,0,L|68:92,4,60,0|0|2|0|0,0:0|0:0|0:0|0:0|0:0,0:0:0:0:
76,284,58086,1,2,0:0:0:0:
196,280,58632,6,0,L|280:288,2,60,0|0|2,0:0|0:0|0:0,0:0:0:0:
268,184,59723,2,0,L|352:192,2,60,2|0|2,3:0|0:0|0:0,0:0:0:0:
148,172,60814,2,0,L|136:52,2,120,0|2|0,0:0|0:0|0:0,0:0:0:0:
156,292,62450,1,2,0:0:0:0:
272,320,62995,6,0,B|340:328|340:328|416:296,1,120,4|8,0:0|3:0,0:0:0:0:
496,256,64086,2,0,B|504:188|504:188|472:112,1,120,0|8,0:0|3:0,0:0:0:0:
372,96,65177,2,0,L|296:104,2,60,2|0|8,0:0|0:0|3:0,0:0:0:0:
300,192,66268,2,0,L|359:185,2,60,2|0|8,0:0|0:0|3:0,0:0:0:0:
296,312,67359,6,0,P|216:296|216:200,2,180,0|0|8,0:0|0:0|3:0,3:0:0:0:
416,324,69541,2,0,L|480:336,2,60,0|0|8,0:0|0:0|3:0,3:0:0:0:
420,204,70632,2,0,L|356:216,2,60,0|0|8,0:0|0:0|3:0,3:0:0:0:
256,192,71723,12,4,73905,0:0:0:0:
256,72,74450,6,0,L|256:328,1,240,8|8,0:0|0:0,0:0:0:0:
372,336,76086,2,0,B|404:280|404:280|372:224,1,120,0|8,0:0|0:0,0:0:0:0:
328,124,77177,2,0,B|296:68|296:68|328:12,1,120,0|8,0:0|0:0,0:0:0:0:
440,40,78268,6,0,L|440:172,2,120,2|8|0,0:0|0:0|0:0,0:0:0:0:
320,40,79905,1,8,0:0:0:0:
200,40,80450,2,0,P|160:136|256:204,1,240,2|0,0:0|0:0,0:0:0:0:
324,304,82086,6,0,L|200:304,2,120,8|4|8,0:0|0:0|0:0,0:0:0:0:
416,224,83723,1,0,0:0:0:0:
416,104,84268,1,8,0:0:0:0:
312,164,84814,5,2,0:0:0:0:
228,252,85359,1,8,0:0:0:0:
196,136,85905,2,0,L|112:40,2,120,0|8|2,0:0|0:0|0:0,0:0:0:0:
256,192,87541,12,0,90268,0:0:0:0:
144,116,91359,6,0,P|72:192|168:232,1,240,4|2,0:0|0:0,0:0:0:0:
372,116,93541,2,0,P|444:192|348:232,1,240,4|2,0:0|0:0,0:0:0:0:
256,192,95723,12,4,97905,0:0:0:0:
