osu file format v13

[General]
AudioFilename: 32 - Heartcatch Paradise! (TV size).mp3
AudioLeadIn: 0
PreviewTime: 59562
Countdown: 0
SampleSet: None
StackLeniency: 0.7
Mode: 0
LetterboxInBreaks: 0
WidescreenStoryboard: 0

[Editor]
Bookmarks: 100720
DistanceSpacing: 1
BeatDivisor: 4
GridSize: 8
TimelineZoom: 1.2

[Metadata]
Title:HeartcatchParadise! (TV size)
TitleUnicode:Heartcatch☆Paradise! (TV size)
Artist:Kudou Mayu
ArtistUnicode:Kudou Mayu
Creator:Amelia
Version:Normal
Source:Heartcatch Precure!
Tags:Heartcatch Precure pretty cure
BeatmapID:554350
BeatmapSetID:239778

[Difficulty]
HPDrainRate:4
CircleSize:3
OverallDifficulty:4
ApproachRate:6
SliderMultiplier:0.999999999999999
SliderTickRate:2

[Events]
//Background and Video events
0,0,"bg.jpg",0,0
//Break Periods
//Storyboard Layer 0 (Background)
//Storyboard Layer 1 (Fail)
//Storyboard Layer 2 (Pass)
//Storyboard Layer 3 (Foreground)
//Storyboard Sound Samples
//Background Colour Transformations

[TimingPoints]
387,365.853658536585,4,1,0,50,1,0
59654,-100,4,1,0,100,0,1
70995,-100,4,1,0,100,0,0

[Colours]
Combo1 : 224,0,84
Combo2 : 0,102,240

[HitObjects]
128,144,6241,6,0,L|248:144,1,99.9999999999999,0|0,1:0|2:0,0:0:0:0:
228,208,6973,2,0,L|128:208,1,99.9999999999999,0|0,0:0|2:0,0:0:0:0:
256,192,7704,12,0,8436,0:0:0:0:
388,144,9168,6,0,L|288:144,1,99.9999999999999,0|0,0:0|2:0,0:0:0:0:
288,208,9900,2,0,L|408:208,1,99.9999999999999,0|0,0:0|2:0,0:0:0:0:
256,192,10631,12,0,11363,0:0:0:0:
176,192,12095,6,0,L|256:112,1,99.9999999999999
265,121,12826,2,0,L|336:192,1,99.9999999999999
308,232,13558,2,0,L|208:232,2,99.9999999999999,0|0|0,0:0|0:0|0:0,0:0:0:0:
256,192,15021,12,0,16119,0:0:0:0:
48,208,17948,6,0,L|152:208,1,99.9999999999999
216,208,18680,2,0,L|320:208,1,99.9999999999999,0|0,0:0|2:0,0:0:0:0:
384,208,19412,2,0,L|488:208,1,99.9999999999999,0|0,0:0|2:0,0:0:0:0:
296,176,20143,5,0,0:0:0:0:
296,176,20509,1,0,0:0:0:0:
296,176,20875,2,0,L|192:176,2,99.9999999999999,0|0|0,0:0|2:0|0:0,0:0:0:0:
128,176,21973,6,0,L|24:176,1,99.9999999999999,0|0,0:0|2:0,0:0:0:0:
32,256,22704,1,0,0:0:0:0:
32,256,23070,2,0,L|152:256,1,99.9999999999999
208,256,24168,2,0,L|328:256,1,99.9999999999999
384,256,24899,6,0,L|488:256,1,99.9999999999999
208,192,25631,2,0,L|408:192,1,200
384,104,26729,2,0,L|284:104,3,99.9999999999999,0|0|0|0,0:0|0:0|0:0|0:0,0:0:0:0:
168,104,28192,1,0,0:0:0:0:
32,104,29655,6,0,L|152:104,3,99.9999999999999,0|0|0|0,0:0|0:0|0:0|0:0,0:0:0:0:
136,176,31119,1,0,0:0:0:0:
136,176,31485,2,0,L|240:176,2,99.9999999999999,0|0|0,0:0|0:0|0:0,0:0:0:0:
344,176,32582,2,0,L|448:176|440:176,2,99.9999999999999,0|0|0,0:0|0:0|0:0,0:0:0:0:
256,192,33680,12,0,34777,0:0:0:0:
176,192,35509,6,0,P|152:136|256:136,2,200,0|0|0,0:0|0:0|0:0,0:0:0:0:
256,200,37338,1,0,0:0:0:0:
256,200,37704,1,0,0:0:0:0:
256,200,38436,6,0,L|312:200,2,50,0|0|0,0:0|0:0|0:0,0:0:0:0:
184,200,39167,1,0,0:0:0:0:
112,200,39533,2,0,L|216:152,3,99.9999999999999,0|0|0|0,0:0|0:0|0:0|0:0,0:0:0:0:
136,256,41362,1,0,0:0:0:0:
208,256,41728,1,0,0:0:0:0:
280,256,42094,1,0,0:0:0:0:
352,256,42460,2,0,L|464:256,3,99.9999999999999,0|0|0|0,0:0|0:0|0:0|0:0,0:0:0:0:
256,192,44289,12,0,45753,0:0:0:0:
160,192,47216,6,0,L|360:192,1,200
360,256,48314,1,0,0:0:0:0:
360,256,48679,6,0,L|160:256,1,200,0|0,0:0|0:0,0:0:0:0:
160,192,50143,1,0,0:0:0:0:
104,192,50509,1,0,0:0:0:0:
104,136,50875,1,0,0:0:0:0:
104,80,51240,1,0,0:0:0:0:
160,80,51606,1,0,0:0:0:0:
256,80,51972,2,0,L|256:136,2,50,0|0|0,0:0|0:0|0:0,0:0:0:0:
256,160,53070,2,0,L|376:160,3,99.9999999999999,0|0|0|0,0:0|0:0|0:0|0:0,0:0:0:0:
360,240,54533,1,0,0:0:0:0:
256,272,54899,1,0,0:0:0:0:
152,240,55265,2,0,B|128:208|128:168|160:136,2,99.9999999999999,0|0|0,0:0|0:0|0:0,0:0:0:0:
256,192,56362,12,0,57460,0:0:0:0:
256,192,57826,12,0,58923,0:0:0:0:
144,240,59655,6,0,B|120:224|120:168|152:152,1,99.9999999999999
256,120,60387,1,0,0:0:0:0:
361,153,60752,2,0,B|392:168|392:224|368:240,1,99.9999999999999
256,288,61484,2,0,L|256:184,3,99.9999999999999,0|0|0|0,0:0|0:0|0:0|0:0,0:0:0:0:
120,184,63313,2,0,B|120:144|144:120|192:112,1,99.9999999999999
256,112,64045,1,0,0:0:0:0:
336,112,64411,2,0,B|371:117|395:141|395:181,1,99.9999999999999
256,176,65508,2,0,L|256:232,2,50,0|0|0,0:0|0:0|0:0,0:0:0:0:
72,160,66240,1,0,0:0:0:0:
160,104,66972,1,0,0:0:0:0:
256,80,67338,1,0,0:0:0:0:
352,104,67704,1,0,0:0:0:0:
416,160,68069,1,0,0:0:0:0:
424,248,68435,1,0,0:0:0:0:
352,296,68801,2,0,P|304:320|256:288,2,99.9999999999999,0|0|0,0:0|0:0|0:0,0:0:0:0:
256,192,69899,12,0,70996,0:0:0:0:
128,240,71362,5,0,0:0:0:0:
128,176,71728,1,0,0:0:0:0:
128,120,72094,2,0,B|208:88|304:80|368:96|432:120,1,300
421,116,73557,1,0,0:0:0:0:
184,208,74289,2,0,P|176:184|184:160,2,50,0|0|0,0:0|0:0|0:0,0:0:0:0:
184,208,75021,2,0,P|248:240|280:216,1,99.9999999999999
352,184,75752,1,0,0:0:0:0:
376,96,76118,2,0,P|360:48|304:40,1,99.9999999999999
256,72,77216,2,0,L|256:184,1,99.9999999999999
256,172,77947,1,0,0:0:0:0:
256,172,78679,1,0,0:0:0:0:
256,172,79045,2,0,P|304:208|360:192,3,99.9999999999999,0|0|0|0,0:0|0:0|0:0|0:0,0:0:0:0:
424,192,80508,1,0,0:0:0:0:
424,192,80874,1,0,0:0:0:0:
256,192,81606,1,0,0:0:0:0:
256,192,81972,1,0,0:0:0:0:
256,192,82337,12,0,83069,0:0:0:0:
176,224,83801,6,0,P|160:184|184:136,1,99.9999999999999
336,224,84533,6,0,P|352:184|328:136,1,99.9999999999999
256,120,85264,2,0,L|256:176,4,50,0|0|0|0|0,0:0|0:0|0:0|0:0|0:0,0:0:0:0:
128,192,86728,2,0,P|144:128|184:112,2,99.9999999999999,0|0|0,0:0|0:0|0:0,0:0:0:0:
256,200,87825,1,0,0:0:0:0:
376,192,88191,2,0,P|368:136|328:112,1,99.9999999999999
256,200,88923,1,0,0:0:0:0:
