osu file format v7

[General]
AudioFilename: Satori ~3rd eyes~.mp3
AudioLeadIn: 1000
PreviewTime: 34222
Countdown: 0
SampleSet: Normal
StackLeniency: 0.4
Mode: 0
LetterboxInBreaks: 0
SkinPreference:Touhou

[Editor]
Bookmarks: 2809,14117,24170,34222,44275,54327,64379,74432,84484,97049,110871,120924,130976,141028
DistanceSpacing: 1
BeatDivisor: 4
GridSize: 32

[Metadata]
Title:Satori ~3rd eyes~
Artist:Kucchy vs Akky
Creator:DJPop
Version:Hard
Source:Otona no Raku ga Kichou
Tags:touhou komeiji satori

[Difficulty]
HPDrainRate:4
CircleSize:4
OverallDifficulty:6
SliderMultiplier:1.6
SliderTickRate:1

[Events]
//Background and Video events
Video,-1130,"Satori ~3rd eyes~.avi"
0,0,"Satori ~3rd eyes~.png"
//Break Periods
//Storyboard Layer 0 (Background)
//Storyboard Layer 1 (Fail)
//Storyboard Layer 2 (Pass)
//Storyboard Layer 3 (Foreground)
//Storyboard Sound Samples
//Background Colour Transformations
3,100,0,0,0

[TimingPoints]
296,314.13612565445,4,1,1,80,1,0
22756,-100,4,1,2,80,0,0
23385,-100,4,2,2,80,0,0
24170,-100,4,1,1,80,0,0
33201,-100,4,1,2,80,0,0
34144,-100,4,1,1,80,0,0
43568,-100,4,2,2,80,0,0
44196,-100,4,1,1,80,0,0
50165,-100,4,1,2,80,0,0
50479,-100,4,1,1,80,0,0
51343,-100,4,2,2,80,0,0
51735,-100,4,1,2,80,0,0
52599,-100,4,2,2,80,0,0
53070,-200,4,1,1,80,0,0
54641,-100,4,1,1,80,0,0
65008,-100,4,2,0,40,0,0
73332,-100,4,2,1,40,0,0
74275,-100,4,1,1,60,0,0
84405,-100,4,1,1,80,0,0
91945,-100,4,1,2,80,0,0
97049,-100,4,1,1,80,0,0
116683,-100,4,2,2,80,0,0
117076,-100,4,1,1,80,0,0
117939,-100,4,2,2,80,0,0
118332,-100,4,1,2,80,0,0
118568,-100,4,2,2,80,0,0
118960,-100,4,1,2,80,0,0
119196,-100,4,2,2,80,0,0
119589,-100,4,1,2,80,0,0
120138,-100,4,2,2,80,0,0
120924,-100,4,1,1,80,0,1
122730,-100,4,2,1,80,0,1
122966,-100,4,1,1,80,0,1
129563,-100,4,2,2,80,0,1
130898,-100,4,1,1,80,0,1
135924,-100,4,2,2,80,0,1
141028,-100,4,2,1,0,0,1
143856,-100,4,2,1,0,0,0

[Colours]
Combo1 : 0,255,0
Combo2 : 0,255,255
Combo3 : 255,0,255
Combo4 : 255,255,0

[HitObjects]
288,192,2809,5,0
352,160,2966,1,0
416,128,3123,1,0
480,96,3280,1,0
480,256,3594,5,0
416,288,3751,1,0
352,320,3908,1,0
288,352,4065,1,0
288,192,4379,5,0
256,32,4693,1,0
224,192,5008,1,0
224,352,5322,5,0
160,320,5479,1,0
96,288,5636,1,0
32,256,5793,1,0
32,96,6107,5,0
96,128,6264,1,0
160,160,6421,1,0
224,192,6578,1,0
256,32,6892,5,0
288,192,7206,5,0
352,160,7364,1,0
416,128,7521,1,0
480,96,7678,1,0
448,32,7835,5,0
384,64,7992,1,0
320,96,8149,1,0
256,128,8306,1,0
256,288,8620,5,0
192,256,8777,1,0
128,224,8934,1,0
64,192,9091,1,0
64,32,9405,5,0
64,192,9720,1,0
64,352,10034,5,0
128,320,10191,1,0
192,352,10348,1,0
448,352,10819,5,0
480,288,10976,1,0
448,32,11447,5,0
480,96,11604,1,0
256,192,12390,5,0
256,192,12547,1,0
256,192,12704,1,0
416,192,14117,5,0
256,352,14432,1,0
96,192,14746,1,0
256,32,15060,1,0
384,256,15374,5,0
192,320,15688,1,0
128,128,16002,1,0
320,64,16316,1,0
320,288,16631,5,0
160,256,16945,1,0
192,96,17259,1,0
352,128,17573,1,0
256,320,17887,5,0
128,192,18201,1,0
256,64,18515,1,0
384,192,18830,1,0
320,224,18987,1,0
256,192,19144,5,8
144,320,19458,1,8
32,192,19772,1,8
144,64,20086,1,8
256,192,20400,5,8
368,320,20714,1,8
480,192,21028,1,8
368,64,21343,1,8
256,192,21657,5,8
256,32,21971,1,8
256,192,22285,1,8
256,352,22599,1,8
256,192,22913,6,0,C|96:192,1,160,12|4
24,32,23542,2,0,B|32:48|56:67|80:48|88:32,1,80,4|4
152,32,23856,2,0,C|192:32,4,40,2|2|2|2|4
448,96,24798,5,0
480,157,24955,1,0
480,227,25112,1,0
448,288,25269,1,0
256,192,26055,5,0
256,192,26212,1,0
256,192,26369,1,0
64,288,27311,5,0
32,227,27468,1,0
32,157,27625,1,0
64,96,27782,1,0
192,192,28097,5,0
352,192,28411,1,0
416,229,28568,1,0
416,155,28725,1,0
480,192,28882,1,0
480,352,29196,5,8
320,352,29510,1,8
160,352,29824,2,0,C|80:352,1,80,8|0
112,288,30138,2,0,C|32:288,1,80,8|0
64,224,30453,5,8
32,64,30767,1,8
192,32,31081,1,8
256,64,31238,1,0
320,32,31395,1,8
480,64,31709,5,8
448,224,32023,1,8
352,352,32337,2,0,C|352:272,1,80,8|0
288,304,32652,2,0,C|288:224,1,80,8|0
224,256,32966,5,8
96,352,33280,1,4
64,192,33594,1,4
192,96,33908,1,4
320,192,34222,5,4
384,224,34379,1,0
416,288,34536,1,0
480,320,34693,1,0
480,160,35008,5,0
416,128,35165,1,0
384,64,35322,1,0
320,32,35479,2,0,C|160:32,3,160
32,128,36735,5,0
96,160,36892,1,0
128,224,37049,1,0
96,288,37206,1,0
224,192,37521,1,0
192,256,37678,1,0
224,320,37835,1,0
288,352,37992,6,0,C|448:352,3,160
480,192,39248,5,8
448,128,39405,1,0
416,64,39563,1,8
352,96,39720,2,0,B|302:108|288:64,1,80,0|8
224,32,40034,1,0
160,64,40191,1,8
96,96,40348,1,0
32,128,40505,6,0,C|32:288,2,160,8|8|8
192,160,41447,2,0,B|145:180|160:224,1,80,8|0
128,288,41761,5,8
160,352,41919,1,0
192,288,42076,1,8
224,352,42233,1,0
256,288,42390,1,8
288,352,42547,1,0
320,288,42704,1,8
352,352,42861,1,0
384,288,43018,6,0,C|480:160,1,160,12|8
384,32,43646,2,0,C|448:88,3,80,2|2|2|2
384,128,44275,5,12
320,96,44432,1,0
256,64,44589,1,8
192,32,44746,2,0,C|152:112,1,80,0|8
96,64,45060,1,0
64,128,45217,1,8
32,192,45374,1,0
64,256,45531,5,8
192,352,45845,1,8
320,256,46159,1,8
448,352,46474,1,8
480,192,46788,5,8
416,160,46945,1,0
352,128,47102,1,8
288,160,47259,2,0,C|224:208,1,80,0|8
160,176,47573,1,0
96,208,47730,1,8
36,168,47887,1,0
32,96,48044,5,8
192,64,48358,1,8
352,32,48672,1,8
416,64,48830,1,0
480,96,48987,1,8
480,168,49144,1,0
480,240,49301,6,0,C|480:320,1,80,4|0
416,240,49615,2,0,C|416:320,1,80,0|0
256,240,50086,2,0,C|256:320,1,80,0|4
192,240,50400,2,0,C|192:320,1,80,0|4
32,240,50871,5,0
32,80,51186,1,0
192,80,51500,1,4
248,32,51657,1,4
304,80,51814,6,0,B|416:68|416:160,1,160,4|4
480,192,52285,1,0
415,225,52442,2,0,B|416:316|304:304,1,160,4|4
248,352,52913,1,4
192,304,53070,6,0,B|96:288|67:192|96:96|193:80,1,320,0|4
480,192,54955,5,0
416,192,55112,1,0
352,192,55269,1,0
288,192,55426,1,0
224,192,55583,5,0
128,32,55898,1,0
32,192,56212,1,0
128,352,56526,1,0
224,192,56840,1,0
480,288,57468,5,0
480,224,57625,1,0
480,160,57782,1,0
480,96,57939,1,0
256,32,58411,5,0
120,112,58725,1,0
120,272,59039,1,0
256,352,59353,1,0
32,96,59981,5,0
32,160,60138,1,0
32,224,60295,1,0
32,288,60453,1,0
256,192,60924,5,0
368,352,61238,1,0
480,192,61552,1,0
368,32,61866,1,0
96,256,62494,5,0
40,224,62652,1,0
40,160,62809,1,0
96,128,62966,1,0
96,192,63123,5,0
256,32,63437,1,0
416,192,63751,1,0
256,352,64065,1,0
256,192,64379,1,4
480,192,65636,5,0
368,192,65950,1,0
256,192,66264,1,0
144,192,66578,1,0
32,192,66892,1,0
256,48,68463,5,0
256,144,68777,1,0
256,240,69091,1,0
256,336,69405,1,0
64,192,70976,5,0
192,192,71290,1,0
320,192,71604,1,0
448,192,71919,1,0
256,348,73175,5,0
256,244,73489,1,6
256,140,73803,1,6
256,36,74117,1,6
96,32,74432,6,0,B|8:60|32:160,1,160
96,192,74903,1,0
31,225,75060,2,0,B|8:324|96:352,1,160
160,320,75531,1,0
224,288,75688,6,0,C|248:240,3,53.3333333333333
320,256,76159,2,0,B|327:324|384:352,2,120
384,224,76788,1,0
448,192,76945,6,0,C|472:144,3,53.3333333333333
408,112,77416,2,0,B|404:43|480:32,2,120
336,96,78044,1,0
272,64,78201,6,0,C|112:64,1,160
72,128,78672,2,0,C|232:128,1,160
192,192,79144,2,0,C|32:192,1,160
32,192,79536,5,0
48,264,79693,1,0
48,264,79772,2,0,C|176:264,2,120
64,336,80400,1,0
136,336,80557,1,0
208,336,80714,6,0,C|336:336,2,120
240,264,81343,2,0,C|368:264,2,120
256,192,81971,6,0,B|366:212|432:176|464:112,2,240
256,120,83070,1,0
256,48,83227,6,0,B|146:28|80:64|48:128,2,240,0|0|0
328,40,84327,1,0
400,32,84484,6,0,B|480:66|480:160,1,160,8|8
416,192,84955,1,0
479,225,85112,2,0,B|480:318|400:352,1,160,8|8
328,352,85583,1,0
256,352,85740,6,0,C|200:352,3,53.3333333333333,8|0|0|8
200,280,86212,2,0,C|280:280,2,80,0|8|0
136,320,86683,2,0,C|56:320,1,80,8|0
56,248,86997,6,0,C|56:192,3,53.3333333333333,8|0|0|8
128,192,87468,2,0,C|208:192,2,80,0|8|0
88,128,87939,2,0,C|88:48,1,80,8|0
160,48,88253,6,0,C|320:48,1,160,8|8
320,120,88725,1,0
320,192,88882,2,0,C|480:192,1,160,8|8
480,352,89510,6,0,C|400:352,1,80,12|0
400,272,89824,2,0,C|320:272,1,80,8|0
320,352,90138,2,0,C|240:352,1,80,8|0
240,272,90453,2,0,C|160:272,1,80,8|0
88,272,90767,6,0,C|48:272,2,40,12|0|0
120,208,91081,2,0,C|80:208,2,40,8|0|0
144,144,91395,2,0,C|104:144,2,40,8|0|0
176,80,91709,2,0,C|136:80,2,40,8|0|0
240,48,92023,6,0,C|400:48,1,160,12|12
400,120,92494,1,0
400,192,92652,2,0,C|240:192,1,160,12|12
240,264,93122,1,0
240,336,93280,6,0,C|400:336,1,160,12|12
448,280,93751,1,0
480,216,93908,2,0,C|480:176,7,40,12|0|0|0|12|0|8|0
256,192,94536,12,4,97049
96,192,98306,5,0
256,352,98620,1,0
416,192,98934,1,0
256,32,99248,1,0
256,192,99563,5,0
256,192,99720,1,0
96,128,100034,5,0
32,157,100191,1,0
32,227,100348,1,0
96,256,100505,2,0,B|104:272|128:291|152:272|160:256,1,80,8|8
192,192,100819,5,0
221,128,100976,1,0
291,128,101133,1,0
320,192,101290,1,0
192,288,101604,5,0
221,352,101761,1,0
291,352,101919,1,0
320,288,102076,1,0
448,192,102390,5,0
448,32,102704,1,0
288,32,103018,1,0
128,32,103332,5,0
64,64,103489,1,0
32,128,103646,1,0
64,192,103803,1,0
128,352,104117,5,0
64,320,104275,1,0
32,256,104432,1,0
64,192,104589,1,0
224,192,104903,5,0
320,64,105217,5,0
384,32,105374,1,0
448,64,105531,1,0
480,128,105688,1,0
448,192,105845,1,8
384,224,106002,1,0
320,192,106159,1,8
288,128,106316,6,0,C|208:128,1,80,0|8
144,96,106631,1,0
80,128,106788,1,8
48,192,106945,1,0
80,256,107102,5,8
232,296,107416,1,8
384,336,107730,1,8
384,176,108044,5,8
384,104,108201,1,0
384,32,108358,2,0,C|224:32,1,160,8|8
160,59,108830,1,0
160,128,108987,2,0,C|160:288,1,160,8|8
133,352,109458,1,0
64,352,109615,5,12
32,192,109929,1,0
64,32,110243,1,0
136,32,110400,1,0
208,32,110557,1,0
280,32,110714,1,0
352,32,110871,6,0,C|432:32,1,80,12|0
352,104,111186,2,0,C|432:104,1,80,8|0
352,176,111500,1,8
352,248,111657,2,0,C|432:248,1,80,0|8
352,320,111971,2,0,C|432:320,1,80,0|8
272,352,112442,5,8
112,352,112756,1,8
32,208,113070,1,8
160,112,113385,6,0,C|160:32,1,80,8|0
232,112,113700,2,0,C|232:32,1,80,8|0
304,112,114014,1,8
376,112,114171,2,0,C|376:32,1,80,0|8
448,112,114485,2,0,C|448:32,1,80,0|8
448,192,114955,5,8
320,288,115269,2,0,C|280:360,1,80,8|0
206,357,115583,2,0,C|168:288,1,80,8|0
96,288,115898,5,12
32,256,116055,1,0
96,224,116212,1,8
160,192,116369,1,0
96,160,116526,1,8
32,128,116683,1,0
96,96,116840,1,12
160,64,116997,1,4
96,32,117154,1,12
256,32,117468,5,8
416,32,117782,1,8
416,192,118097,5,12
352,160,118254,1,4
288,128,118411,1,12
288,288,118725,5,12
352,320,118882,1,4
416,352,119039,1,12
416,192,119353,5,12
448,128,119510,1,4
480,64,119667,1,4
320,64,119981,5,4
320,224,120295,1,4
288,288,120453,1,4
256,352,120610,2,0,C|216:352,4,40,2|2|2|2|4
256,32,121552,5,0
96,32,121866,1,0
32,192,122180,2,0,B|16:304|111:351|208:304|192:191,1,320
320,96,123123,5,0
384,64,123280,1,0
448,32,123437,1,0
352,160,123751,1,0
416,128,123908,1,0
480,96,124065,1,0
384,224,124379,1,0
480,352,124693,5,0
256,256,125165,1,0
32,352,125636,1,0
32,192,125950,5,0
32,32,126264,1,0
32,112,126421,1,0
256,32,126892,5,0
256,192,127206,1,0
256,352,127521,1,0
256,272,127678,1,0
480,352,128149,5,0
480,192,128463,1,0
480,32,128777,1,0
480,112,128934,1,0
256,192,129405,5,0
96,192,129720,1,12
96,192,129877,1,12
256,192,130191,1,12
416,192,130505,1,12
256,192,130819,1,12
256,120,130976,6,0,B|224:27|128:64,1,160,12|8
32,192,131604,1,8
128,320,131919,1,8
288,320,132233,2,0,C|448:320,2,160,8|8|8
192,192,133175,5,8
128,160,133332,1,8
64,128,133489,1,8
192,32,133803,5,8
256,64,133960,1,0
320,96,134117,1,8
480,32,134432,5,8
480,192,134746,1,8
480,352,135060,5,8
416,320,135217,1,0
384,256,135374,1,8
384,96,135688,5,8
352,160,135845,1,8
288,192,136002,1,12
192,320,136316,5,12
96,192,136631,5,12
96,192,136788,1,12
192,64,137102,5,12
128,32,137259,1,12
64,64,137416,1,12
160,192,137730,5,12
64,320,138044,5,12
224,256,138358,5,12
288,288,138515,5,12
352,320,138672,1,12
416,288,138830,1,0
416,96,139144,5,12
352,64,139301,1,12
288,96,139458,1,0
472,192,139772,5,12
328,192,140086,1,12
184,192,140400,1,12
40,192,140714,1,12
256,192,141028,12,0,143542
