osu file format v12

[General]
AudioFilename: My Love.mp3
AudioLeadIn: 500
PreviewTime: 53498
Countdown: 0
SampleSet: Soft
StackLeniency: 0.7
Mode: 0
LetterboxInBreaks: 0
WidescreenStoryboard: 1

[Editor]
DistanceSpacing: 1
BeatDivisor: 4
GridSize: 4
TimelineZoom: 1

[Metadata]
Title:My Love
TitleUnicode:My Love
Artist:Kuba Oms
ArtistUnicode:Kuba Oms
Creator:W h i t e
Version:Normal
Source:ADHD
Tags:Monthly Beatmapping Contest Electronic folk pop w_h_i_t_e
BeatmapID:397536
BeatmapSetID:163112

[Difficulty]
HPDrainRate:3
CircleSize:3
OverallDifficulty:3
ApproachRate:4
SliderMultiplier:1
SliderTickRate:2

[Events]
//Background and Video events
0,0,"bg.jpg",0,0
//Break Periods
2,69869,83350
2,152170,158350
//Storyboard Layer 0 (Background)
//Storyboard Layer 1 (Fail)
//Storyboard Layer 2 (Pass)
//Storyboard Layer 3 (Foreground)
//Storyboard Sound Samples
//Background Colour Transformations
3,100,163,162,255

[TimingPoints]
2170,468.75,4,2,0,40,1,0
4045,-100,4,2,0,30,0,0
4162,-100,4,2,0,40,0,0
5920,-100,4,2,0,30,0,0
6037,-100,4,2,0,40,0,0
7795,-100,4,2,0,30,0,0
7912,-100,4,2,0,40,0,0
9670,-100,4,2,0,40,0,0
9787,-100,4,2,0,50,0,0
11545,-100,4,2,0,40,0,0
11662,-100,4,2,0,50,0,0
13420,-100,4,2,0,40,0,0
13537,-100,4,2,0,50,0,0
15295,-100,4,2,0,40,0,0
15412,-100,4,2,0,50,0,0
17170,-100,4,2,0,40,0,0
17287,-100,4,2,0,50,0,0
19045,-100,4,2,0,40,0,0
19162,-100,4,2,0,50,0,0
20920,-100,4,2,0,40,0,0
21037,-100,4,2,0,50,0,0
22795,-100,4,2,0,40,0,0
22912,-100,4,2,0,50,0,0
24670,-100,4,2,0,70,0,0
53732,-100,4,2,0,40,0,0
54670,-100,4,2,0,80,0,1
55138,-100,4,2,0,60,0,1
55255,-100,4,2,0,80,0,1
56076,-100,4,2,0,60,0,1
56193,-100,4,2,0,80,0,1
57013,-100,4,2,0,60,0,1
57130,-100,4,2,0,80,0,1
57951,-100,4,2,0,60,0,1
58068,-100,4,2,0,80,0,1
58888,-100,4,2,0,60,0,1
59005,-100,4,2,0,80,0,1
59826,-100,4,2,0,60,0,1
59943,-100,4,2,0,80,0,1
60763,-100,4,2,0,60,0,1
60880,-100,4,2,0,80,0,1
61701,-100,4,2,0,60,0,1
61818,-100,4,2,0,80,0,1
62638,-100,4,2,0,60,0,1
62755,-100,4,2,0,80,0,1
63576,-100,4,2,0,60,0,1
63693,-100,4,2,0,80,0,1
64513,-100,4,2,0,60,0,1
64630,-100,4,2,0,80,0,1
65451,-100,4,2,0,60,0,1
65568,-100,4,2,0,80,0,1
66388,-100,4,2,0,60,0,1
66505,-100,4,2,0,80,0,1
68263,-100,4,2,0,60,0,1
68380,-100,4,2,0,80,0,1
69201,-100,4,2,0,60,0,1
69318,-100,4,2,0,80,0,1
69670,-100,4,2,0,70,0,0
84670,-100,4,2,0,70,0,0
97560,-100,4,2,0,70,0,0
97795,-100,4,2,0,30,0,0
98966,-100,4,2,0,70,0,0
113732,-100,4,2,0,40,0,0
114670,-100,4,2,0,80,0,1
115138,-100,4,2,0,60,0,1
115255,-100,4,2,0,80,0,1
116076,-100,4,2,0,60,0,1
116193,-100,4,2,0,80,0,1
117013,-100,4,2,0,60,0,1
117130,-100,4,2,0,80,0,1
117951,-100,4,2,0,60,0,1
118068,-100,4,2,0,80,0,1
118888,-100,4,2,0,60,0,1
119005,-100,4,2,0,80,0,1
119826,-100,4,2,0,60,0,1
119943,-100,4,2,0,80,0,1
120763,-100,4,2,0,60,0,1
120880,-100,4,2,0,80,0,1
121701,-100,4,2,0,60,0,1
121818,-100,4,2,0,80,0,1
122638,-100,4,2,0,60,0,1
122755,-100,4,2,0,80,0,1
123576,-100,4,2,0,60,0,1
123693,-100,4,2,0,80,0,1
124513,-100,4,2,0,60,0,1
124630,-100,4,2,0,80,0,1
125451,-100,4,2,0,60,0,1
125568,-100,4,2,0,80,0,1
126388,-100,4,2,0,60,0,1
126505,-100,4,2,0,80,0,1
128263,-100,4,2,0,60,0,1
128380,-100,4,2,0,80,0,1
129201,-100,4,2,0,60,0,1
129318,-100,4,2,0,80,0,1
129670,-100,4,2,0,40,0,0
144670,-100,4,2,0,50,0,0
159670,-100,4,2,0,40,0,0
163420,-100,4,2,0,45,0,0
163888,-100,4,2,0,50,0,0
164357,-100,4,2,0,55,0,0
164826,-100,4,2,0,60,0,0
165295,-100,4,2,0,65,0,0
165763,-100,4,2,0,70,0,0
166232,-100,4,2,0,40,0,0
167170,-100,4,2,0,80,0,1
167638,-100,4,2,0,60,0,1
167755,-100,4,2,0,80,0,1
168576,-100,4,2,0,60,0,1
168693,-100,4,2,0,80,0,1
169513,-100,4,2,0,60,0,1
169630,-100,4,2,0,80,0,1
170451,-100,4,2,0,60,0,1
170568,-100,4,2,0,80,0,1
171388,-100,4,2,0,60,0,1
171505,-100,4,2,0,80,0,1
172326,-100,4,2,0,60,0,1
172443,-100,4,2,0,80,0,1
173263,-100,4,2,0,60,0,1
173380,-100,4,2,0,80,0,1
174201,-100,4,2,0,60,0,1
174318,-100,4,2,0,80,0,1
175138,-100,4,2,0,60,0,1
175255,-100,4,2,0,80,0,1
176076,-100,4,2,0,60,0,1
176193,-100,4,2,0,80,0,1
177013,-100,4,2,0,60,0,1
177130,-100,4,2,0,80,0,1
177951,-100,4,2,0,60,0,1
178068,-100,4,2,0,80,0,1
178888,-100,4,2,0,60,0,1
179005,-100,4,2,0,80,0,1
180763,-100,4,2,0,60,0,1
180880,-100,4,2,0,80,0,1
180998,-100,4,2,0,80,0,0
181701,-100,4,2,0,60,0,0
181935,-100,4,2,0,80,0,0
182170,-100,4,2,0,80,0,1
182638,-100,4,2,0,60,0,1
182755,-100,4,2,0,80,0,1
183576,-100,4,2,0,60,0,1
183693,-100,4,2,0,80,0,1
184513,-100,4,2,0,60,0,1
184630,-100,4,2,0,80,0,1
185451,-100,4,2,0,60,0,1
185568,-100,4,2,0,80,0,1
186388,-100,4,2,0,60,0,1
186505,-100,4,2,0,80,0,1
187326,-100,4,2,0,60,0,1
187443,-100,4,2,0,80,0,1
188263,-100,4,2,0,60,0,1
188380,-100,4,2,0,80,0,1
189201,-100,4,2,0,60,0,1
189318,-100,4,2,0,80,0,1
190138,-100,4,2,0,60,0,1
190255,-100,4,2,0,80,0,1
191076,-100,4,2,0,60,0,1
191193,-100,4,2,0,80,0,1
192013,-100,4,2,0,60,0,1
192130,-100,4,2,0,80,0,1
192951,-100,4,2,0,60,0,1
193068,-100,4,2,0,80,0,1
193888,-100,4,2,0,60,0,1
194005,-100,4,2,0,80,0,1
195295,-100,4,2,0,50,0,1
195529,-100,4,2,0,52,0,1
195763,-100,4,2,0,56,0,1
195998,-100,4,2,0,60,0,1
196232,-100,4,2,0,64,0,1
196466,-100,4,2,0,68,0,1
196701,-100,4,2,0,72,0,1
197170,-100,4,2,0,80,0,0
197873,-100,4,2,0,60,0,0
197990,-100,4,2,0,80,0,0
198576,-100,4,2,0,60,0,0
199045,-100,4,2,0,80,0,0
199279,-100,4,2,0,60,0,0
199630,-100,4,2,0,80,0,0
200216,-100,4,2,0,60,0,0
200334,-100,4,2,0,80,0,0
201623,-100,4,2,0,60,0,0
201740,-100,4,2,0,80,0,0
202326,-100,4,2,0,60,0,0
202443,-100,4,2,0,80,0,0
203029,-100,4,2,0,60,0,0
203498,-100,4,2,0,80,0,0
203966,-100,4,2,0,60,0,0
204201,-100,4,2,0,80,0,0
205373,-100,4,2,0,60,0,0
205490,-100,4,2,0,80,0,0
206076,-100,4,2,0,60,0,0
206545,-100,4,2,0,80,0,0
206779,-100,4,2,0,60,0,0
207130,-100,4,2,0,80,0,0
207716,-100,4,2,0,60,0,0
207951,-100,4,2,0,80,0,0
209123,-100,4,2,0,60,0,0
209240,-100,4,2,0,80,0,0
209826,-100,4,2,0,60,0,0
209943,-100,4,2,0,80,0,0
210529,-100,4,2,0,60,0,0
210880,-100,4,2,0,80,0,0
211232,-100,4,2,0,60,0,0
211701,-100,4,2,0,70,0,0
212170,-100,4,2,0,80,0,0
212873,-100,4,2,0,60,0,0
212990,-100,4,2,0,80,0,0
213576,-100,4,2,0,60,0,0
214045,-100,4,2,0,80,0,0
214279,-100,4,2,0,60,0,0
214630,-100,4,2,0,80,0,0
215216,-100,4,2,0,60,0,0
215451,-100,4,2,0,80,0,0
216623,-100,4,2,0,60,0,0
216740,-100,4,2,0,80,0,0
217326,-100,4,2,0,60,0,0
217443,-100,4,2,0,80,0,0
218029,-100,4,2,0,60,0,0
218498,-100,4,2,0,80,0,0
218732,-100,4,2,0,50,0,0
219670,-100,4,2,0,70,0,0
220138,-100,4,2,0,65,0,0
220373,-100,4,2,0,45,0,0
220490,-100,4,2,0,65,0,0
220607,-100,4,2,0,60,0,0
220841,-100,4,2,0,35,0,0
221076,-100,4,2,0,35,0,0
221545,-100,4,2,0,50,0,0
221779,-100,4,2,0,30,0,0
222013,-100,4,2,0,25,0,0
222130,-100,4,2,0,40,0,0
222482,-100,4,2,0,40,0,0
222716,-100,4,2,0,20,0,0
222951,-100,4,2,0,15,0,0
223420,-100,4,2,0,30,0,0
224357,-100,4,2,0,25,0,0
225295,-100,4,2,0,20,0,0
226232,-100,4,2,0,15,0,0
226701,-100,4,2,0,10,0,0
227170,-100,4,2,0,5,0,0

[Colours]
Combo1 : 17,254,176
Combo2 : 173,255,95
Combo3 : 255,88,100
Combo4 : 255,94,55

[HitObjects]
328,68,2170,6,0,L|332:168,1,100,4|0,0:0|0:0,0:0:0:0:
336,268,3107,1,0,0:0:0:0:
256,328,3576,1,0,0:0:0:0:
156,320,4045,6,0,P|112:324|64:300,1,100,4|0,0:0|0:0,0:0:0:0:
0,220,4982,1,0,0:0:0:0:
28,124,5451,1,0,0:0:0:0:
128,104,5920,6,0,L|228:100,1,100,4|0,0:0|0:0,0:0:0:0:
328,100,6857,1,0,0:0:0:0:
412,152,7326,1,0,0:0:0:0:
440,248,7795,6,0,P|392:250|340:224,1,100,4|0,0:0|0:0,0:0:0:0:
304,200,8498,2,0,L|152:196,1,150,0|0,0:0|0:0,0:0:0:0:
56,192,9670,5,6,0:0:0:0:
100,280,10138,1,0,0:0:0:0:
200,284,10607,2,0,L|344:288,1,100,0|0,0:0|0:0,0:0:0:0:
348,296,11310,1,0,0:0:0:0:
392,320,11545,6,0,P|388:272|404:224,1,100,6|0,0:0|0:0,0:0:0:0:
472,148,12482,1,0,0:0:0:0:
376,124,12951,2,0,L|324:128,1,50,0|0,0:0|0:0,0:0:0:0:
280,148,13420,6,0,L|180:156,1,100,6|0,0:0|0:0,0:0:0:0:
104,220,14357,1,0,0:0:0:0:
200,252,14826,1,0,0:0:0:0:
276,316,15295,6,0,P|235:344|186:351,2,100,6|2|2,0:0|0:0|0:0,0:0:0:0:
372,288,16701,2,0,P|387:268|408:255,1,50,2|0,0:0|0:0,0:0:0:0:
452,232,17170,6,0,L|456:132,1,100,6|0,0:0|0:0,0:0:0:0:
460,32,18107,1,0,0:0:0:0:
372,76,18576,2,0,P|344:80|304:76,1,50,0|0,0:0|0:0,0:0:0:0:
272,68,19045,6,0,P|220:64|172:76,1,100,6|0,0:0|0:0,0:0:0:0:
96,136,19982,1,0,0:0:0:0:
48,224,20451,2,0,L|100:228,1,50,0|0,0:0|0:0,0:0:0:0:
148,224,20920,6,0,B|180:212|180:212|212:208|248:216,1,100,6|0,0:0|0:0,0:0:0:0:
336,256,21857,2,0,P|408:272|480:248,1,150,0|0,0:0|0:0,0:0:0:0:
508,208,22795,6,0,L|504:108,1,100,6|0,0:0|0:0,0:0:0:0:
424,48,23732,1,0,0:0:0:0:
324,60,24201,1,0,0:0:0:0:
276,148,24670,5,4,0:3:0:0:
176,160,25139,1,2,0:3:0:0:
108,88,25607,2,0,L|104:36,2,50,0|0|2,0:0|0:0|0:3,0:0:0:0:
80,184,26545,5,4,0:3:0:0:
148,256,27013,1,2,0:3:0:0:
108,348,27482,2,0,P|72:352|44:360,2,50,0|0|2,0:0|0:0|0:3,0:0:0:0:
208,336,28420,6,0,P|260:340|308:328,2,100,4|2|0,0:3|0:3|0:0,0:0:0:0:
148,256,29826,1,2,0:3:0:0:
156,156,30295,6,0,B|212:168|252:132|252:132|300:140,1,150,4|2,0:3|0:3,0:3:0:0:
348,148,31232,2,0,P|380:156|404:160,2,50,0|2|2,0:0|0:3|0:3,0:0:0:0:
320,52,32170,5,4,0:3:0:0:
224,24,32638,1,2,0:3:0:0:
144,84,33107,2,0,P|119:88|95:94,2,50,0|0|2,0:0|0:0|0:3,0:0:0:0:
144,184,34045,5,4,0:3:0:0:
208,260,34513,1,2,0:3:0:0:
112,280,34982,2,0,L|60:284,2,50,0|0|2,0:0|0:0|0:3,0:0:0:0:
208,260,35920,6,0,P|280:268|348:232,1,150,4|0,0:3|0:0,0:3:0:0:
376,192,36857,2,0,L|416:88,1,100,0|2,0:0|0:3,0:0:0:0:
432,52,37560,1,0,0:0:0:0:
105,176,39201,1,0,0:0:0:0:
76,272,39670,6,0,P|124:274|169:252,1,100,4|0,0:0|1:0,0:0:0:0:
240,180,40607,2,0,L|340:176,1,100,4|0,2:3|1:0,1:0:0:0:
440,172,41545,5,4,0:3:0:0:
416,268,42013,2,0,P|380:288|312:292,1,100,0|4,1:0|2:3,1:0:0:0:
228,260,42951,1,0,1:0:0:0:
136,304,43420,6,0,P|128:236|144:200,1,100,4|0,2:3|1:0,1:0:0:0:
216,144,44357,1,4,0:3:0:0:
124,108,44826,1,0,1:0:0:0:
204,48,45295,6,0,L|304:44,1,100,4|0,2:3|1:0,1:0:0:0:
404,44,46232,2,0,P|388:88|392:140,1,100,4|0,2:3|1:0,1:0:0:0:
408,188,46935,1,0,0:0:0:0:
432,232,47170,6,0,L|332:236,1,100,4|0,2:0|1:0,1:0:0:0:
232,240,48107,1,4,0:3:0:0:
140,280,48576,1,0,1:0:0:0:
68,348,49045,6,0,P|48:312|52:232,1,100,4|0,2:3|1:0,1:0:0:0:
80,160,49982,1,4,0:3:0:0:
160,100,50451,1,0,1:0:0:0:
260,92,50920,6,0,B|296:100|296:100|360:92,1,100,4|0,2:3|1:0,1:0:0:0:
408,84,51623,1,0,0:0:0:0:
456,72,51857,2,0,P|440:120|444:180,1,100,4|0,2:3|1:0,1:0:0:0:
464,268,52795,6,0,L|376:264,1,50,4|2,0:3|0:0,0:0:0:0:
364,272,53263,2,0,L|276:268,1,50,2|0,1:2|0:0,0:0:0:0:
68,312,54670,6,0,P|60:264|72:212,1,100,4|2,0:0|1:2,0:0:0:0:
128,132,55607,1,4,0:3:0:0:
224,104,56076,1,2,1:2:0:0:
320,132,56545,6,0,B|360:140|360:140|420:128,1,100,4|2,0:3|1:2,0:0:0:0:
512,100,57482,1,4,0:3:0:0:
492,196,57951,1,2,1:2:0:0:
492,296,58420,6,0,P|444:288|392:296,1,100,4|2,0:3|1:2,0:0:0:0:
304,340,59357,1,4,0:3:0:0:
204,336,59826,1,2,1:2:0:0:
124,276,60295,6,0,B|136:240|136:240|128:176,1,100,4|2,0:3|1:2,0:0:0:0:
120,128,60998,2,0,P|192:136|260:104,1,150,0|2,0:0|1:2,0:0:0:0:
320,24,62170,5,4,0:3:0:0:
364,112,62638,1,2,1:2:0:0:
308,196,63107,2,0,P|316:240|304:296,1,100,4|2,0:3|1:2,0:0:0:0:
228,356,64045,5,4,0:3:0:0:
128,348,64513,1,2,1:2:0:0:
64,272,64982,2,0,P|53:223|61:174,1,100,4|2,0:3|1:2,0:0:0:0:
116,88,65920,6,0,L|216:84,1,100,4|2,0:3|1:2,0:0:0:0:
316,80,66857,2,0,B|320:120|296:152|296:152|308:184|304:224,1,150,4|0,0:3|0:0,0:0:0:0:
280,268,67795,6,0,L|284:320,2,50,4|2|2,0:3|0:0|1:2,0:0:0:0:
212,196,68732,2,0,P|208:180|224:92,2,100,4|2|4,2:3|1:2|2:3,1:0:0:0:
236,236,84670,5,4,0:3:0:0:
336,224,85139,1,2,0:3:0:0:
404,296,85607,2,0,L|408:348,2,50,0|0|2,0:0|0:0|0:3,0:0:0:0:
432,200,86545,5,4,0:3:0:0:
364,128,87013,1,2,0:3:0:0:
404,36,87482,2,0,P|440:32|468:24,2,50,0|0|2,0:0|0:0|0:3,0:0:0:0:
304,48,88420,6,0,P|252:44|204:56,2,100,4|2|0,0:3|0:3|0:0,0:0:0:0:
364,128,89826,1,2,0:3:0:0:
356,228,90295,6,0,B|300:216|260:252|260:252|212:244,1,150,4|2,0:3|0:3,0:3:0:0:
164,236,91232,2,0,P|132:228|108:224,2,50,0|2|2,0:0|0:3|0:3,0:0:0:0:
192,332,92170,5,4,0:3:0:0:
288,360,92638,1,2,0:3:0:0:
368,300,93107,2,0,P|393:296|417:290,2,50,0|0|2,0:0|0:0|0:3,0:0:0:0:
368,200,94045,5,4,0:3:0:0:
304,124,94513,1,2,0:3:0:0:
400,104,94982,2,0,L|452:100,2,50,0|0|2,0:0|0:0|0:3,0:0:0:0:
304,124,95920,6,0,P|232:116|164:152,1,150,4|0,0:3|0:0,0:3:0:0:
136,192,96857,1,0,0:0:0:0:
108,288,97326,2,0,L|104:340,2,50,2|0|4,0:3|0:0|0:3,0:0:0:0:
395,200,99201,1,0,0:0:0:0:
424,104,99670,6,0,P|375:101|330:123,1,100,4|0,0:0|1:0,0:0:0:0:
272,204,100607,2,0,L|172:208,1,100,4|0,2:3|1:0,1:0:0:0:
72,212,101545,5,4,0:3:0:0:
96,116,102013,2,0,P|132:96|200:92,1,100,0|4,1:0|2:3,1:0:0:0:
284,124,102951,1,0,1:0:0:0:
376,80,103420,6,0,P|384:148|368:184,1,100,4|0,2:3|1:0,1:0:0:0:
296,240,104357,1,4,0:3:0:0:
388,276,104826,1,0,1:0:0:0:
308,336,105295,6,0,L|208:340,1,100,4|0,2:3|1:0,1:0:0:0:
108,340,106232,2,0,P|124:296|120:244,1,100,4|0,2:3|1:0,1:0:0:0:
104,196,106935,1,0,0:0:0:0:
80,152,107170,6,0,L|180:148,1,100,4|0,2:0|1:0,1:0:0:0:
280,144,108107,1,4,0:3:0:0:
372,104,108576,1,0,1:0:0:0:
444,36,109045,6,0,P|464:72|460:152,1,100,4|0,2:3|1:0,1:0:0:0:
432,224,109982,1,4,0:3:0:0:
352,284,110451,1,0,1:0:0:0:
252,292,110920,6,0,B|216:284|216:284|152:292,1,100,4|0,2:3|1:0,1:0:0:0:
104,300,111623,1,0,0:0:0:0:
56,312,111857,2,0,P|72:264|68:204,1,100,4|0,2:3|1:0,1:0:0:0:
48,116,112795,6,0,L|136:120,1,50,4|2,0:3|0:0,0:0:0:0:
148,112,113263,2,0,L|236:116,1,50,2|0,1:2|0:0,0:0:0:0:
248,108,113732,5,0,3:0:0:0:
352,116,114201,1,8,0:3:0:0:
444,72,114670,6,0,P|452:120|440:172,1,100,4|2,0:0|1:2,0:0:0:0:
384,252,115607,1,4,0:3:0:0:
288,280,116076,1,2,1:2:0:0:
192,252,116545,6,0,B|152:244|152:244|92:256,1,100,4|2,0:3|1:2,0:0:0:0:
0,284,117482,1,4,0:3:0:0:
20,188,117951,1,2,1:2:0:0:
20,88,118420,6,0,P|68:96|120:88,1,100,4|2,0:3|1:2,0:0:0:0:
208,44,119357,1,4,0:3:0:0:
308,48,119826,1,2,1:2:0:0:
388,108,120295,6,0,B|376:144|376:144|384:208,1,100,4|2,0:3|1:2,0:0:0:0:
392,256,120998,2,0,P|320:248|252:280,1,150,0|2,0:0|1:2,0:0:0:0:
192,360,122170,5,4,0:3:0:0:
148,272,122638,1,2,1:2:0:0:
204,188,123107,2,0,P|196:144|208:88,1,100,4|2,0:3|1:2,0:0:0:0:
284,28,124045,5,4,0:3:0:0:
384,36,124513,1,2,1:2:0:0:
448,112,124982,2,0,P|459:161|451:210,1,100,4|2,0:3|1:2,0:0:0:0:
396,296,125920,6,0,L|296:300,1,100,4|2,0:3|1:2,0:0:0:0:
196,304,126857,2,0,B|192:264|216:232|216:232|204:200|208:160,1,150,4|0,0:3|0:0,0:0:0:0:
232,116,127795,6,0,L|228:64,2,50,4|2|2,0:3|0:0|1:2,0:0:0:0:
300,188,128732,2,0,P|304:204|288:292,1,100,4|2,2:3|1:2,1:0:0:0:
252,316,129435,1,0,0:0:0:0:
204,332,129670,6,0,B|148:328|148:328|112:336|112:336|52:332,2,150,4|2|2,0:0|0:0|0:0,0:0:0:0:
164,240,131545,2,0,P|92:132|208:48,1,300,0|0,0:0|0:0,0:0:0:0:
308,52,133420,6,0,B|364:56|364:56|400:48|400:48|460:52,2,150,2|2|2,0:0|0:0|0:0,0:0:0:0:
348,144,135295,2,0,P|420:252|304:336,1,300,2|0,0:0|0:0,0:0:0:0:
210,314,137170,6,0,P|252:254|324:240,2,150,2|2|2,0:0|0:0|0:0,0:0:0:0:
132,380,139045,2,0,B|84:316|108:224|164:256|188:164|140:100,1,300
74,26,140920,6,0,P|43:93|64:164,2,150,2|2|2,0:0|0:0|0:0,0:0:0:0:
141,101,142795,2,0,B|205:149|297:125|265:69|357:45|421:93,1,300,2|0,0:0|0:0,0:0:0:0:
356,168,144670,5,4,0:3:0:0:
160,200,145607,1,4,0:3:0:0:
288,356,146545,5,4,0:3:0:0:
356,168,147482,1,4,0:3:0:0:
292,92,147951,1,4,0:3:0:0:
192,104,148420,6,0,L|91:110,2,100,4|4|4,0:3|0:3|0:3,0:0:0:0:
160,200,149826,2,0,L|110:202,1,50,4|0,0:3|0:0,0:0:0:0:
156,104,159670,6,0,B|116:100|76:140|88:192|88:192|108:268|184:240|204:308,1,300,4|4,3:0|3:0,3:0:0:0:
308,308,161545,2,0,B|328:240|404:268|424:192|424:192|436:140|396:100|356:104,1,300,4|4,3:0|3:0,3:0:0:0:
256,92,163420,5,4,3:0:0:0:
164,56,163889,1,4,3:0:0:0:
111,141,164358,5,4,3:0:0:0:
111,241,164826,1,4,3:0:0:0:
164,328,165295,5,4,3:0:0:0:
256,292,165763,2,0,L|308:292,1,50,4|0,3:0|3:0,0:0:0:0:
60,340,167170,6,0,P|48:292|60:244,1,100,4|2,0:0|1:2,0:0:0:0:
116,160,168107,1,4,0:3:0:0:
212,128,168576,1,2,1:2:0:0:
312,136,169045,6,0,P|324:184|312:232,1,100,4|2,0:3|1:2,0:0:0:0:
256,316,169982,1,4,0:3:0:0:
356,320,170451,1,2,1:2:0:0:
444,368,170920,6,0,P|452:320|441:271,1,100,4|2,0:3|1:2,0:0:0:0:
412,176,171857,1,4,0:3:0:0:
320,136,172326,1,2,1:2:0:0:
224,160,172795,6,0,P|176:171|127:162,1,100,4|2,0:3|1:2,0:0:0:0:
84,136,173498,2,0,P|104:200|92:280,1,150,0|2,0:0|1:2,0:0:0:0:
24,356,174670,5,4,0:3:0:0:
124,372,175138,1,2,1:2:0:0:
208,316,175607,2,0,B|236:304|236:304|308:308,1,100,4|2,0:3|1:2,0:0:0:0:
404,312,176545,5,4,0:3:0:0:
360,224,177013,1,2,1:2:0:0:
412,140,177482,2,0,P|368:128|312:136,1,100,4|2,0:3|1:2,0:0:0:0:
228,184,178420,6,0,L|128:180,1,100,4|2,0:3|1:2,0:0:0:0:
60,252,179357,2,0,B|32:216|32:216|16:160|48:116,1,150,4|0,0:3|0:0,0:0:0:0:
76,76,180295,6,0,P|80:52|76:0,2,50,4|2|2,0:3|0:0|1:2,0:0:0:0:
176,88,181232,2,0,L|276:84,1,100,4|2,2:3|1:2,1:0:0:0:
324,96,181935,1,0,0:0:0:0:
372,108,182170,6,0,P|420:96|476:108,1,100,4|2,0:0|1:2,0:0:0:0:
424,192,183107,1,4,0:3:0:0:
324,192,183576,1,2,1:2:0:0:
256,264,184045,6,0,P|207:272|158:260,1,100,4|2,0:3|1:2,0:0:0:0:
80,200,184982,1,4,0:3:0:0:
64,300,185451,1,2,1:2:0:0:
144,360,185920,6,0,L|244:356,1,100,4|2,0:3|1:2,0:0:0:0:
344,348,186857,1,4,0:3:0:0:
404,268,187326,1,2,1:2:0:0:
376,172,187795,6,0,P|364:128|376:76,1,100,4|2,0:3|1:2,0:0:0:0:
408,36,188498,2,0,L|256:40,1,150,0|2,0:0|1:2,0:0:0:0:
160,44,189670,5,4,0:3:0:0:
212,128,190138,1,2,1:2:0:0:
188,224,190607,2,0,P|200:272|188:320,1,100,4|2,0:3|1:2,0:0:0:0:
100,272,191545,5,4,0:3:0:0:
104,172,192013,1,2,1:2:0:0:
196,128,192482,2,0,L|300:120,1,100,4|2,0:3|1:2,0:0:0:0:
368,52,193420,6,0,P|392:95|392:144,1,100,4|2,0:3|1:2,0:0:0:0:
364,240,194357,2,0,B|316:228|316:228|264:224|224:260,1,150,4|0,0:3|0:0,0:0:0:0:
192,300,195295,6,0,B|205:221|142:150|107:204|44:132|57:54,1,300,4|0,0:0|1:0,0:0:0:0:
152,80,197170,6,0,P|204:84|248:68,1,100,4|0,0:0|1:0,0:0:0:0:
292,44,197873,2,0,B|340:32|340:32|440:40,1,150,2|2,0:0|1:2,0:0:0:0:
504,120,199045,5,4,0:3:0:0:
496,220,199513,1,2,1:2:0:0:
432,296,199982,1,4,0:3:0:0:
336,320,200451,1,0,1:0:0:0:
240,296,200920,6,0,L|140:300,1,100,4|0,0:3|1:0,0:0:0:0:
92,312,201623,2,0,P|120:244|100:172,1,150,2|2,0:0|1:2,0:0:0:0:
32,100,202795,5,4,0:3:0:0:
128,76,203263,1,2,1:2:0:0:
228,84,203732,1,4,0:3:0:0:
312,136,204201,1,0,1:0:0:0:
360,223,204670,6,0,P|395:189|410:142,1,100,4|0,0:0|1:0,0:0:0:0:
420,92,205373,2,0,L|460:236,1,150,2|2,0:0|1:2,0:0:0:0:
492,332,206545,5,4,0:3:0:0:
396,312,207013,1,2,1:2:0:0:
296,328,207482,1,4,0:3:0:0:
200,308,207950,1,0,1:0:0:0:
100,324,208420,6,0,B|104:288|104:288|92:224,1,100,4|0,0:3|1:0,0:0:0:0:
80,176,209123,2,0,P|156:180|220:144,1,150,2|2,0:0|1:2,0:0:0:0:
264,56,210295,5,4,0:3:0:0:
364,48,210763,1,2,1:2:0:0:
412,136,211232,2,0,L|408:236,1,100,4|0,0:3|1:0,0:0:0:0:
440,332,212170,6,0,P|392:336|336:308,1,100,4|0,0:0|1:0,0:0:0:0:
308,284,212873,2,0,P|236:260|164:272,1,150,2|2,0:0|1:2,0:0:0:0:
76,320,214045,5,4,0:3:0:0:
76,220,214513,1,6,1:2:0:0:
116,128,214982,1,4,0:3:0:0:
196,68,215451,1,0,1:0:0:0:
292,40,215920,6,0,B|328:44|328:44|356:40|356:40|392:44,1,100,4|0,0:3|1:0,0:0:0:0:
440,52,216623,2,0,P|404:112|408:192,1,150,2|2,0:0|1:2,0:0:0:0:
464,272,217795,5,4,0:3:0:0:
364,280,218263,1,0,1:0:0:0:
276,232,218732,2,0,L|176:236,1,100,4|0,0:3|1:0,0:0:0:0:
92,288,219670,6,0,P|80:220|92:184,1,100,4|0,0:0|1:0,0:0:0:0:
112,148,220373,2,0,L|288:140,1,150,2|2,0:0|1:2,0:0:0:0:
360,136,221545,5,4,0:3:0:0:
458,130,222013,1,2,1:2:0:0:
416,220,222482,1,4,0:3:0:0:
317,228,222951,1,0,1:0:0:0:
256,192,223420,12,0,227170,0:0:0:0:
