osu file format v12

[General]
AudioFilename: My Love.mp3
AudioLeadIn: 500
PreviewTime: 53498
Countdown: 0
SampleSet: Soft
StackLeniency: 0.7
Mode: 0
LetterboxInBreaks: 0
WidescreenStoryboard: 0

[Editor]
Bookmarks: 39670,46701,69670,84670,150060,152170,159670,223420,227170
DistanceSpacing: 0.5
BeatDivisor: 4
GridSize: 4
TimelineZoom: 1

[Metadata]
Title:My Love
TitleUnicode:My Love
Artist:Kuba Oms
ArtistUnicode:Kuba Oms
Creator:W h i t e
Version:Insane
Source:ADHD
Tags:Monthly Beatmapping Contest Electronic folk pop w_h_i_t_e
BeatmapID:397535
BeatmapSetID:163112

[Difficulty]
HPDrainRate:6
CircleSize:4
OverallDifficulty:7
ApproachRate:8
SliderMultiplier:1.78
SliderTickRate:2

[Events]
//Background and Video events
0,0,"bg.jpg",0,0
//Break Periods
2,69870,83920
2,152170,158920
//Storyboard Layer 0 (Background)
//Storyboard Layer 1 (Fail)
//Storyboard Layer 2 (Pass)
//Storyboard Layer 3 (Foreground)
//Storyboard Sound Samples
//Background Colour Transformations
3,100,163,162,255

[TimingPoints]
2170,468.75,4,2,0,40,1,0
2170,-133.333333333333,4,2,0,40,0,0
4045,-133.333333333333,4,2,0,30,0,0
4162,-133.333333333333,4,2,0,40,0,0
5920,-133.333333333333,4,2,0,30,0,0
6037,-133.333333333333,4,2,0,40,0,0
7795,-133.333333333333,4,2,0,30,0,0
7912,-133.333333333333,4,2,0,40,0,0
9670,-133.333333333333,4,2,0,40,0,0
9787,-133.333333333333,4,2,0,50,0,0
11545,-133.333333333333,4,2,0,40,0,0
11662,-133.333333333333,4,2,0,50,0,0
13420,-133.333333333333,4,2,0,40,0,0
13537,-133.333333333333,4,2,0,50,0,0
15295,-133.333333333333,4,2,0,40,0,0
15412,-133.333333333333,4,2,0,50,0,0
17170,-133.333333333333,4,2,0,40,0,0
17287,-133.333333333333,4,2,0,50,0,0
19045,-133.333333333333,4,2,0,40,0,0
19162,-133.333333333333,4,2,0,50,0,0
20920,-133.333333333333,4,2,0,40,0,0
21037,-133.333333333333,4,2,0,50,0,0
22795,-133.333333333333,4,2,0,40,0,0
22912,-133.333333333333,4,2,0,50,0,0
24670,-111.111111111111,4,2,0,70,0,0
37560,-200,4,2,0,30,0,0
38263,-200,4,2,0,5,0,0
38966,-100,4,2,0,30,0,0
39670,-100,4,2,0,70,0,0
53732,-100,4,2,0,40,0,0
54670,-100,4,2,0,80,0,1
55138,-100,4,2,0,60,0,1
55255,-100,4,2,0,80,0,1
56076,-100,4,2,0,60,0,1
56193,-100,4,2,0,80,0,1
57013,-100,4,2,0,60,0,1
57130,-100,4,2,0,80,0,1
57951,-100,4,2,0,60,0,1
58068,-100,4,2,0,80,0,1
58888,-100,4,2,0,60,0,1
59005,-100,4,2,0,80,0,1
59826,-100,4,2,0,60,0,1
59943,-100,4,2,0,80,0,1
60763,-100,4,2,0,60,0,1
60880,-100,4,2,0,80,0,1
61701,-100,4,2,0,60,0,1
61818,-100,4,2,0,80,0,1
62638,-100,4,2,0,60,0,1
62755,-100,4,2,0,80,0,1
63576,-100,4,2,0,60,0,1
63693,-100,4,2,0,80,0,1
64513,-100,4,2,0,60,0,1
64630,-100,4,2,0,80,0,1
65451,-100,4,2,0,60,0,1
65568,-100,4,2,0,80,0,1
66388,-100,4,2,0,60,0,1
66505,-100,4,2,0,80,0,1
67326,-100,4,2,0,60,0,1
67443,-100,4,2,0,80,0,1
68263,-100,4,2,0,60,0,1
68380,-100,4,2,0,80,0,1
69201,-100,4,2,0,60,0,1
69318,-100,4,2,0,80,0,1
69670,-100,4,2,0,70,0,0
84670,-111.111111111111,4,2,0,70,0,0
97560,-200,4,2,0,70,0,0
97795,-200,4,2,0,30,0,0
98966,-100,4,2,0,30,0,0
99670,-100,4,2,0,70,0,0
113732,-100,4,2,0,40,0,0
114670,-100,4,2,0,80,0,1
115138,-100,4,2,0,60,0,1
115255,-100,4,2,0,80,0,1
116076,-100,4,2,0,60,0,1
116193,-100,4,2,0,80,0,1
117013,-100,4,2,0,60,0,1
117130,-100,4,2,0,80,0,1
117951,-100,4,2,0,60,0,1
118068,-100,4,2,0,80,0,1
118888,-100,4,2,0,60,0,1
119005,-100,4,2,0,80,0,1
119826,-100,4,2,0,60,0,1
119943,-100,4,2,0,80,0,1
120763,-100,4,2,0,60,0,1
120880,-100,4,2,0,80,0,1
121701,-100,4,2,0,60,0,1
121818,-100,4,2,0,80,0,1
122638,-100,4,2,0,60,0,1
122755,-100,4,2,0,80,0,1
123576,-100,4,2,0,60,0,1
123693,-100,4,2,0,80,0,1
124513,-100,4,2,0,60,0,1
124630,-100,4,2,0,80,0,1
125451,-100,4,2,0,60,0,1
125568,-100,4,2,0,80,0,1
126388,-100,4,2,0,60,0,1
126505,-100,4,2,0,80,0,1
127326,-100,4,2,0,60,0,1
127443,-100,4,2,0,80,0,1
128263,-100,4,2,0,60,0,1
128380,-100,4,2,0,80,0,1
129201,-100,4,2,0,60,0,1
129318,-100,4,2,0,80,0,1
129670,-200,4,2,0,40,0,0
144670,-133.333333333333,4,2,0,50,0,0
159670,-133.333333333333,4,2,0,40,0,0
163420,-133.333333333333,4,2,0,45,0,0
163888,-125,4,2,0,50,0,0
164357,-117.647058823529,4,2,0,55,0,0
164826,-111.111111111111,4,2,0,60,0,0
165295,-105.263157894737,4,2,0,65,0,0
165763,-100,4,2,0,70,0,0
166232,-100,4,2,0,40,0,0
167170,-100,4,2,0,80,0,1
167638,-100,4,2,0,60,0,1
167755,-100,4,2,0,80,0,1
168576,-100,4,2,0,60,0,1
168693,-100,4,2,0,80,0,1
169513,-100,4,2,0,60,0,1
169630,-100,4,2,0,80,0,1
170451,-100,4,2,0,60,0,1
170568,-100,4,2,0,80,0,1
171388,-100,4,2,0,60,0,1
171505,-100,4,2,0,80,0,1
172326,-100,4,2,0,60,0,1
172443,-100,4,2,0,80,0,1
173263,-100,4,2,0,60,0,1
173380,-100,4,2,0,80,0,1
174201,-100,4,2,0,60,0,1
174318,-100,4,2,0,80,0,1
175138,-100,4,2,0,60,0,1
175255,-100,4,2,0,80,0,1
176076,-100,4,2,0,60,0,1
176193,-100,4,2,0,80,0,1
177013,-100,4,2,0,60,0,1
177130,-100,4,2,0,80,0,1
177951,-100,4,2,0,60,0,1
178068,-100,4,2,0,80,0,1
178888,-100,4,2,0,60,0,1
179005,-100,4,2,0,80,0,1
179826,-100,4,2,0,60,0,1
179943,-100,4,2,0,80,0,1
180763,-100,4,2,0,60,0,1
180880,-100,4,2,0,80,0,1
180998,-100,4,2,0,80,0,0
181466,-100,4,2,0,60,0,0
181584,-100,4,2,0,80,0,0
181935,-100,4,2,0,80,0,0
182170,-100,4,2,0,80,0,1
182638,-100,4,2,0,60,0,1
182755,-100,4,2,0,80,0,1
183576,-100,4,2,0,60,0,1
183693,-100,4,2,0,80,0,1
184513,-100,4,2,0,60,0,1
184630,-100,4,2,0,80,0,1
185451,-100,4,2,0,60,0,1
185568,-100,4,2,0,80,0,1
186388,-100,4,2,0,60,0,1
186505,-100,4,2,0,80,0,1
187326,-100,4,2,0,60,0,1
187443,-100,4,2,0,80,0,1
188263,-100,4,2,0,60,0,1
188380,-100,4,2,0,80,0,1
189201,-100,4,2,0,60,0,1
189318,-100,4,2,0,80,0,1
190138,-100,4,2,0,60,0,1
190255,-100,4,2,0,80,0,1
191076,-100,4,2,0,60,0,1
191193,-100,4,2,0,80,0,1
192013,-100,4,2,0,60,0,1
192130,-100,4,2,0,80,0,1
192951,-100,4,2,0,60,0,1
193068,-100,4,2,0,80,0,1
193888,-100,4,2,0,60,0,1
194005,-100,4,2,0,80,0,1
194826,-100,4,2,0,60,0,1
194943,-100,4,2,0,80,0,1
195295,-100,4,2,0,50,0,1
195529,-100,4,2,0,52,0,1
195646,-100,4,2,0,54,0,1
195763,-100,4,2,0,56,0,1
195880,-100,4,2,0,58,0,1
195998,-100,4,2,0,60,0,1
196115,-100,4,2,0,62,0,1
196232,-100,4,2,0,64,0,1
196349,-100,4,2,0,68,0,1
196466,-100,4,2,0,70,0,1
196584,-100,4,2,0,72,0,1
196701,-100,4,2,0,74,0,1
196818,-100,4,2,0,76,0,1
196935,-100,4,2,0,78,0,1
197052,-100,4,2,0,80,0,1
197170,-100,4,2,0,80,0,0
197873,-100,4,2,0,60,0,0
197990,-100,4,2,0,80,0,0
198341,-100,4,2,0,60,0,0
199045,-100,4,2,0,80,0,0
199279,-100,4,2,0,60,0,0
199630,-100,4,2,0,80,0,0
200216,-100,4,2,0,60,0,0
200334,-100,4,2,0,80,0,0
201623,-100,4,2,0,60,0,0
201740,-100,4,2,0,80,0,0
202326,-100,4,2,0,60,0,0
202443,-100,4,2,0,80,0,0
203029,-100,4,2,0,60,0,0
203498,-100,4,2,0,80,0,0
203966,-100,4,2,0,60,0,0
204201,-100,4,2,0,80,0,0
205373,-100,4,2,0,60,0,0
205490,-100,4,2,0,80,0,0
205841,-100,4,2,0,60,0,0
206076,-100,4,2,0,60,0,0
206545,-100,4,2,0,80,0,0
206779,-100,4,2,0,60,0,0
207130,-100,4,2,0,80,0,0
207716,-100,4,2,0,60,0,0
207951,-100,4,2,0,80,0,0
209123,-100,4,2,0,60,0,0
209240,-100,4,2,0,80,0,0
209826,-100,4,2,0,60,0,0
209943,-100,4,2,0,80,0,0
210529,-100,4,2,0,60,0,0
210880,-100,4,2,0,80,0,0
211232,-100,4,2,0,60,0,0
211349,-100,4,2,0,65,0,0
211466,-100,4,2,0,70,0,0
211584,-100,4,2,0,75,0,0
211701,-100,4,2,0,80,0,0
211935,-100,4,2,0,70,0,0
212052,-100,4,2,0,60,0,0
212170,-100,4,2,0,80,0,0
212873,-100,4,2,0,60,0,0
212990,-100,4,2,0,80,0,0
213341,-100,4,2,0,60,0,0
213576,-100,4,2,0,60,0,0
214045,-100,4,2,0,80,0,0
214279,-100,4,2,0,60,0,0
214630,-100,4,2,0,80,0,0
215216,-100,4,2,0,60,0,0
215451,-100,4,2,0,80,0,0
216623,-100,4,2,0,60,0,0
216740,-100,4,2,0,80,0,0
217326,-100,4,2,0,60,0,0
217443,-100,4,2,0,80,0,0
218029,-100,4,2,0,60,0,0
218498,-100,4,2,0,80,0,0
218732,-100,4,2,0,50,0,0
218966,-100,4,2,0,40,0,0
219084,-100,4,2,0,45,0,0
219201,-100,4,2,0,50,0,0
219435,-100,4,2,0,60,0,0
219552,-100,4,2,0,65,0,0
219670,-100,4,2,0,70,0,0
220138,-100,4,2,0,65,0,0
220373,-100,4,2,0,45,0,0
220490,-100,4,2,0,65,0,0
220607,-100,4,2,0,60,0,0
220841,-100,4,2,0,35,0,0
221076,-100,4,2,0,35,0,0
221545,-100,4,2,0,50,0,0
221779,-100,4,2,0,30,0,0
222013,-111.111111111111,4,2,0,25,0,0
222130,-111.111111111111,4,2,0,40,0,0
222482,-125,4,2,0,40,0,0
222716,-125,4,2,0,20,0,0
222951,-100,4,2,0,15,0,0
223420,-100,4,2,0,30,0,0
224357,-100,4,2,0,25,0,0
225295,-100,4,2,0,20,0,0
226232,-100,4,2,0,15,0,0
226701,-100,4,2,0,10,0,0
227170,-100,4,2,0,5,0,0

[Colours]
Combo1 : 17,254,176
Combo2 : 173,255,95
Combo3 : 255,88,100
Combo4 : 255,94,55

[HitObjects]
296,92,2170,6,0,P|232:116|200:172,1,133.500005092621,4|0,0:0|0:0,0:0:0:0:
240,256,2873,1,0,0:0:0:0:
240,256,3107,1,0,0:0:0:0:
292,184,3341,1,0,0:0:0:0:
148,240,3576,1,0,0:0:0:0:
332,264,3810,1,0,0:0:0:0:
180,324,4045,6,0,P|128:328|64:276,1,133.500005092621,4|0,0:0|0:0,0:0:0:0:
76,188,4748,1,0,0:0:0:0:
156,148,4982,2,0,L|222:146,1,66.7500025463105,0|0,0:0|0:0,0:0:0:0:
76,188,5451,2,0,L|10:186,1,66.7500025463105,0|0,0:0|0:0,0:0:0:0:
148,240,5920,6,0,B|204:236|204:236|224:240|224:240|280:236,1,133.500005092621,4|0,0:0|0:0,0:0:0:0:
384,288,6623,1,0,0:0:0:0:
384,288,6857,2,0,L|388:356,1,66.7500025463105
376,176,7326,2,0,L|379:109,1,66.7500025463105,0|0,0:0|0:0,0:0:0:0:
284,235,7795,6,0,L|288:335,1,100.125003819466,4|0,0:0|0:0,0:0:0:0:
288,336,8263,1,0,0:0:0:0:
188,264,8498,2,0,P|184:232|192:196,1,66.7500025463105
272,136,8966,1,0,0:0:0:0:
284,236,9201,1,0,0:0:0:0:
180,92,9435,1,0,0:0:0:0:
180,92,9552,1,0,0:0:0:0:
180,92,9670,6,0,P|132:100|84:84,1,100.125003819466,6|0,0:0|0:0,0:0:0:0:
84,84,10138,1,0,0:0:0:0:
28,180,10373,1,0,0:0:0:0:
28,180,10490,1,0,0:0:0:0:
28,180,10607,2,0,P|24:212|36:260,1,66.7500025463105,0|0,0:0|0:0,0:0:0:0:
172,284,11076,2,0,L|272:280,1,100.125003819466,0|0,0:0|0:0,0:0:0:0:
272,280,11545,5,6,0:0:0:0:
436,312,11779,1,0,0:0:0:0:
436,312,11896,1,0,0:0:0:0:
436,312,12013,2,0,P|443:279|437:240,1,66.7500025463105,0|0,0:0|0:0,0:0:0:0:
384,148,12482,1,0,0:0:0:0:
360,276,12716,1,0,0:0:0:0:
292,108,12951,2,0,L|208:104,1,66.7500025463105,0|0,0:0|0:0,0:0:0:0:
208,104,13302,1,0,0:0:0:0:
191,103,13420,5,6,0:0:0:0:
212,200,13654,1,0,0:0:0:0:
248,24,13888,1,0,0:0:0:0:
120,168,14123,1,0,0:0:0:0:
292,108,14357,1,0,0:0:0:0:
320,288,14591,2,0,P|287:287|252:284,1,66.7500025463105,0|0,0:0|0:0,0:0:0:0:
68,236,15060,1,0,0:0:0:0:
68,236,15177,1,0,0:0:0:0:
68,236,15295,6,0,L|66:302,1,66.7500025463105,6|0,0:0|0:0,0:0:0:0:
136,152,15763,2,0,L|151:216,1,66.7500025463105,2|0,0:0|0:0,0:0:0:0:
180,52,16232,2,0,L|211:110,1,66.7500025463105,2|0,0:0|0:0,0:0:0:0:
272,220,16701,1,2,0:0:0:0:
336,108,16935,1,0,0:0:0:0:
152,216,17170,5,6,0:0:0:0:
272,220,17404,2,0,L|335:217,2,33.3750012731553,0|0|0,0:0|0:0|0:0,0:0:0:0:
208,324,17873,1,0,0:0:0:0:
208,324,17990,1,0,0:0:0:0:
208,324,18107,2,0,L|140:320,1,66.7500025463105,0|0,0:0|0:0,0:0:0:0:
264,232,18576,2,0,L|364:228,1,100.125003819466,0|0,0:0|0:0,0:0:0:0:
364,228,19045,5,6,0:0:0:0:
508,196,19279,1,0,0:0:0:0:
433,69,19513,2,0,P|391:70|337:41,1,100.125003819466,0|0,0:0|0:0,0:0:0:0:
340,44,19982,2,0,L|272:48,1,66.7500025463105,0|0,0:0|0:0,0:0:0:0:
220,156,20451,2,0,L|286:159,1,66.7500025463105,0|0,0:0|0:0,0:0:0:0:
148,60,20920,6,0,P|84:68|24:36,1,133.500005092621,6|0,0:0|0:0,0:0:0:0:
24,36,21857,2,0,L|20:104,1,66.7500025463105,0|0,0:0|0:0,0:0:0:0:
44,232,22326,1,0,0:0:0:0:
144,148,22560,1,0,0:0:0:0:
144,148,22677,1,0,0:0:0:0:
144,148,22795,6,0,L|148:216,1,66.7500025463105,6|0,0:0|0:0,0:0:0:0:
232,112,23263,2,0,L|230:180,1,66.7500025463105,0|0,0:0|0:0,0:0:0:0:
316,140,23732,2,0,L|320:208,1,66.7500025463105,0|0,0:0|0:0,0:0:0:0:
312,336,24201,1,0,0:0:0:0:
428,280,24435,2,0,L|424:320,2,22.2500008487702
424,268,24670,6,0,B|412:228|412:228|424:124,1,120.149996333313,4|2,0:3|0:3,0:0:0:0:
424,124,25138,1,0,0:0:0:0:
448,28,25373,1,2,0:3:0:0:
512,176,25607,2,0,L|504:252,2,40.049998777771,0|2|0,0:0|0:3|0:0,0:0:0:0:
348,52,26076,2,0,L|268:56,1,80.0999975555421,2|0,0:3|0:0,0:0:0:0:
256,64,26427,1,2,0:3:0:0:
244,72,26545,6,0,P|192:84|132:60,1,120.149996333313,4|2,0:3|0:3,0:0:0:0:
116,44,27013,2,0,P|124:80|120:124,1,80.0999975555421,0|2,0:0|0:3,0:0:0:0:
128,268,27482,2,0,L|188:260,2,40.049998777771,0|2|0,0:0|0:3|0:0,0:0:0:0:
0,204,27951,1,2,0:3:0:0:
212,168,28185,2,0,L|214:140,2,26.6999991851807,0|0|0,0:0|0:0|0:0,0:0:0:0:
220,180,28420,6,0,P|248:220|252:312,1,120.149996333313,4|2,0:3|0:3,0:0:0:0:
252,312,28888,1,0,0:0:0:0:
128,268,29123,1,2,0:3:0:0:
348,276,29357,1,0,0:0:0:0:
348,276,29474,2,0,L|448:268,1,80.0999975555421,2|0,0:3|0:0,0:0:0:0:
448,268,29826,1,2,0:3:0:0:
330,146,30060,2,0,L|326:118,2,26.6999991851807
332,160,30295,6,0,P|348:104|336:44,1,120.149996333313,4|2,3:0|0:3,0:0:0:0:
264,16,30763,2,0,L|184:12,1,80.0999975555421,0|2,0:0|0:3,0:0:0:0:
84,148,31232,1,0,0:0:0:0:
84,148,31349,2,0,L|188:144,1,80.0999975555421,2|0,0:3|0:0,0:0:0:0:
188,144,31701,1,2,0:3:0:0:
248,292,31935,2,0,L|207:288,2,26.6999991851807
256,300,32170,6,0,B|212:296|212:296|184:300|184:300|136:296,1,120.149996333313,4|2,0:3|0:3,0:0:0:0:
112,292,32638,1,0,0:0:0:0:
92,140,32873,1,2,0:3:0:0:
232,200,33107,1,0,0:0:0:0:
233,205,33224,1,2,0:3:0:0:
234,210,33341,1,0,0:0:0:0:
368,272,33576,2,0,L|376:188,1,80.0999975555421,2|0,0:3|0:0,0:0:0:0:
372,180,33927,1,2,0:3:0:0:
368,168,34044,6,0,B|360:132|360:132|380:52,1,120.149996333313,4|2,0:3|0:3,0:0:0:0:
388,28,34513,2,0,P|428:32|468:24,1,80.0999975555421,0|2,0:0|0:3,0:0:0:0:
272,72,34982,1,0,0:0:0:0:
271,77,35099,1,2,0:3:0:0:
270,82,35216,1,0,0:0:0:0:
160,12,35451,2,0,L|164:92,1,80.0999975555421,2|0,0:3|0:0,0:0:0:0:
159,103,35802,1,2,0:3:0:0:
154,114,35920,6,0,B|142:150|142:150|138:190|158:230,1,120.149996333313,4|2,0:3|0:3,0:0:0:0:
158,230,36388,1,0,0:0:0:0:
244,169,36623,1,2,0:3:0:0:
184,328,36857,2,0,L|180:368,2,40.049998777771,0|2|0,0:0|0:3|0:0,0:0:0:0:
244,169,37326,1,2,0:3:0:0:
280,292,37560,6,0,B|316:308|316:308|408:292,1,133.5,0|0,0:0|0:0,0:0:0:0:
424,288,38966,5,0,0:0:0:0:
332,216,39201,2,0,P|308:164|320:88,1,133.5
368,32,39670,6,0,L|460:28,1,89,4|2,0:0|0:0,0:0:0:0:
240,88,40138,2,0,L|140:84,1,89,0|2,1:0|0:0,0:0:0:0:
28,80,40607,1,4,0:3:0:0:
84,188,40841,1,2,0:0:0:0:
208,184,41076,2,0,P|244:188|300:168,1,89,0|2,1:0|0:0,0:0:0:0:
396,104,41545,5,4,0:3:0:0:
408,228,41779,1,2,0:0:0:0:
294,173,42013,1,0,1:0:0:0:
508,156,42248,1,2,0:0:0:0:
420,352,42482,5,4,0:3:0:0:
304,300,42716,1,2,0:0:0:0:
408,228,42951,1,0,1:0:0:0:
420,352,43185,1,2,0:0:0:0:
224,340,43420,6,0,B|156:332|156:332|116:340|116:340|48:332,1,178,4|0,2:3|1:0,1:0:0:0:
48,332,44123,1,2,0:0:0:0:
84,176,44357,1,4,0:3:0:0:
0,240,44591,1,2,0:0:0:0:
160,248,44826,2,0,L|260:260,1,89,0|2,1:0|0:0,0:0:0:0:
416,280,45295,5,4,0:3:0:0:
348,112,45529,1,2,0:0:0:0:
172,156,45763,2,0,L|260:168,1,89,0|2,1:0|0:0,0:0:0:0:
408,192,46232,5,4,0:3:0:0:
408,192,46466,1,2,0:0:0:0:
396,352,46701,1,0,1:0:0:0:
264,260,46935,1,2,0:0:0:0:
491,172,47170,6,0,P|406:190|335:141,1,178,4|0,2:0|1:0,1:0:0:0:
428,88,47873,1,2,0:0:0:0:
312,248,48107,2,0,P|324:288|320:336,1,89,4|2,0:3|0:0,0:0:0:0:
236,176,48576,2,0,P|232:131|244:89,1,89,0|2,1:0|0:0,0:0:0:0:
212,284,49045,5,4,0:3:0:0:
312,248,49279,1,2,0:0:0:0:
136,212,49513,2,0,L|48:208,1,89,0|2,1:0|0:0,0:0:0:0:
212,284,49982,5,4,0:3:0:0:
332,144,50216,1,2,0:0:0:0:
152,100,50450,2,0,L|64:96,1,89,0|2,1:0|0:0,0:0:0:0:
260,64,50920,6,0,P|348:68|424:24,1,178,4|0,2:3|1:0,1:0:0:0:
504,120,51623,1,2,0:0:0:0:
436,224,51857,2,0,P|412:272|432:348,1,133.5,4|0,2:3|0:0,1:0:0:0:
444,364,52326,2,0,L|356:360,1,89,0|2,1:0|0:0,0:0:0:0:
204,248,52795,6,0,P|244:240|292:244,1,89,4|2,3:0|0:0,0:0:0:0:
492,288,53263,1,2,1:2:0:0:
412,132,53498,1,0,0:0:0:0:
292,244,53732,5,0,3:0:0:0:
436,224,53966,1,2,0:0:0:0:
268,152,54201,2,0,B|232:144|232:144|180:152,1,89,8|0,0:3|0:0,0:0:0:0:
59,279,54670,6,0,P|123:294|183:269,1,133.5,4|0,0:0|0:0,0:0:0:0:
204,248,55138,1,2,1:2:0:0:
116,188,55373,1,0,0:0:0:0:
256,344,55607,1,4,0:3:0:0:
316,256,55841,1,0,3:0:0:0:
204,248,56076,1,2,1:2:0:0:
368,348,56310,1,0,0:0:0:0:
264,152,56545,6,0,P|252:88|200:44,1,133.5,4|0,0:3|0:0,0:0:0:0:
176,36,57013,2,0,L|268:32,1,89,2|0,1:2|3:0,0:0:0:0:
484,76,57482,1,4,0:3:0:0:
376,120,57716,2,0,P|367:76|375:33,1,89,0|2,3:0|1:2,0:0:0:0:
468,192,58185,1,0,0:0:0:0:
316,296,58420,6,0,L|156:300,1,133.5,4|0,0:3|0:0,0:0:0:0:
156,300,58888,2,0,P|176:332|184:384,1,89,2|0,1:2|0:0,0:0:0:0:
60,228,59357,1,4,0:3:0:0:
260,180,59591,2,0,L|143:183,1,89,0|2,3:0|1:2,0:0:0:0:
76,108,60060,1,0,0:0:0:0:
207,52,60295,6,0,P|296:56|336:40,1,133.5,4|0,0:3|0:0,0:0:0:0:
336,40,60763,1,2,1:2:0:0:
360,144,60998,2,0,L|356:232,1,89,0|4,0:0|0:3,0:0:0:0:
468,64,61466,2,0,L|472:152,1,89,0|2,3:0|1:2,0:0:0:0:
428,308,61935,1,0,0:0:0:0:
428,308,62170,6,0,P|344:328|264:288,1,178,4|2,0:3|1:2,0:0:0:0:
216,184,62873,1,0,0:0:0:0:
332,196,63107,1,4,0:3:0:0:
152,280,63341,1,0,3:0:0:0:
332,196,63576,2,0,B|364:204|364:204|420:196,1,89,2|0,1:2|0:0,0:0:0:0:
216,184,64045,6,0,P|124:180|84:188,1,133.5,4|0,0:3|0:0,0:0:0:0:
84,188,64513,1,2,1:2:0:0:
44,308,64748,1,0,0:0:0:0:
248,376,64982,2,0,P|264:336|268:291,1,89,4|0,0:3|3:0,0:0:0:0:
44,308,65451,2,0,L|132:305,1,89,2|0,1:2|0:0,0:0:0:0:
260,200,65920,6,0,B|201:203|201:203|143:185|143:185|84:188,1,178,4|2,0:3|1:2,0:0:0:0:
176,64,66623,1,0,0:0:0:0:
315,127,66857,2,0,P|344:187|333:251,1,133.5,4|0,0:3|0:0,0:0:0:0:
316,276,67326,2,0,L|227:281,1,89,2|0,1:2|0:0,0:0:0:0:
427,342,67795,5,4,0:3:0:0:
426,213,68029,1,2,0:0:0:0:
426,213,68263,1,2,1:2:0:0:
316,276,68498,1,0,0:0:0:0:
501,276,68732,5,4,0:3:0:0:
414,112,68966,1,2,0:0:0:0:
329,172,69201,1,2,1:2:0:0:
507,152,69435,1,0,0:0:0:0:
401,8,69670,1,4,0:3:0:0:
328,168,84670,6,0,L|448:164,1,120.149996333313,4|2,0:3|0:3,0:0:0:0:
448,163,85138,1,0,0:0:0:0:
324,292,85373,1,2,0:3:0:0:
304,296,85490,1,0,0:0:0:0:
284,300,85607,1,0,0:0:0:0:
128,324,85841,1,2,0:3:0:0:
98,168,86076,2,0,B|130:176|130:176|178:168,1,80.0999975555421,2|0,0:3|0:0,0:0:0:0:
192,160,86427,1,2,0:3:0:0:
208,152,86545,6,0,B|240:144|240:144|288:152,1,80.0999975555421,4|0,0:3|0:0,0:0:0:0:
308,156,86896,1,2,0:3:0:0:
328,160,87013,2,0,L|408:157,1,80.0999975555421,0|2,0:0|0:3,0:0:0:0:
240,52,87482,2,0,L|164:56,2,40.049998777771,0|2|0,0:0|0:3|0:0,0:0:0:0:
372,16,87951,1,2,0:3:0:0:
484,92,88185,2,0,L|488:64,2,26.6999991851807
492,104,88420,6,0,P|508:156|480:228,1,120.149996333313,4|2,0:3|0:3,0:0:0:0:
472,236,88888,2,0,L|391:233,1,80.0999975555421,0|2,0:0|0:3,0:0:0:0:
232,324,89357,1,0,0:0:0:0:
232,324,89474,2,0,L|336:320,1,80.0999975555421,2|0,0:3|0:0,0:0:0:0:
336,320,89826,1,2,0:3:0:0:
208,192,90060,2,0,L|234:189,2,26.6999991851807
192,196,90295,6,0,P|136:200|80:172,1,120.149996333313,4|2,0:3|0:3,0:0:0:0:
44,100,90763,2,0,B|40:68|40:68|52:16,1,80.0999975555421,0|2,0:0|0:3,0:0:0:0:
132,236,91232,1,0,0:0:0:0:
132,236,91349,2,0,B|136:268|136:268|124:320,1,80.0999975555421,2|0,0:3|0:3,0:0:0:0:
120,336,91701,1,2,0:3:0:0:
296,248,91935,1,0,0:0:0:0:
296,248,92052,1,0,0:0:0:0:
296,248,92170,6,0,L|400:240,1,80.0999975555421,4|0,0:3|0:0,0:0:0:0:
396,236,92521,1,2,0:3:0:0:
412,224,92638,2,0,P|420:184|412:144,1,80.0999975555421,0|2,0:0|0:3,0:0:0:0:
252,136,93107,1,0,0:0:0:0:
252,136,93224,1,2,0:3:0:0:
252,136,93341,1,0,0:0:0:0:
134,246,93576,2,0,L|54:242,1,80.0999975555421,2|0,0:3|0:0,0:0:0:0:
49,231,93927,1,2,0:3:0:0:
44,220,94045,6,0,P|32:164|56:104,1,120.149996333313,4|2,0:3|0:3,0:0:0:0:
76,88,94513,2,0,L|160:84,1,80.0999975555421,0|2,0:0|0:3,0:0:0:0:
360,60,94982,2,0,L|358:19,2,40.049998777771,0|2|0,0:0|0:3|0:0,0:0:0:0:
267,120,95451,2,0,L|263:200,1,80.0999975555421,2|0,0:3|0:0,0:0:0:0:
260,212,95802,1,2,0:3:0:0:
256,224,95920,6,0,L|252:344,1,120.149996333313,4|2,0:3|0:3,0:0:0:0:
252,344,96388,1,0,0:0:0:0:
356,284,96623,1,2,0:3:0:0:
152,272,96857,2,0,L|88:276,2,40.049998777771,0|2|0,0:0|0:3|0:0,0:0:0:0:
208,152,97326,1,2,0:3:0:0:
340,164,97560,1,0,0:0:0:0:
340,164,97677,1,0,0:0:0:0:
340,164,97795,6,0,B|380:176|416:156|416:156|408:192|420:228|448:248,1,178,4|0,0:3|0:0,0:0:0:0:
512,176,98966,5,0,0:0:0:0:
368,80,99201,2,0,P|300:84|252:136,1,133.5
240,208,99670,6,0,L|244:296,1,89,4|2,0:0|0:0,0:0:0:0:
244,296,100138,1,0,1:0:0:0:
332,180,100373,1,2,0:0:0:0:
152,152,100607,2,0,L|156:240,1,89,4|2,0:3|0:0,0:0:0:0:
152,348,101076,1,0,1:0:0:0:
240,208,101310,1,2,0:0:0:0:
64,192,101545,6,0,P|56:148|68:104,1,89,4|2,0:3|0:0,0:0:0:0:
152,56,102013,1,0,1:0:0:0:
152,152,102248,1,2,0:0:0:0:
67,106,102482,5,4,0:3:0:0:
244,44,102716,1,2,0:0:0:0:
224,232,102951,2,0,L|136:228,1,89,0|2,1:0|0:0,0:0:0:0:
380,175,103420,6,0,P|320:238|326:324,1,178,4|0,2:3|1:0,1:0:0:0:
424,276,104123,1,2,0:0:0:0:
216,312,104357,2,0,P|172:308|128:320,1,89,4|2,0:3|0:0,0:0:0:0:
44,368,104826,1,0,1:0:0:0:
124,224,105060,1,2,0:0:0:0:
16,100,105295,6,0,L|20:188,1,89,4|2,0:3|0:0,0:0:0:0:
44,296,105763,1,0,1:0:0:0:
156,180,105998,1,2,0:0:0:0:
92,32,106232,5,4,0:3:0:0:
92,32,106466,1,2,0:0:0:0:
124,224,106701,1,0,1:0:0:0:
16,100,106935,1,2,0:0:0:0:
184,72,107170,6,0,B|252:64|252:64|292:72|292:72|360:64,1,178,4|0,2:0|1:0,1:0:0:0:
468,44,107873,1,2,0:0:0:0:
388,168,108107,2,0,P|400:208|396:256,1,89,4|2,0:3|0:0,0:0:0:0:
276,100,108576,2,0,P|272:55|284:13,1,89,0|2,1:0|0:0,0:0:0:0:
316,216,109045,5,4,0:3:0:0:
196,192,109279,1,2,0:0:0:0:
100,268,109513,2,0,P|88:300|92:356,1,89,0|2,1:0|0:0,0:0:0:0:
196,192,109982,5,4,0:3:0:0:
216,320,110216,1,2,0:0:0:0:
344,348,110451,2,0,P|376:360|432:356,1,89,0|2,1:0|0:0,0:0:0:0:
400,236,110920,6,0,B|344:220|344:220|316:248|272:256|232:244,1,178,4|0,2:3|1:0,1:0:0:0:
124,132,111623,1,2,0:0:0:0:
276,164,111857,2,0,P|332:136|404:156,1,133.5,4|0,2:3|0:0,1:0:0:0:
424,164,112326,2,0,L|420:76,1,89,0|2,1:0|0:0,0:0:0:0:
187,5,112795,6,0,L|183:93,1,89,4|2,0:3|0:0,0:0:0:0:
82,187,113263,1,2,1:2:0:0:
59,53,113498,1,0,0:0:0:0:
183,94,113732,5,0,3:0:0:0:
13,131,113966,1,2,0:0:0:0:
131,261,114201,2,0,L|220:256,1,89,8|0,0:3|0:0,0:0:0:0:
448,312,114670,6,0,P|388:324|304:284,1,133.5,4|0,0:0|0:0,0:0:0:0:
300,280,115138,1,2,1:2:0:0:
404,164,115373,1,0,0:0:0:0:
448,312,115607,1,4,0:3:0:0:
320,184,115841,1,0,3:0:0:0:
156,264,116076,2,0,L|68:268,1,89,2|0,1:2|0:0,0:0:0:0:
280,256,116545,6,0,P|336:260|396:208,1,133.5,4|0,0:3|0:0,0:0:0:0:
400,184,117013,1,2,1:2:0:0:
272,104,117248,1,0,0:0:0:0:
280,256,117482,1,4,0:3:0:0:
364,100,117716,1,0,3:0:0:0:
196,40,117951,2,0,L|107:37,1,89,2|0,1:2|0:0,0:0:0:0:
232,176,118420,6,0,L|96:180,1,133.5,4|0,0:3|0:0,0:0:0:0:
99,180,118888,1,2,1:2:0:0:
168,276,119123,1,0,0:0:0:0:
8,216,119357,2,0,P|1:172|14:129,1,89,4|0,0:3|3:0,0:0:0:0:
196,80,119826,2,0,L|72:84,1,89,2|0,1:2|0:0,0:0:0:0:
232,176,120295,6,0,P|300:184|356:156,1,133.5,4|0,0:3|0:0,0:0:0:0:
376,136,120763,1,2,1:2:0:0:
332,268,120998,2,0,P|308:300|300:348,1,89,0|4,0:0|0:3,0:0:0:0:
232,176,121466,2,0,P|192:181|152:209,1,89,0|2,3:0|1:2,0:0:0:0:
280,48,121935,1,0,0:0:0:0:
280,48,122170,6,0,P|208:24|108:32,1,178,4|2,0:3|1:2,0:0:0:0:
20,108,122873,1,0,0:0:0:0:
128,144,123107,1,4,0:3:0:0:
108,32,123341,1,0,3:0:0:0:
44,224,123576,2,0,L|48:312,1,89,2|0,1:2|0:0,0:0:0:0:
188,200,124045,6,0,L|184:360,1,133.5,4|0,0:3|0:0,0:0:0:0:
184,360,124513,2,0,P|188:348|240:296,1,89,2|0,1:2|0:0,0:0:0:0:
424,248,124982,1,4,0:3:0:0:
316,220,125216,1,0,3:0:0:0:
456,348,125451,2,0,P|412:352|364:336,1,89,2|0,1:2|0:0,0:0:0:0:
216,192,125920,6,0,P|280:128|372:132,1,178,4|2,0:3|1:2,0:0:0:0:
363,128,126623,1,0,0:0:0:0:
244,52,126857,2,0,B|84:56,1,133.5,4|0,0:3|0:0,0:0:0:0:
84,56,127326,2,0,P|124:72|152:108,1,89,2|0,1:2|0:0,0:0:0:0:
192,216,127795,5,4,0:3:0:0:
184,332,128029,1,2,0:0:0:0:
184,332,128263,1,2,1:2:0:0:
88,268,128497,1,0,0:0:0:0:
288,280,128732,5,4,0:3:0:0:
419,89,128966,1,2,0:0:0:0:
201,165,129201,1,2,1:2:0:0:
421,232,129435,1,0,0:0:0:0:
283,47,129670,6,0,P|239:51|195:39,1,89,4|0,0:0|0:0,0:0:0:0:
8,80,130373,2,0,L|96:84,1,89,2|0,0:0|0:0,0:0:0:0:
184,148,131076,1,2,0:0:0:0:
184,148,131545,6,0,P|225:133|269:137,1,89
363,240,132248,2,0,P|299:251|239:224,1,133.5,0|0,0:0|0:0,0:0:0:0:
312,156,133185,1,0,0:0:0:0:
183,286,133420,6,0,B|148:296|148:296|96:288,1,89,2|0,0:0|0:0,0:0:0:0:
36,176,134123,2,0,B|71:166|71:166|123:174,1,89,2|0,0:0|0:0,0:0:0:0:
112,304,134826,2,0,L|68:296,1,44.5,2|0,0:0|0:0,0:0:0:0:
228,252,135295,6,0,P|272:256|332:244,1,89,2|0,0:0|0:0,0:0:0:0:
424,308,135998,2,0,P|440:252|416:180,1,133.5,0|0,0:0|0:0,0:0:0:0:
312,120,136935,1,0,0:0:0:0:
332,256,137170,6,0,L|328:348,1,89,2|0,0:0|0:0,0:0:0:0:
196,292,137873,2,0,L|200:204,1,89,2|0,0:0|0:0,0:0:0:0:
256,96,138576,1,2,0:0:0:0:
256,96,139045,6,0,P|260:52|244:8,1,89
84,76,139748,2,0,L|77:212,1,133.5
72,312,140685,1,0,0:0:0:0:
164,268,140920,6,0,P|212:272|252:264,1,89,2|0,0:0|0:0,0:0:0:0:
304,148,141623,2,0,P|260:139|216:144,1,89,2|0,0:0|0:0,0:0:0:0:
120,176,142326,1,2,0:0:0:0:
252,264,142560,1,0,0:0:0:0:
392,192,142795,6,0,P|400:148|384:92,1,89,2|0,0:0|0:0,0:0:0:0:
472,212,143498,2,0,P|480:136|464:68,1,133.5
280,280,144670,6,0,B|324:292|324:292|412:276,1,133.500005092621,4|4,0:3|0:3,0:0:0:0:
304,148,145373,1,2,0:0:0:0:
304,148,145607,2,0,L|236:144,1,66.7500025463105,4|0,0:3|0:0,0:0:0:0:
92,176,146076,5,4,0:3:0:0:
188,288,146310,1,2,0:0:0:0:
188,288,146427,1,0,0:0:0:0:
188,288,146544,2,0,L|256:284,1,66.7500025463105,4|0,0:3|0:0,0:0:0:0:
464,248,147013,2,0,L|396:244,1,66.7500025463105,4|2,0:3|0:0,0:0:0:0:
304,148,147482,6,0,P|296:100|312:52,1,100.125003819466,4|0,0:3|0:0,0:0:0:0:
324,40,147951,2,0,L|392:36,1,66.7500025463105,4|2,0:3|0:0,0:0:0:0:
220,75,148420,6,0,P|155:88|92:56,1,133.500005092621,4|4,0:3|0:3,0:0:0:0:
168,0,149123,1,2,0:0:0:0:
236,84,149357,2,0,P|248:116|252:152,1,66.7500025463105,4|0,0:3|0:0,0:0:0:0:
148,256,149826,2,0,L|152:188,1,66.7500025463105,2|0,0:0|0:0,0:0:0:0:
192,240,159670,6,0,L|188:308,1,66.7500025463105,4|0,3:0|0:0,0:0:0:0:
284,216,160138,2,0,L|285:284,1,66.7500025463105,2|0,0:0|0:0,0:0:0:0:
376,176,160607,2,0,L|384:284,1,100.125003819466,4|0,3:0|0:0,3:0:0:0:
376,296,161076,2,0,P|372:332|376:364,1,66.7500025463105,2|0,0:0|3:0,0:0:0:0:
460,208,161545,6,0,P|463:174|459:141,1,66.7500025463105,4|0,3:0|0:0,0:0:0:0:
300,40,162013,2,0,P|296:84|300:140,1,100.125003819466,2|0,2:0|0:0,3:0:0:0:
300,140,162482,1,4,3:0:0:0:
388,92,162716,1,0,3:0:0:0:
340,228,162951,1,2,0:0:0:0:
300,40,163185,1,0,3:0:0:0:
476,152,163420,6,0,L|472:220,1,66.7500025463105,4|0,3:0|3:0,0:0:0:0:
388,188,163888,2,0,L|384:260,1,71.2,4|0,3:0|3:0,0:0:0:0:
272,361,164357,6,0,L|268:285,1,75.6500014429093,4|0,3:0|3:0,0:0:0:0:
184,320,164826,2,0,L|180:237,1,80.0999975555421,4|0,3:0|3:0,0:0:0:0:
96,104,165295,6,0,L|92:188,1,84.5499977422715,4|0,3:0|3:0,0:0:0:0:
8,140,165763,2,0,L|4:228,1,89,4|0,3:0|3:0,0:0:0:0:
60,20,166232,6,0,P|104:16|152:28,1,89,0|0,3:0|0:0,0:0:0:0:
231,138,166701,2,0,P|187:147|143:143,1,89,0|0,3:0|0:0,0:0:0:0:
332,48,167170,6,0,L|328:208,1,133.5,4|0,0:0|0:0,0:0:0:0:
328,208,167638,1,2,1:2:0:0:
430,154,167872,1,0,0:0:0:0:
230,138,168106,1,4,0:3:0:0:
315,320,168341,1,0,3:0:0:0:
420,272,168575,1,2,1:2:0:0:
223,255,168810,1,0,0:0:0:0:
468,356,169045,6,0,B|488:332|488:332|512:288|500:232,1,133.5,4|0,0:3|0:0,0:0:0:0:
492,204,169513,2,0,P|468:164|436:132,1,89,2|0,1:2|0:0,0:0:0:0:
264,116,169982,1,4,0:3:0:0:
308,284,170216,2,0,P|353:283|396:272,1,89,0|2,3:0|1:2,0:0:0:0:
492,204,170685,1,0,0:0:0:0:
264,212,170920,6,0,P|236:248|240:336,1,133.5,4|0,0:3|0:0,0:0:0:0:
256,356,171388,1,2,1:2:0:0:
136,276,171623,1,0,0:0:0:0:
308,284,171857,2,0,L|400:288,1,89,4|0,0:3|3:0,0:0:0:0:
344,168,172326,2,0,L|464:164,1,89,2|0,1:2|0:0,0:0:0:0:
284,64,172795,6,0,L|416:48,1,133.5,4|0,0:3|0:0,0:0:0:0:
416,48,173263,1,2,1:2:0:0:
505,206,173498,2,0,P|513:163|504:120,1,89,0|4,0:0|0:3,0:0:0:0:
392,240,173966,2,0,P|375:199|344:168,1,89,0|2,3:0|1:2,0:0:0:0:
320,332,174435,1,0,0:0:0:0:
320,332,174670,6,0,P|240:296|152:304,1,178,4|2,0:3|1:2,0:0:0:0:
48,356,175373,1,0,0:0:0:0:
56,240,175607,2,0,B|48:208|48:208|56:152,1,89,4|0,0:3|3:0,0:0:0:0:
240,208,176076,2,0,B|248:240|248:240|240:296,1,89,2|0,1:2|0:0,0:0:0:0:
156,148,176545,6,0,P|216:112|288:116,1,133.5,4|0,0:3|0:0,0:0:0:0:
308,112,177013,2,0,P|264:104|220:64,1,89,2|0,1:2|0:0,0:0:0:0:
76,96,177482,1,4,3:0:0:0:
300,28,177716,2,0,L|388:32,1,89,0|2,3:0|1:2,0:0:0:0:
172,24,178185,1,0,0:0:0:0:
240,208,178420,6,0,B|280:236|344:232|376:204|376:204|412:156,1,178,4|2,0:3|1:2,0:0:0:0:
448,84,179123,1,0,0:0:0:0:
492,212,179357,2,0,B|468:252|468:252|480:296|456:336,1,133.5,4|0,0:3|0:0,0:0:0:0:
436,352,179826,2,0,B|404:360|404:360|348:352,1,89,2|0,1:2|0:0,0:0:0:0:
196,320,180295,5,4,0:3:0:0:
300,204,180529,1,2,0:0:0:0:
300,204,180763,1,2,1:2:0:0:
350,352,180998,1,0,0:0:0:0:
200,224,181232,5,4,0:3:0:0:
12,284,181466,1,2,0:0:0:0:
152,320,181701,2,0,L|248:316,1,89,0|0,1:0|0:0,0:0:0:0:
388,252,182170,6,0,P|392:172|328:104,1,178,4|2,0:0|1:2,0:0:0:0:
216,76,182873,1,0,0:0:0:0:
216,76,182990,1,0,0:0:0:0:
216,76,183107,2,0,L|112:80,1,89,4|0,0:3|0:0,0:0:0:0:
392,168,183576,2,0,L|480:172,1,89,2|0,1:2|0:0,0:0:0:0:
300,204,184045,6,0,P|223:228|141:184,1,178,4|2,0:3|1:2,0:0:0:0:
96,80,184748,1,0,0:0:0:0:
96,80,184865,1,0,0:0:0:0:
96,80,184982,1,4,0:3:0:0:
208,92,185216,1,0,0:0:0:0:
28,172,185451,2,0,L|32:268,1,89,2|0,1:2|0:0,0:0:0:0:
232,320,185920,6,0,B|228:243|228:243|232:220|232:220|228:143,1,178,4|2,0:3|1:2,0:0:0:0:
132,208,186623,1,0,0:0:0:0:
132,208,186740,1,0,0:0:0:0:
132,208,186857,2,0,B|124:248|124:248|128:304,1,89,4|0,0:3|0:0,0:0:0:0:
328,276,187326,2,0,B|336:236|336:236|332:180,1,89,2|0,1:2|0:0,0:0:0:0:
224,100,187795,6,0,L|232:264,1,133.5,4|0,0:3|0:0,0:0:0:0:
232,264,188263,1,2,1:2:0:0:
135,131,188498,2,0,P|132:87|146:46,1,89,0|4,0:0|0:3,0:0:0:0:
300,44,188966,2,0,P|314:85|310:129,1,89,0|2,0:0|1:2,0:0:0:0:
144,268,189435,1,0,0:0:0:0:
144,268,189670,6,0,L|324:260,1,178,4|2,0:3|1:2,0:0:0:0:
420,320,190373,1,0,0:0:0:0:
420,320,190490,1,0,0:0:0:0:
419,320,190607,2,0,P|433:277|431:233,1,89,4|0,0:3|0:0,0:0:0:0:
264,152,191076,2,0,L|352:148,1,89,2|0,1:2|0:0,0:0:0:0:
164,168,191545,6,0,P|79:186|3:143,1,178,4|2,0:3|1:2,0:0:0:0:
96,80,192248,1,0,0:0:0:0:
16,264,192482,2,0,L|20:352,1,89,4|0,0:3|0:0,0:0:0:0:
116,224,192951,2,0,L|116:312,1,89,2|0,1:2|0:0,0:0:0:0:
224,188,193420,6,0,L|220:324,1,133.5,4|0,0:3|0:0,0:0:0:0:
220,321,193888,1,2,1:2:0:0:
360,220,194123,1,0,0:0:0:0:
232,104,194357,2,0,B|205:101|182:112|182:112|148:87|104:93,1,133.5,4|0,0:3|0:0,0:0:0:0:
75,101,194826,2,0,B|28:112|4:152,1,89,2|0,1:2|0:0,0:0:0:0:
116,224,195295,5,4,0:0:0:0:
112,356,195529,1,0,0:0:0:0:
144,338,195646,1,0,0:0:0:0:
179,326,195763,1,0,1:0:0:0:
216,320,195880,1,0,0:0:0:0:
253,320,195997,1,0,3:0:0:0:
289,327,196114,1,0,3:0:0:0:
324,340,196232,6,0,L|367:359,3,44.5,4|0|0|0,3:0|0:0|3:0|3:0,0:0:0:0:
384,256,196701,2,0,L|431:251,3,44.5,0|0|0|0,1:0|0:0|3:0|3:0,0:0:0:0:
400,152,197170,6,0,B|440:124|440:124|468:92|472:36|448:4,1,178,4|0,0:0|1:0,0:0:0:0:
316,96,197873,1,2,0:0:0:0:
312,100,197990,1,0,0:0:0:0:
308,104,198107,2,0,P|296:144|300:192,1,89,4|2,0:3|0:0,0:0:0:0:
448,328,198576,1,2,1:2:0:0:
448,328,199045,6,0,L|464:240,1,89,4|2,0:3|0:0,0:0:0:0:
328,292,199513,2,0,L|336:202,1,89,2|0,1:2|0:0,0:0:0:0:
208,304,199982,2,0,L|199:214,1,89,4|2,0:3|0:0,0:0:0:0:
188,92,200451,1,0,1:0:0:0:
188,92,200920,6,0,P|116:108|28:60,1,178,4|0,0:3|1:0,0:0:0:0:
0,180,201623,1,2,0:0:0:0:
0,180,201740,1,0,0:0:0:0:
0,180,201857,2,0,P|16:220|12:284,1,89,4|0,0:3|0:0,0:0:0:0:
148,280,202326,2,0,P|159:237|186:201,1,89,2|0,1:2|0:0,0:0:0:0:
284,140,202795,5,4,0:3:0:0:
244,276,203029,1,2,0:0:0:0:
384,240,203263,1,2,1:2:0:0:
284,140,203498,1,0,0:0:0:0:
328,320,203732,5,4,0:3:0:0:
380,144,203966,1,2,0:0:0:0:
200,188,204200,1,0,1:0:0:0:
384,240,204435,1,0,0:0:0:0:
283,140,204670,6,0,P|204:168|120:124,1,178,4|0,0:0|1:0,0:0:0:0:
48,40,205373,1,2,0:0:0:0:
48,40,205490,1,0,0:0:0:0:
48,39,205607,2,0,P|87:20|140:16,1,89,4|2,0:3|0:0,0:0:0:0:
336,28,206076,1,2,1:2:0:0:
336,28,206545,6,0,P|372:48|400:92,1,89,4|2,0:3|0:0,0:0:0:0:
272,148,207013,2,0,P|293:183|295:235,1,89,2|0,1:2|0:0,0:0:0:0:
156,220,207482,2,0,P|156:261|132:307,1,89,4|2,3:0|0:0,0:0:0:0:
16,228,207951,1,0,1:0:0:0:
16,228,208420,6,0,B|4:168|4:168|24:52,1,178,4|0,0:3|1:0,0:0:0:0:
200,140,209123,1,2,0:0:0:0:
200,140,209240,1,0,0:0:0:0:
200,140,209357,2,0,P|204:184|188:232,1,89,4|0,0:3|0:0,0:0:0:0:
84,168,209826,2,0,L|100:76,1,89,2|0,1:2|0:0,0:0:0:0:
88,292,210295,5,4,3:0:0:0:
192,227,210529,1,2,0:0:0:0:
308,268,210763,2,0,B|340:256|340:256|396:260,1,89,2|0,1:2|0:0,0:0:0:0:
475,355,211232,5,4,3:0:0:0:
500,318,211349,1,0,0:0:0:0:
512,276,211466,1,0,0:0:0:0:
508,231,211583,1,0,3:0:0:0:
490,191,211700,1,0,1:0:0:0:
376,120,211935,1,8,0:3:0:0:
376,120,212052,1,4,0:3:0:0:
376,120,212170,6,0,B|320:140|320:140|204:116,1,178,4|0,0:0|1:0,0:0:0:0:
92,156,212873,1,2,0:0:0:0:
92,156,212990,1,0,0:0:0:0:
92,156,213107,2,0,P|84:108|96:68,1,89,4|2,0:3|0:0,0:0:0:0:
100,272,213576,1,2,1:2:0:0:
101,272,214045,6,0,L|70:354,1,89,4|2,0:3|0:0,0:0:0:0:
212,248,214513,2,0,L|204:336,1,89,6|0,1:2|0:0,0:0:0:0:
306,190,214982,2,0,L|321:277,1,89,4|2,0:3|0:0,0:0:0:0:
364,104,215451,1,0,1:0:0:0:
364,104,215920,6,0,P|275:103|186:100,1,178,4|0,0:3|1:0,0:0:0:0:
412,196,216623,1,2,0:0:0:0:
412,196,216740,1,0,0:0:0:0:
411,196,216857,2,0,P|456:191|500:192,1,89,4|0,0:3|0:0,0:0:0:0:
284,208,217326,2,0,P|239:208|195:204,1,89,2|0,1:2|0:0,0:0:0:0:
104,160,217795,5,4,0:3:0:0:
187,101,218029,1,2,0:0:0:0:
196,204,218263,1,2,1:2:0:0:
100,56,218497,1,0,0:0:0:0:
284,144,218732,5,4,0:3:0:0:
116,264,218966,1,8,0:3:0:0:
115,256,219084,1,4,0:3:0:0:
114,248,219200,1,0,1:0:0:0:
240,268,219435,1,0,1:0:0:0:
241,276,219553,1,0,0:0:0:0:
242,284,219670,6,0,B|291:264|291:264|355:256|411:288,1,178,4|0,0:0|1:0,0:0:0:0:
508,160,220373,1,2,0:0:0:0:
508,160,220490,1,0,0:0:0:0:
508,160,220607,2,0,P|464:164|420:152,1,89,4|2,0:3|0:0,0:0:0:0:
276,48,221076,1,2,1:2:0:0:
276,48,221545,6,0,P|232:44|189:55,1,89,4|2,0:3|0:0,0:0:0:0:
240,136,222013,2,0,P|199:154|168:188,1,80.0999975555421,2|0,1:2|0:0,0:0:0:0:
260,228,222482,2,0,P|234:264|224:304,1,71.2,4|2,0:3|0:0,0:0:0:0:
320,300,222951,1,0,1:0:0:0:
256,192,223420,12,0,227170,0:0:0:0:
