osu file format v14

[General]
AudioFilename: My Love.mp3
AudioLeadIn: 0
PreviewTime: 53564
Countdown: 0
SampleSet: Soft
StackLeniency: 0.4
Mode: 0
LetterboxInBreaks: 0
WidescreenStoryboard: 0

[Editor]
Bookmarks: 9670,24670,39670,69670,84670,99670,129670,144670,152170,159670,167170,197170,212170,219670
DistanceSpacing: 1.2
BeatDivisor: 4
GridSize: 8
TimelineZoom: 1

[Metadata]
Title:My Love
TitleUnicode:My Love
Artist:Kuba Oms
ArtistUnicode:Kuba Oms
Creator:Jenny
Version:Hard
Source:
Tags:ADHD MBC MBC4 MBC#4 Monthly Beatmapping Contest
BeatmapID:397556
BeatmapSetID:163126

[Difficulty]
HPDrainRate:5
CircleSize:4
OverallDifficulty:6
ApproachRate:7
SliderMultiplier:1.6
SliderTickRate:2

[Events]
//Background and Video events
0,0,"1349520.jpg",0,0
//Break Periods
2,69875,83775
2,129875,143775
2,152175,158775
//Storyboard Layer 0 (Background)
//Storyboard Layer 1 (Fail)
//Storyboard Layer 2 (Pass)
//Storyboard Layer 3 (Foreground)
//Storyboard Sound Samples

[TimingPoints]
9675,468.75,4,2,0,40,1,0
37448,-100,4,2,0,20,0,0
39675,-90.9090909090909,4,2,0,60,0,1
53503,-100,4,2,0,40,0,0
54323,-100,4,2,0,5,0,0
54675,-90.9090909090909,4,2,0,80,0,1
69675,-100,4,2,0,40,0,0
97448,-200,4,2,0,40,0,0
97800,-200,4,1,0,60,0,0
97917,-200,4,2,0,5,0,0
98854,-200,4,2,0,20,0,0
99675,-90.9090909090909,4,2,0,60,0,1
113503,-100,4,2,0,40,0,0
114323,-100,4,2,0,5,0,0
114675,-90.9090909090909,4,2,0,80,0,1
129675,-181.818181818182,4,2,0,40,0,0
149948,-181.818181818182,4,2,0,5,0,0
159557,-104.166666666667,4,2,0,40,0,0
166120,-104.166666666667,4,2,0,30,0,0
167175,-90.9090909090909,4,2,0,80,0,1
182057,-90.9090909090909,4,2,0,80,0,0
182175,-83.3333333333333,4,2,0,80,0,1
197057,-83.3333333333333,4,2,0,80,0,0
197175,-90.9090909090909,4,3,1,80,0,1
197292,-90.9090909090909,4,3,1,80,0,0
212175,-90.9090909090909,4,3,1,80,0,1
212409,-90.9090909090909,4,3,1,80,0,0

[Colours]
Combo1 : 255,150,0
Combo2 : 5,240,5
Combo3 : 5,5,240
Combo4 : 240,5,5

[HitObjects]
58,70,9675,5,4,0:3:0:0:
124,215,10143,2,0,P|180:225|271:164,1,160,0|4,1:0|0:3,0:0:0:0:
355,41,11081,2,0,P|411:31|502:92,1,160,0|4,1:0|0:3,0:0:0:0:
503,241,12018,1,0,1:0:0:0:
412,373,12487,2,0,P|356:383|265:322,1,160,4|0,0:3|1:0,0:0:0:0:
234,176,13425,5,4,0:3:0:0:
80,132,13893,1,0,1:0:0:0:
32,285,14362,1,4,0:3:0:0:
186,329,14831,1,0,1:0:0:0:
186,329,15300,2,0,P|224:304|284:298,1,80,0|0,0:0|0:0,0:0:0:0:
341,223,15768,2,0,P|302:213|269:190,1,80,2|0,0:0|0:0,0:0:0:0:
306,100,16237,2,0,P|344:109|377:132,1,80,0|0,0:0|0:0,0:0:0:0:
436,208,16706,1,2,0:0:0:0:
469,118,16940,1,0,0:0:0:0:
496,25,17175,5,4,0:3:0:0:
332,19,17643,2,0,P|275:37|236:130,1,160,0|4,1:0|0:3,0:0:0:0:
326,255,18581,2,0,P|300:328|229:359,1,160,0|4,1:0|0:3,0:0:0:0:
78,305,19518,1,0,1:0:0:0:
25,153,19987,2,0,P|50:79|121:48,1,160,4|0,0:3|1:0,0:0:0:0:
238,159,20925,6,0,P|305:182|450:20,1,320,4|4,0:3|0:3,0:0:0:0:
511,170,22331,1,0,1:0:0:0:
483,327,22800,1,4,0:3:0:0:
483,327,24440,2,0,L|511:371,2,40,2|0|4,3:0|3:0|0:3,0:0:0:0:
407,299,24909,5,0,0:0:0:0:
337,337,25143,2,0,P|274:346|198:282,1,160,4|4,0:3|0:3,0:0:0:0:
193,210,25846,1,8,0:3:0:0:
242,146,26081,1,4,0:3:0:0:
81,40,26550,5,4,0:3:0:0:
20,92,26784,2,0,L|-25:86,2,40,0|8|4,0:0|0:3|0:3,0:0:0:0:
26,171,27253,1,8,0:3:0:0:
79,230,27487,2,0,P|122:248|188:238,1,80,4|8,0:3|0:3,0:0:0:0:
228,217,27956,1,4,0:3:0:0:
387,115,28425,5,4,0:3:0:0:
441,173,28659,2,0,L|488:160,2,40,8|0|4,0:3|0:0|0:3,0:0:0:0:
442,253,29128,1,8,0:3:0:0:
404,323,29362,2,0,P|346:366|236:355,1,160,4|4,0:3|0:3,0:0:0:0:
189,330,30065,1,8,0:3:0:0:
188,249,30300,6,0,P|204:212|201:152,1,80,4|0,0:3|0:0,0:0:0:0:
279,118,30768,2,0,P|242:102|182:105,1,80,4|8,0:3|0:3,0:0:0:0:
148,27,31237,2,0,P|132:64|135:124,1,80,4|8,0:3|0:3,0:0:0:0:
57,158,31706,2,0,P|94:174|154:171,1,80,4|8,0:3|0:3,0:0:0:0:
211,152,32175,5,4,0:3:0:0:
268,209,32409,2,0,L|248:252,2,40,8|0|4,0:3|0:0|0:3,0:0:0:0:
347,217,32878,1,8,0:3:0:0:
422,190,33112,2,0,P|452:161|469:112,1,80,4|0,0:3|0:0,0:0:0:0:
474,45,33581,1,4,0:3:0:0:
506,234,34050,5,4,0:3:0:0:
443,284,34284,2,0,L|460:321,2,40,8|0|4,0:3|0:0|0:3,0:0:0:0:
362,289,34753,1,8,0:3:0:0:
290,253,34987,2,0,P|260:222|246:163,1,80,4|0,0:3|0:0,0:0:0:0:
264,109,35456,1,4,0:3:0:0:
80,52,35925,5,4,0:3:0:0:
130,113,36159,1,8,0:3:0:0:
138,192,36393,2,0,P|131:231|97:275,1,80,4|8,0:3|0:3,0:0:0:0:
33,289,36862,1,8,0:3:0:0:
91,343,37096,1,0,0:0:0:0:
281,364,37565,1,0,0:0:0:0:
281,362,39675,6,0,P|338:300|318:213,1,176.000005371094,4|2,0:0|1:2,0:0:0:0:
239,182,40378,1,0,0:0:0:0:
239,182,40612,2,0,L|128:195,1,88.000002685547,4|0,0:3|0:0,0:0:0:0:
81,114,41081,2,0,L|168:103,1,88.000002685547,2|0,1:2|0:0,0:0:0:0:
232,43,41550,1,4,0:3:0:0:
305,91,41784,1,0,0:0:0:0:
391,105,42018,2,0,P|442:99|490:63,1,88.000002685547,2|0,1:2|0:0,0:0:0:0:
461,189,42487,2,0,P|410:195|362:231,1,88.000002685547,4|0,0:3|0:0,0:0:0:0:
333,288,42956,1,2,1:2:0:0:
304,371,43190,1,0,0:0:0:0:
245,305,43425,6,0,P|188:289|101:364,1,176.000005371094,4|2,0:3|1:2,0:0:0:0:
28,308,44128,1,0,0:0:0:0:
28,308,44362,2,0,L|41:207,1,88.000002685547,4|0,0:3|0:0,0:0:0:0:
127,226,44831,2,0,L|151:49,1,176.000005371094,2|4,1:2|0:3,0:0:0:0:
67,22,45534,1,0,0:0:0:0:
0,79,45768,2,0,P|8:126|48:168,1,88.000002685547,2|0,1:2|0:0,0:0:0:0:
119,159,46237,2,0,P|144:194|151:237,1,88.000002685547,4|0,0:3|0:0,0:0:0:0:
124,321,46706,1,2,1:2:0:0:
328,364,47175,6,0,P|386:314|498:336,1,176.000005371094,4|2,0:3|1:2,0:0:0:0:
503,237,47878,1,0,0:0:0:0:
503,237,48112,2,0,L|488:133,1,88.000002685547,4|0,0:3|0:0,0:0:0:0:
394,100,48581,2,0,L|406:187,1,88.000002685547,2|0,1:2|0:0,0:0:0:0:
342,249,49050,2,0,P|257:260|189:207,1,176.000005371094,4|2,0:3|1:2,0:0:0:0:
153,127,49753,1,0,0:0:0:0:
169,40,49987,1,4,0:3:0:0:
20,189,50456,1,2,1:2:0:0:
169,338,50925,6,0,P|241:313|318:382,1,176.000005371094,4|2,0:3|1:2,0:0:0:0:
399,348,51628,1,0,0:0:0:0:
399,348,51862,2,0,L|375:159,1,176.000005371094,4|2,0:3|1:2,0:0:0:0:
462,195,52565,2,0,L|438:6,1,176.000005371094,0|0,0:0|0:0,0:0:0:0:
352,9,53268,1,2,1:2:0:0:
204,72,53737,1,0,0:0:0:0:
47,37,54206,1,4,0:3:0:0:
93,188,54675,6,0,P|186:203|247:138,1,176.000005371094,4|4,0:0|1:3,0:0:0:0:
316,105,55378,1,0,0:0:0:0:
316,105,55612,2,0,L|308:18,1,88.000002685547
404,64,56081,2,0,L|411:151,1,88.000002685547,4|0,1:3|0:0,0:0:0:0:
486,198,56550,2,0,P|393:183|332:248,1,176.000005371094,0|4,0:0|1:3,0:0:0:0:
288,307,57253,1,0,0:0:0:0:
375,314,57487,2,0,L|476:321,2,88.000002685547,0|0|4,0:0|0:0|1:3,0:0:0:0:
288,307,58190,1,0,0:0:0:0:
205,343,58425,6,0,P|116:326|56:382,1,176.000005371094,0|4,0:0|1:3,0:0:0:0:
2,310,59128,1,0,0:0:0:0:
2,310,59362,2,0,L|13:204,1,88.000002685547,0|0,0:0|0:0,0:0:0:0:
103,167,59831,2,0,L|93:254,1,88.000002685547,4|0,1:3|0:0,0:0:0:0:
163,308,60300,2,0,P|252:325|312:269,1,176.000005371094,0|4,0:0|1:3,0:0:0:0:
349,173,61003,2,0,P|343:123|307:87,1,88.000002685547,0|0,0:0|0:0,0:0:0:0:
215,109,61471,2,0,P|219:152|245:187,1,88.000002685547,0|4,0:0|1:3,0:0:0:0:
310,272,61940,2,0,P|421:248|512:364,1,264.000008056641,0|4,0:0|1:3,0:0:0:0:
425,373,62878,5,0,0:0:0:0:
425,373,63112,2,0,L|326:363,1,88.000002685547,0|0,0:0|0:0,0:0:0:0:
279,272,63581,2,0,L|367:281,1,88.000002685547,4|0,1:3|0:0,0:0:0:0:
441,233,64050,2,0,P|459:165|384:66,1,176.000005371094,0|4,0:0|1:3,0:0:0:0:
320,90,64753,1,0,0:0:0:0:
232,102,64987,2,0,L|139:93,1,88.000002685547,0|0,0:0|0:0,0:0:0:0:
70,171,65456,2,0,L|158:180,1,88.000002685547,4|0,1:3|0:0,0:0:0:0:
208,252,65925,6,0,P|274:201|378:225,1,176.000005371094,0|4,0:0|1:3,0:0:0:0:
440,251,66628,1,0,0:0:0:0:
440,251,66862,2,0,L|452:43,1,176.000005371094,0|4,0:0|1:3,0:0:0:0:
367,9,67565,2,0,L|356:184,1,176.000005371094,0|2,0:0|0:0,0:0:0:0:
348,272,68268,1,4,1:3:0:0:
146,337,68737,1,2,0:0:0:0:
67,297,68971,1,12,0:3:0:0:
141,249,69206,1,0,1:3:0:0:
70,48,69675,1,4,0:3:0:0:
70,48,84675,6,0,L|248:37,1,160,4|4,0:3|0:3,0:0:0:0:
309,30,85378,1,8,0:3:0:0:
320,109,85612,1,4,0:3:0:0:
241,117,85846,1,8,0:3:0:0:
180,169,86081,2,0,P|159:203|155:249,1,80,4|0,0:3|0:0,0:0:0:0:
190,313,86550,6,0,P|267:304|324:385,1,160,4|4,0:3|0:3,0:0:0:0:
398,345,87253,1,8,0:3:0:0:
476,360,87487,1,4,0:3:0:0:
493,282,87721,1,8,0:3:0:0:
415,267,87956,2,0,P|405:217|413:173,1,80,4|0,0:3|0:3,0:0:0:0:
471,138,88425,6,0,P|394:151|321:88,1,160,4|4,0:3|0:3,0:0:0:0:
267,55,89128,1,8,0:3:0:0:
341,26,89362,2,0,P|418:13|491:76,1,160,0|4,0:0|0:3,0:0:0:0:
471,138,90065,1,0,0:0:0:0:
488,216,90300,6,0,P|499:266|405:345,1,160,4|4,0:3|0:3,0:0:0:0:
251,279,91237,2,0,P|240:229|334:150,1,160,4|4,0:3|0:3,0:0:0:0:
382,175,91940,1,0,0:0:0:0:
363,96,92175,5,4,0:3:0:0:
171,107,92643,1,4,0:3:0:0:
130,39,92878,1,8,0:3:0:0:
52,57,93112,1,4,0:3:0:0:
45,137,93346,1,8,0:3:0:0:
119,168,93581,1,4,0:3:0:0:
88,325,94050,5,4,0:3:0:0:
280,313,94518,1,4,0:3:0:0:
321,382,94753,1,8,0:3:0:0:
399,364,94987,1,4,0:3:0:0:
406,284,95221,1,8,0:3:0:0:
332,253,95456,1,4,0:3:0:0:
411,114,95925,6,0,L|393:24,1,80,4|0,0:3|0:0,0:0:0:0:
317,95,96393,2,0,L|332:173,1,80,4|8,0:3|0:3,0:0:0:0:
263,213,96862,1,4,0:3:0:0:
187,187,97096,1,8,0:3:0:0:
64,292,97565,1,8,0:3:0:0:
64,292,97800,6,0,P|141:289|189:361,1,160,0|0,0:0|0:0,0:0:0:0:
187,350,99206,1,0,0:0:0:0:
187,350,99675,6,0,P|273:362|338:275,1,176.000005371094,4|2,0:0|1:2,0:0:0:0:
354,218,100378,1,0,0:0:0:0:
354,218,100612,2,0,L|343:127,1,88.000002685547,4|0,0:3|0:0,0:0:0:0:
422,60,101081,2,0,L|432:147,1,88.000002685547,2|0,1:2|0:0,0:0:0:0:
505,196,101550,2,0,P|455:264|478:359,1,176.000005371094,4|2,0:3|1:2,0:0:0:0:
385,372,102253,1,0,0:0:0:0:
385,372,102487,2,0,L|268:362,1,88.000002685547,4|0,0:3|0:0,0:0:0:0:
240,273,102956,2,0,L|328:281,1,88.000002685547,2|0,1:2|0:0,0:0:0:0:
379,209,103425,6,0,P|394:124|344:55,1,176.000005371094,4|2,0:3|1:2,0:0:0:0:
257,44,104128,1,0,0:0:0:0:
179,85,104362,2,0,P|128:99|64:82,1,88.000002685547,4|0,0:3|0:0,0:0:0:0:
0,172,104831,2,0,P|42:168|84:182,1,88.000002685547,2|0,1:2|0:0,0:0:0:0:
136,254,105300,1,4,0:3:0:0:
181,329,105534,1,0,0:0:0:0:
266,349,105768,2,0,L|336:290,1,88.000002685547,2|0,1:2|0:0,0:0:0:0:
327,185,106237,2,0,L|260:242,1,88.000002685547,4|0,0:3|0:0,0:0:0:0:
172,231,106706,1,2,1:2:0:0:
266,42,107175,6,0,P|330:25|416:103,1,176.000005371094,4|2,0:3|1:2,0:0:0:0:
421,175,107878,1,0,0:0:0:0:
378,251,108112,2,0,P|388:296|423:327,1,88.000002685547,4|0,0:3|0:0,0:0:0:0:
327,384,108581,2,0,P|317:339|282:308,1,88.000002685547,2|0,1:2|0:0,0:0:0:0:
201,285,109050,2,0,P|110:297|56:372,1,176.000005371094,4|2,0:3|1:2,0:0:0:0:
11,284,109753,1,0,0:0:0:0:
11,284,109987,2,0,L|24:193,1,88.000002685547,4|0,0:3|0:0,0:0:0:0:
115,142,110456,2,0,L|103:230,1,88.000002685547,2|0,1:2|0:0,0:0:0:0:
162,294,110925,6,0,P|253:282|307:207,1,176.000005371094,4|2,0:3|1:2,0:0:0:0:
300,131,111628,1,0,0:0:0:0:
227,82,111862,2,0,P|136:94|82:169,1,176.000005371094,4|2,0:3|1:2,0:0:0:0:
103,242,112565,2,0,B|158:284|233:249|306:212|361:242,1,264.000008056641,0|2,0:0|1:2,0:0:0:0:
418,306,113503,1,0,0:0:0:0:
496,263,113737,1,0,0:0:0:0:
510,87,114206,1,4,0:3:0:0:
334,73,114675,6,0,P|264:124|155:91,1,176.000005371094,4|4,0:0|1:3,0:0:0:0:
106,62,115378,1,0,0:0:0:0:
28,102,115612,2,0,P|13:148|18:191,1,88.000002685547,0|0,0:0|0:0,0:0:0:0:
123,201,116081,2,0,P|126:244|111:285,1,88.000002685547,4|0,1:3|0:0,0:0:0:0:
47,369,116550,2,0,P|117:318|226:351,1,176.000005371094,0|4,0:0|1:3,0:0:0:0:
282,364,117253,1,0,0:0:0:0:
367,344,117487,2,0,P|403:313|419:265,1,88.000002685547,0|0,0:0|0:0,0:0:0:0:
335,211,117956,2,0,P|352:170|385:143,1,88.000002685547,4|0,1:3|0:0,0:0:0:0:
482,99,118425,6,0,P|400:112|330:26,1,176.000005371094,0|4,0:0|1:3,0:0:0:0:
253,22,119128,1,0,0:0:0:0:
176,64,119362,2,0,P|202:103|208:152,1,88.000002685547,0|0,0:0|0:0,0:0:0:0:
115,190,119831,2,0,P|122:232|147:268,1,88.000002685547,4|0,1:3|0:0,0:0:0:0:
241,318,120300,2,0,P|159:305|89:391,1,176.000005371094,0|4,0:0|1:3,0:0:0:0:
14,327,121003,2,0,L|23:234,1,88.000002685547,0|0,0:0|0:0,0:0:0:0:
129,118,121471,2,0,L|121:206,1,88.000002685547,0|4,0:0|1:3,0:0:0:0:
183,291,121940,2,0,P|265:304|335:218,1,176.000005371094,0|0,0:0|0:0,0:0:0:0:
357,143,122643,5,4,1:3:0:0:
357,143,122878,1,0,0:0:0:0:
302,73,123112,1,0,0:0:0:0:
352,0,123346,1,0,0:0:0:0:
436,24,123581,1,4,1:3:0:0:
439,112,123815,1,0,0:0:0:0:
424,199,124050,2,0,P|426:253|526:332,1,176.000005371094,0|4,0:0|1:3,0:0:0:0:
416,376,124753,5,0,0:0:0:0:
362,306,124987,1,0,0:0:0:0:
279,276,125221,1,0,0:0:0:0:
190,277,125456,1,4,1:3:0:0:
109,311,125690,1,0,0:0:0:0:
42,368,125925,2,0,P|1:305|23:191,1,176.000005371094,0|4,0:0|1:3,0:0:0:0:
82,156,126628,5,0,0:0:0:0:
82,156,126862,2,0,L|258:136,1,176.000005371094,0|4,0:0|1:3,0:0:0:0:
300,39,127565,2,0,L|125:58,1,176.000005371094,0|2,0:0|0:0,0:0:0:0:
41,28,128268,1,4,1:3:0:0:
7,233,128737,1,2,0:0:0:0:
91,255,128971,1,4,1:3:0:0:
29,317,129206,2,0,P|47:365|95:387,1,88.000002685547,12|0,1:3|0:0,0:0:0:0:
164,377,129675,1,0,0:0:0:0:
174,370,144675,5,4,0:3:0:0:
87,356,145143,1,4,0:3:0:0:
101,269,145612,1,4,0:3:0:0:
188,283,146081,1,4,0:3:0:0:
346,174,146550,5,4,0:3:0:0:
241,191,147018,1,4,0:3:0:0:
329,70,147487,1,4,0:3:0:0:
224,86,147956,1,4,0:3:0:0:
6,257,148425,5,4,0:3:0:0:
153,152,148893,1,4,0:3:0:0:
26,131,149362,1,0,0:0:0:0:
132,276,149831,2,0,P|259:265|334:366,1,264.000008056641,4|0,0:3|0:0,0:0:0:0:
333,365,159675,5,4,0:3:0:0:
333,365,160143,1,4,0:3:0:0:
477,313,160612,1,4,0:3:0:0:
477,313,161081,1,4,0:3:0:0:
424,168,161550,5,4,0:3:0:0:
424,168,162018,1,4,0:3:0:0:
280,220,162487,1,4,0:3:0:0:
280,220,162956,1,4,0:3:0:0:
126,206,163425,6,0,L|25:192,1,76.800001875,4|0,0:3|0:0,0:0:0:0:
21,106,163893,2,0,L|98:117,1,76.800001875,4|0,0:3|0:0,0:0:0:0:
264,143,164362,6,0,L|188:133,1,76.800001875,4|0,0:3|0:0,0:0:0:0:
159,43,164831,2,0,L|235:53,1,76.800001875,4|0,0:3|0:0,0:0:0:0:
326,67,165300,5,4,0:3:0:0:
350,139,165534,1,0,0:0:0:0:
441,153,165768,1,4,0:3:0:0:
417,225,166003,1,0,0:0:0:0:
468,301,166237,5,0,0:0:0:0:
294,364,166706,1,0,0:0:0:0:
468,301,167175,6,0,P|492:216|411:144,1,176.000005371094,4|8,0:0|1:2,0:0:0:0:
353,143,167878,1,0,0:0:0:0:
275,184,168112,2,0,P|231:204|165:195,1,88.000002685547,4|0,0:3|0:0,0:0:0:0:
123,123,168581,2,0,P|167:103|233:112,1,88.000002685547,8|0,1:2|0:0,0:0:0:0:
275,184,169050,2,0,P|280:278|195:348,1,176.000005371094,4|8,0:3|1:2,0:0:0:0:
141,351,169753,5,0,0:0:0:0:
60,315,169987,2,0,L|45:221,1,88.000002685547,4|0,0:3|0:0,0:0:0:0:
134,169,170456,2,0,L|148:256,1,88.000002685547,8|0,1:2|0:0,0:0:0:0:
244,299,170925,2,0,P|306:304|388:215,1,176.000005371094,4|8,0:3|1:2,0:0:0:0:
393,142,171628,1,0,0:0:0:0:
352,64,171862,6,0,P|313:36|255:32,1,88.000002685547,4|0,0:3|0:0,0:0:0:0:
193,97,172331,2,0,P|232:125|290:129,1,88.000002685547,8|0,1:2|0:0,0:0:0:0:
321,224,172800,2,0,P|259:219|177:308,1,176.000005371094,4|8,0:3|1:2,0:0:0:0:
104,365,173503,2,0,P|99:321|67:266,1,88.000002685547,0|4,0:0|0:3,0:0:0:0:
23,192,173971,2,0,P|4:152|0:108,1,88.000002685547,0|8,0:0|1:2,0:0:0:0:
74,34,174440,2,0,P|158:30|221:121,1,176.000005371094,2|0,0:0|0:0,0:0:0:0:
215,181,175143,5,8,1:2:0:0:
145,235,175378,1,0,0:0:0:0:
225,270,175612,2,0,P|263:276|314:256,1,88.000002685547,4|0,0:3|0:0,0:0:0:0:
335,157,176081,2,0,P|373:151|424:171,1,88.000002685547,8|0,1:2|0:0,0:0:0:0:
484,250,176550,2,0,P|464:337|390:369,1,176.000005371094,4|8,0:3|1:2,0:0:0:0:
305,345,177253,5,0,0:0:0:0:
220,319,177487,2,0,P|170:328|125:359,1,88.000002685547,4|0,0:3|0:0,0:0:0:0:
39,269,177956,2,0,P|82:263|121:242,1,88.000002685547,8|0,1:2|0:0,0:0:0:0:
177,152,178425,2,0,P|175:76|82:15,1,176.000005371094,4|8,0:3|1:2,0:0:0:0:
16,39,179128,5,0,0:0:0:0:
77,101,179362,2,0,L|60:294,1,176.000005371094,4|8,0:3|1:2,0:0:0:0:
151,332,180065,2,0,L|166:156,1,176.000005371094,0|2,0:0|0:0,0:0:0:0:
237,104,180768,2,0,P|320:112|266:160,2,176.000005371094,0|0|8,0:0|1:0|0:0,0:0:0:0:
108,255,182175,6,0,P|64:223|60:88,1,191.999994140625,4|4,0:0|1:3,0:0:0:0:
151,31,182878,1,0,0:0:0:0:
259,69,183112,2,0,P|309:66|351:25,1,95.9999970703126,0|0,0:0|0:0,0:0:0:0:
451,120,183581,2,0,P|404:122|367:151,1,95.9999970703126,4|0,1:3|0:0,0:0:0:0:
324,258,184050,2,0,P|266:335|154:332,1,191.999994140625,0|4,0:0|1:3,0:0:0:0:
70,295,184753,5,0,0:0:0:0:
25,189,184987,2,0,P|24:136|53:85,1,95.9999970703126,0|0,0:0|0:0,0:0:0:0:
169,46,185456,2,0,P|171:93|152:137,1,95.9999970703126,4|0,1:3|0:0,0:0:0:0:
251,229,185925,2,0,P|309:152|421:155,1,191.999994140625,0|4,0:0|1:3,0:0:0:0:
495,207,186628,5,0,0:0:0:0:
501,92,186862,2,0,L|489:-6,1,95.9999970703126,0|0,0:0|0:0,0:0:0:0:
372,58,187331,2,0,L|383:153,1,95.9999970703126,4|0,1:3|0:0,0:0:0:0:
328,254,187800,2,0,P|263:272|162:181,1,191.999994140625,0|4,0:0|1:3,0:0:0:0:
128,95,188503,2,0,P|97:57|16:54,1,95.9999970703126,0|0,0:0|0:0,0:0:0:0:
4,171,188971,2,0,P|35:209|116:212,1,95.9999970703126,0|4,0:0|1:3,0:0:0:0:
211,201,189440,2,0,P|278:211|306:328,1,191.999994140625,2|0,0:0|0:0,0:0:0:0:
410,374,190143,2,0,L|513:365,1,95.9999970703126,4|0,1:3|0:0,0:0:0:0:
458,279,190612,5,0,0:0:0:0:
507,196,190846,1,0,0:0:0:0:
443,124,191081,1,4,1:3:0:0:
355,161,191315,1,0,0:0:0:0:
364,257,191550,2,0,P|294:311|178:275,1,191.999994140625,0|4,0:0|1:3,0:0:0:0:
141,150,192253,5,0,0:0:0:0:
47,172,192487,1,0,0:0:0:0:
0,89,192721,1,0,0:0:0:0:
62,19,192956,1,4,1:3:0:0:
150,54,193190,1,0,0:0:0:0:
141,150,193425,2,0,P|211:204|327:168,1,191.999994140625,0|4,0:0|1:3,0:0:0:0:
344,76,194128,1,0,0:0:0:0:
455,45,194362,6,0,L|494:268,1,191.999994140625,0|4,0:0|1:3,0:0:0:0:
389,174,195065,2,0,L|428:397,1,191.999994140625,0|0,0:0|3:0,0:0:0:0:
422,363,195651,1,0,3:0:0:0:
422,363,195768,1,12,0:3:0:0:
318,312,196003,1,0,3:0:0:0:
216,366,196237,1,8,0:3:0:0:
216,366,196354,1,0,0:0:0:0:
216,366,196471,1,4,3:0:0:0:
110,319,196706,1,8,0:3:0:0:
141,208,196940,1,12,3:0:0:0:
247,255,197175,6,0,P|331:255|384:171,1,176.000005371094,4|4,0:0|0:0,0:0:0:0:
367,81,197878,2,0,P|283:81|230:165,1,176.000005371094,2|0,0:0|0:0,0:0:0:0:
141,208,198581,2,0,L|43:196,1,88.000002685547,6|0,0:0|0:0,0:0:0:0:
76,300,199050,2,0,L|163:310,2,88.000002685547,4|8|12,0:0|0:0|0:0,0:0:0:0:
23,95,199987,1,4,0:0:0:0:
105,28,200221,1,8,0:0:0:0:
123,132,200456,1,2,1:3:0:0:
331,98,200925,6,0,P|377:158|350:256,1,176.000005371094,4|4,0:0|0:0,0:0:0:0:
251,267,201628,2,0,P|205:207|232:109,1,176.000005371094,10|0,0:0|0:0,0:0:0:0:
331,98,202331,2,0,L|437:91,1,88.000002685547,10|0,0:0|0:0,0:0:0:0:
481,177,202800,2,0,L|393:182,2,88.000002685547,0|8|12,0:0|0:0|0:0,0:0:0:0:
415,377,203737,1,4,0:0:0:0:
215,311,204206,1,10,0:0:0:0:
115,277,204440,1,4,0:0:0:0:
195,207,204675,6,0,P|208:162|196:106,2,88.000002685547,0|8|0,0:0|0:0|0:0,0:0:0:0:
115,277,205378,2,0,P|183:235|285:272,1,176.000005371094,10|4,0:0|0:0,0:0:0:0:
352,326,206081,2,0,P|434:350|508:307,1,176.000005371094,10|4,0:0|0:0,0:0:0:0:
510,201,206784,1,4,0:0:0:0:
510,201,207018,2,0,L|500:107,1,88.000002685547,8|0,0:0|0:0,0:0:0:0:
400,78,207487,2,0,L|409:165,1,88.000002685547,4|8,0:0|0:0,0:0:0:0:
333,240,207956,1,2,1:3:0:0:
122,216,208425,6,0,P|162:158|134:51,1,176.000005371094,4|4,0:0|0:0,0:0:0:0:
36,48,209128,2,0,P|-4:106|24:213,1,176.000005371094,10|0,0:0|0:0,0:0:0:0:
60,300,209831,1,10,0:0:0:0:
267,260,210300,1,0,0:0:0:0:
350,325,210534,1,8,0:0:0:0:
252,364,210768,1,8,0:0:0:0:
344,113,211237,1,0,0:0:0:0:
344,113,211354,1,8,0:0:0:0:
344,113,211471,1,0,0:0:0:0:
256,172,211706,1,12,0:0:0:0:
168,113,211940,1,8,0:0:0:0:
256,54,212175,1,4,0:1:0:0:
