osu file format v12

[General]
AudioFilename: My Love.mp3
AudioLeadIn: 1500
PreviewTime: 53380
Countdown: 0
SampleSet: Soft
StackLeniency: 0.3
Mode: 0
LetterboxInBreaks: 0
WidescreenStoryboard: 0

[Editor]
Bookmarks: 379,129754,142879,219754
DistanceSpacing: 1
BeatDivisor: 4
GridSize: 4
TimelineZoom: 1.1

[Metadata]
Title:My Love
TitleUnicode:My Love
Artist:Kuba Oms
ArtistUnicode:Kuba Oms
Creator:Gero
Version:Average
Source:
Tags:ADHD Monthly Beatmapping Contest Electronic -Bakari-
BeatmapID:401016
BeatmapSetID:164758

[Difficulty]
HPDrainRate:4
CircleSize:3
OverallDifficulty:4
ApproachRate:5
SliderMultiplier:1.2
SliderTickRate:1

[Events]
//Background and Video events
0,0,"BG.jpg",0,0
//Break Periods
2,129954,142879
//Storyboard Layer 0 (Background)
//Storyboard Layer 1 (Fail)
//Storyboard Layer 2 (Pass)
//Storyboard Layer 3 (Foreground)
//Storyboard Sound Samples
//Background Colour Transformations
3,100,163,162,255

[TimingPoints]
379,468.75,4,2,1,5,1,0
847,-100,4,2,1,10,0,0
1316,-100,4,2,1,20,0,0
1785,-100,4,2,1,30,0,0
2254,-100,4,2,1,40,0,0
2722,-100,4,2,1,50,0,0
9754,-100,4,2,1,60,0,0
24754,-100,4,2,1,60,0,0
38113,-100,4,2,1,5,0,0
38816,-100,4,2,1,30,0,0
39754,-100,4,2,2,60,0,0
54754,-100,4,1,1,70,0,1
69754,-100,4,2,1,60,0,0
98816,-100,4,2,1,30,0,0
99754,-100,4,2,1,60,0,0
114754,-100,4,1,1,70,0,1
129754,-100,4,2,1,60,0,0
150847,-100,4,2,1,30,0,0
152254,-100,4,3,1,60,0,0
166082,-100,4,2,1,60,0,0
167254,-100,4,1,1,70,0,0
182254,-100,4,1,1,70,0,1
197254,-100,4,2,3,60,0,0

[Colours]
Combo1 : 17,139,174
Combo2 : 255,128,36
Combo3 : 192,192,192
Combo4 : 245,90,114
SliderBorder : 63,63,63

[HitObjects]
256,192,379,12,4,2254,0:0:0:0:
96,128,3191,6,0,P|153:147|209:131,1,120,2|2,0:0|0:0,0:0:0:0:
256,92,3894,1,0,0:0:0:0:
304,56,4129,2,0,P|360:40|416:59,1,120,6|2,0:0|0:0,0:0:0:0:
360,164,5066,2,0,L|360:228,1,60,2|0,0:0|0:0,0:0:0:0:
308,252,5535,2,0,L|308:316,1,60,2|0,0:0|0:0,0:0:0:0:
256,344,6004,5,6,0:0:0:0:
144,296,6472,1,2,0:0:0:0:
36,240,6941,2,0,L|116:144,1,120,2|2,0:0|0:0,0:0:0:0:
192,60,7879,2,0,B|256:123|256:123|320:60,2,180,6|2|0,0:0|0:0|0:0,0:0:0:0:
112,151,9754,6,0,P|96:212|112:268,1,120,4|4,0:0|0:3,0:0:0:0:
196,348,10691,2,0,L|320:348,1,120,4|4,0:3|0:3,0:0:0:0:
401,265,11629,2,0,P|416:208|400:151,1,120,4|4,0:0|0:3,0:0:0:0:
292,100,12566,1,4,0:3:0:0:
180,56,13035,2,0,L|100:56,1,60,4|0,0:3|0:0,0:0:0:0:
64,76,13504,6,0,P|39:128|64:180,2,120,4|4|4,0:0|0:3|0:3,0:0:0:0:
180,56,14910,1,4,0:3:0:0:
296,32,15379,2,0,L|432:32,1,120,6|2,0:0|0:0,0:0:0:0:
484,132,16316,2,0,L|348:132,1,120,2|2,0:0|0:0,0:0:0:0:
320,176,17019,1,2,0:0:0:0:
276,216,17254,5,4,0:0:0:0:
188,300,17722,2,0,P|128:300|72:264,1,120,4|4,0:3|0:3,0:0:0:0:
49,154,18660,2,0,P|108:153|160:184,2,120,4|4|4,0:3|0:0|0:3,0:0:0:0:
77,270,20066,1,4,0:3:0:0:
140,372,20535,2,0,L|208:372,1,60,4|0,0:3|0:0,0:0:0:0:
260,372,21004,6,0,B|380:372|380:372|472:280,1,240,4|4,0:0|0:3,0:0:0:0:
404,184,22410,2,0,L|352:144,1,60,4|0,0:3|0:0,0:0:0:0:
308,112,22879,2,0,B|260:80|260:80|196:80,1,120,4|4,0:0|0:3,0:0:0:0:
100,148,23816,1,4,3:0:0:0:
8,224,24285,2,0,L|8:292,1,60,4|0,0:3|0:0,0:0:0:0:
48,328,24754,6,0,P|96:360|160:360,1,120,6|8,0:0|0:0,0:0:0:0:
208,332,25457,1,4,0:3:0:0:
256,296,25691,2,0,L|212:252,2,60,4|4|8,0:3|0:3|0:0,0:0:0:0:
364,348,26629,5,4,0:0:0:0:
472,292,27097,2,0,B|500:240|500:240|500:180,1,120,8|4,0:0|0:3,0:0:0:0:
452,144,27800,1,4,0:3:0:0:
408,104,28035,1,8,0:0:0:0:
316,28,28504,6,0,L|192:28,1,120,4|8,0:0|0:0,0:0:0:0:
153,70,29207,1,4,0:3:0:0:
110,112,29441,2,0,P|90:164|106:224,1,120,4|8,0:3|0:0,0:0:0:0:
191,309,30379,6,0,L|312:324,1,120,4|8,0:0|0:0,0:0:0:0:
360,288,31082,1,4,0:3:0:0:
407,248,31316,2,0,P|425:192|408:136,1,120,4|8,0:3|0:0,0:0:0:0:
360,100,32019,1,4,0:3:0:0:
308,68,32254,6,0,B|256:39|256:39|204:68,2,120,4|8|0,0:0|0:0|0:0,0:0:0:0:
256,176,33660,1,8,0:0:0:0:
196,280,34129,6,0,L|168:332,2,60,4|4|8,0:0|0:3|0:0,0:0:0:0:
316,280,35066,2,0,L|344:332,2,60,4|0|8,0:3|0:0|0:0,0:0:0:0:
396,192,36004,5,4,0:0:0:0:
484,108,36472,2,0,P|436:76|376:72,1,120,8|0,0:0|0:0,0:0:0:0:
320,96,37175,2,0,P|260:92|211:60,2,120,4|2|0,0:3|0:0|0:0,0:0:0:0:
256,348,39050,5,0,0:0:0:0:
256,348,39285,2,0,L|256:276,1,60,2|0,0:0|0:0,0:0:0:0:
256,228,39754,5,4,0:0:0:0:
160,292,40222,2,0,P|256:353|352:292,1,240,8|8,0:0|0:0,0:0:0:0:
416,192,41629,1,4,0:3:0:0:
312,132,42097,2,0,B|256:111|256:111|200:132,2,120,8|4|8,0:0|0:3|0:0,0:0:0:0:
256,240,43504,5,6,0:0:0:0:
200,344,43972,2,0,B|256:365|256:365|312:344,1,120,8|4,0:0|0:3,0:0:0:0:
364,316,44675,1,0,0:0:0:0:
420,292,44910,2,0,L|440:160,1,120,8|4,0:0|0:3,0:0:0:0:
320,144,45847,2,0,L|340:12,2,120,8|4|8,0:0|0:3|0:0,0:0:0:0:
252,244,47254,5,4,0:0:0:0:
160,320,47722,2,0,P|48:308|0:196,1,240,8|8,0:0|0:0,0:0:0:0:
80,112,49129,1,4,0:3:0:0:
172,36,49597,2,0,L|292:44,1,120,8|4,0:0|0:0,0:0:0:0:
340,156,50535,2,0,L|220:148,1,120,8|4,0:0|0:0,0:0:0:0:
172,36,51472,5,8,0:0:0:0:
80,112,51941,2,0,B|39:192|39:192|80:272,2,180,4|0|8,0:3|0:0|0:0,0:0:0:0:
168,192,53816,6,0,B|200:192|200:192|220:212,1,60,0|2,0:0|0:0,0:0:0:0:
280,212,54285,2,0,B|300:192|300:192|332:192,1,60,2|2,0:0|0:0,0:0:0:0:
372,236,54754,6,0,P|397:288|372:340,1,120,4|8,0:0|0:0,0:0:0:0:
256,304,55691,2,0,L|256:368,2,60,2|2|8,0:2|0:2|0:0,0:0:0:0:
140,340,56629,2,0,P|115:288|140:236,1,120,6|8,0:2|0:0,0:0:0:0:
180,192,57332,1,2,0:2:0:0:
220,148,57566,2,0,B|116:80,2,120,2|8|6,0:2|0:0|0:2,0:0:0:0:
320,212,58972,5,8,0:0:0:0:
416,284,59441,2,0,L|456:236,1,60,2|2,0:2|0:2,0:0:0:0:
408,200,59910,2,0,L|448:152,1,60,8|0,0:0|0:0,0:0:0:0:
480,104,60379,2,0,P|440:64|380:64,2,120,6|8|0,0:2|0:0|0:0,0:0:0:0:
408,200,61785,1,8,0:0:0:0:
332,292,62254,6,0,L|272:292,1,60,6|0,0:2|0:0,0:0:0:0:
212,292,62722,2,0,B|108:292|108:192|0:192,2,240,8|8|8,0:0|0:0|0:0,0:0:0:0:
328,264,65066,2,0,B|354:210,1,60,2|2,0:2|0:2,0:0:0:0:
412,228,65535,2,0,B|438:174,1,60,8|2,0:0|0:2,0:0:0:0:
464,120,66004,5,6,0:2:0:0:
376,40,66472,2,0,P|256:40|168:128,1,240,8|8,0:0|0:0,0:0:0:0:
268,192,67879,2,0,L|328:192,2,60,2|4|8,0:2|0:3|0:0,0:0:0:0:
172,264,68816,2,0,L|112:264,2,60,4|4|8,0:3|0:3|0:0,0:0:0:0:
256,352,69754,6,0,L|376:352,2,120,4|4|4,0:0|0:3|0:3,0:0:0:0:
172,264,71160,1,4,0:3:0:0:
96,172,71629,2,0,P|77:115|95:59,2,120,4|4|4,0:0|0:3|0:3,0:0:0:0:
172,264,73035,2,0,L|252:264,1,60,4|0,0:3|0:0,0:0:0:0:
284,292,73504,5,4,0:0:0:0:
396,332,73972,2,0,P|456:332|504:296,1,120,4|4,0:3|0:3,0:0:0:0:
420,208,74910,1,4,0:3:0:0:
332,128,75379,2,0,L|212:128,2,120,6|2|2,0:0|0:0|0:0,0:0:0:0:
420,208,76785,1,2,0:0:0:0:
460,252,77019,1,2,0:0:0:0:
504,292,77254,5,4,0:0:0:0:
408,360,77722,2,0,B|336:376|336:376|296:352,1,120,4|4,0:3|0:3,0:0:0:0:
212,268,78660,2,0,B|172:244|172:244|100:260,2,120,4|4|4,0:3|0:0|0:3,0:0:0:0:
300,184,80066,1,4,0:3:0:0:
388,104,80535,2,0,L|328:76,1,60,4|0,0:3|0:0,0:0:0:0:
280,56,81004,5,4,0:0:0:0:
164,36,81472,2,0,B|104:36|104:36|60:80,2,120,4|4|4,0:3|0:3|0:3,0:0:0:0:
280,56,82879,1,4,0:0:0:0:
388,104,83347,2,0,L|440:224,1,120,4|4,0:3|3:0,0:0:0:0:
344,292,84285,1,4,0:3:0:0:
232,340,84754,6,0,P|172:339|123:307,1,120,6|8,0:0|0:0,0:0:0:0:
96,252,85457,1,4,0:3:0:0:
68,200,85691,2,0,L|8:224,2,60,4|4|8,0:3|0:3|0:0,0:0:0:0:
148,108,86629,5,4,0:0:0:0:
236,28,87097,2,0,B|296:28|296:28|340:68,1,120,8|4,0:0|0:3,0:0:0:0:
384,112,87800,1,4,0:3:0:0:
424,156,88035,1,8,0:0:0:0:
480,260,88504,6,0,P|424:279|368:260,1,120,4|8,0:0|0:0,0:0:0:0:
314,233,89207,1,4,0:3:0:0:
264,204,89441,2,0,P|208:185|152:204,1,120,4|8,0:3|0:0,0:0:0:0:
100,307,90379,6,0,P|156:326|212:308,2,120,4|8|4,0:0|0:0|0:3,0:0:0:0:
60,196,91785,1,8,0:0:0:0:
40,140,92019,1,4,0:3:0:0:
24,84,92254,6,0,B|64:44|64:44|132:44,2,120,4|8|4,0:0|0:0|0:3,0:0:0:0:
60,196,93660,1,8,0:0:0:0:
128,296,94129,5,4,0:0:0:0:
228,364,94597,2,0,L|296:364,1,60,8|4,0:0|0:3,0:0:0:0:
300,304,95066,2,0,L|368:304,1,60,4|0,0:3|0:0,0:0:0:0:
412,276,95535,1,8,0:0:0:0:
496,192,96004,5,4,0:0:0:0:
412,108,96472,2,0,P|356:88|300:108,2,120,8|4|8,0:0|0:3|0:0,0:0:0:0:
356,212,97879,2,0,B|324:264|280:264|280:264|232:264|232:264|188:264|156:212,1,240,4|0,0:3|0:0,0:0:0:0:
88,116,99285,1,2,0:0:0:0:
184,44,99754,5,6,0:0:0:0:
304,36,100222,2,0,L|424:36,2,120,8|4|8,0:0|0:3|0:0,0:0:0:0:
224,128,101629,1,4,0:3:0:0:
140,216,102097,2,0,P|120:272|140:328,1,120,8|4,0:0|0:3,0:0:0:0:
196,348,102800,1,0,0:0:0:0:
252,368,103035,1,8,0:0:0:0:
360,316,103504,5,6,0:0:0:0:
448,236,103972,2,0,P|400:200|336:200,1,120,8|4,0:0|0:3,0:0:0:0:
288,228,104675,1,0,0:0:0:0:
236,260,104910,2,0,L|208:140,1,120,8|4,0:0|0:3,0:0:0:0:
96,184,105847,2,0,L|68:64,2,120,8|4|8,0:0|0:3|0:0,0:0:0:0:
40,292,107254,5,4,0:0:0:0:
148,344,107722,2,0,B|248:344|248:344|320:344|364:276,1,240,8|8,0:0|0:0,0:0:0:0:
256,224,109129,1,4,0:3:0:0:
148,172,109597,2,0,B|196:124|196:124|196:72,1,120,8|4,0:0|0:0,0:0:0:0:
316,72,110535,2,0,B|316:124|316:124|364:172,1,120,8|4,0:0|0:0,0:0:0:0:
432,268,111472,5,8,0:0:0:0:
352,356,111941,2,0,B|292:356|292:356|236:332|236:332|176:332,2,180,4|0|8,0:3|0:0|0:0,0:0:0:0:
432,268,113816,5,0,0:0:0:0:
464,220,114050,1,2,0:0:0:0:
496,172,114285,2,0,L|460:112,1,60,2|2,0:0|0:0,0:0:0:0:
428,72,114754,6,0,P|372:44|316:44,1,120,4|8,0:0|0:0,0:0:0:0:
256,60,115457,1,2,0:2:0:0:
196,44,115691,2,0,P|136:44|84:72,1,120,2|8,0:2|0:0,0:0:0:0:
68,192,116629,1,6,0:2:0:0:
84,312,117097,2,0,P|136:339|196:339,1,120,8|2,0:0|0:2,0:0:0:0:
256,324,117800,1,2,0:2:0:0:
312,304,118035,2,0,L|336:364,2,60,8|2|6,0:0|0:2|0:2,0:0:0:0:
368,200,118972,5,8,0:0:0:0:
428,96,119441,2,0,L|404:36,2,60,2|2|8,0:2|0:2|0:0,0:0:0:0:
368,200,120379,1,6,0:2:0:0:
312,304,120847,2,0,B|196:304|196:304|124:304|96:244,1,240,8|8,0:0|0:0,0:0:0:0:
196,180,122254,6,0,L|256:180,1,60,6|0,0:2|0:0,0:0:0:0:
300,140,122722,2,0,P|320:84|300:28,2,120,8|2|8,0:0|0:2|0:0,0:0:0:0:
196,180,124129,2,0,P|176:236|196:292,1,120,6|8,0:2|0:0,0:0:0:0:
296,356,125066,2,0,B|356:356,1,60,2|2,0:2|0:2,0:0:0:0:
388,304,125535,2,0,B|448:304,1,60,8|2,0:0|0:2,0:0:0:0:
480,256,126004,5,6,0:2:0:0:
432,144,126472,2,0,P|344:68|224:68,1,240,8|8,0:0|0:0,0:0:0:0:
156,164,127879,1,2,0:2:0:0:
113,206,128113,1,4,0:3:0:0:
70,248,128347,1,8,0:0:0:0:
101,363,128816,1,4,0:3:0:0:
144,321,129050,1,4,0:3:0:0:
187,279,129284,1,8,0:0:0:0:
156,164,129754,1,4,0:0:0:0:
28,36,144754,5,4,0:3:0:0:
112,120,145222,1,4,0:3:0:0:
196,204,145691,2,0,L|320:204,1,120,4|4,0:3|0:3,0:0:0:0:
380,304,146629,2,0,L|256:304,1,120,4|4,0:3|0:3,0:0:0:0:
196,204,147566,5,4,0:3:0:0:
156,160,147800,1,0,0:0:0:0:
112,120,148035,1,4,0:3:0:0:
212,52,148504,2,0,P|332:52|416:136,1,240,4|4,0:3|0:3,0:0:0:0:
413,252,149910,2,0,P|329:333|212:332,1,240,4|2,0:3|0:0,0:0:0:0:
80,236,152254,5,2,0:2:0:0:
160,148,152722,2,0,B|196:112|196:112|182:79|196:40,1,120,2|2,0:2|0:2,0:0:0:0:
317,44,153660,2,0,B|330:79|316:112|316:112|352:148,1,120,2|2,0:2|0:2,0:0:0:0:
432,236,154597,5,2,0:2:0:0:
500,332,155066,2,0,L|432:360,1,60,2|0,0:2|0:0,0:0:0:0:
392,328,155535,2,0,L|324:356,1,60,2|0,0:2|0:0,0:0:0:0:
276,360,156004,5,2,0:2:0:0:
160,336,156472,1,2,0:2:0:0:
80,248,156941,1,2,0:2:0:0:
60,192,157175,1,0,0:0:0:0:
80,136,157410,2,0,L|96:64,2,60,2|0|2,0:2|0:0|0:2,0:0:0:0:
80,248,158347,5,2,0:2:0:0:
160,336,158816,1,2,0:2:0:0:
276,360,159285,1,2,0:2:0:0:
392,328,159754,6,0,P|280:348|236:248,1,240,4|2,0:1|0:2,0:0:0:0:
304,148,161160,2,0,L|424:148,1,120,2|2,0:2|0:2,0:0:0:0:
356,48,162097,2,0,L|236:48,1,120,2|2,0:2|0:2,0:0:0:0:
184,80,162800,1,0,0:0:0:0:
132,112,163035,2,0,P|116:168|132:228,2,120,2|2|2,0:2|0:2|0:2,0:0:0:0:
236,48,164441,6,0,L|296:48,1,60,2|0,0:2|0:0,0:0:0:0:
356,48,164910,2,0,B|412:48|412:48|459:95,1,120,2|2,0:2|0:2,0:0:0:0:
392,196,165847,1,2,0:2:0:0:
312,284,166316,6,0,L|232:284,2,60,0|2|0,0:0|0:0|0:0,0:0:0:0:
352,240,167019,1,2,0:0:0:0:
392,196,167254,6,0,P|412:140|391:84,1,120,4|8,0:0|0:0,0:0:0:0:
336,60,167957,1,2,0:2:0:0:
280,36,168191,2,0,L|160:36,1,120,2|8,0:2|0:0,0:0:0:0:
80,128,169129,2,0,L|200:128,1,120,6|8,0:2|0:0,0:0:0:0:
276,220,170066,5,2,0:2:0:0:
312,268,170300,1,2,0:2:0:0:
344,320,170535,2,0,L|300:364,2,60,8|2|6,0:0|0:2|0:2,0:0:0:0:
276,220,171472,5,8,0:0:0:0:
208,120,171941,2,0,L|252:76,2,60,2|2|8,0:2|0:2|0:0,0:0:0:0:
136,216,172879,1,6,0:2:0:0:
80,320,173347,2,0,P|136:338|192:320,2,120,8|0|8,0:0|0:0|0:0,0:0:0:0:
136,216,174754,6,0,L|176:160,1,60,6|0,0:2|0:0,0:0:0:0:
208,120,175222,1,8,0:0:0:0:
292,32,175691,2,0,P|352:32|404:64,1,120,2|8,0:2|0:0,0:0:0:0:
318,150,176629,2,0,P|258:150|206:118,1,120,6|8,0:2|0:0,0:0:0:0:
112,48,177566,2,0,B|68:88,1,60,2|2,0:2|0:2,0:0:0:0:
92,144,178035,2,0,B|48:184,1,60,8|2,0:0|0:2,0:0:0:0:
20,236,178504,5,6,0:2:0:0:
60,348,178972,2,0,B|120:312|176:348|232:384|292:348,1,240,8|8,0:0|0:0,0:0:0:0:
361,263,180379,2,0,L|421:263,2,60,2|4|8,0:2|0:3|0:0,0:0:0:0:
276,178,181316,2,0,L|216:178,2,60,4|4|8,0:3|0:3|0:0,0:0:0:0:
368,100,182254,6,0,B|427:100|427:100|479:140,1,120,4|8,0:0|0:0,0:0:0:0:
500,192,182957,1,2,0:2:0:0:
475,246,183191,2,0,B|427:284|427:284|368:284,1,120,2|8,0:2|0:0,0:0:0:0:
248,260,184129,1,6,0:2:0:0:
128,240,184597,2,0,P|108:184|128:128,1,120,8|2,0:0|0:2,0:0:0:0:
176,92,185300,1,2,0:2:0:0:
228,60,185535,2,0,L|184:16,2,60,8|2|6,0:0|0:2|0:2,0:0:0:0:
128,128,186472,5,8,0:0:0:0:
36,208,186941,2,0,L|80:252,1,60,2|2,0:2|0:2,0:0:0:0:
124,292,187410,2,0,P|180:292|232:252,1,120,8|6,0:0|0:2,0:0:0:0:
140,176,188347,2,0,L|324:344,1,240,8|8,0:0|0:0,0:0:0:0:
376,232,189754,6,0,L|324:184,1,60,6|0,0:2|0:0,0:0:0:0:
288,148,190222,2,0,P|268:92|288:36,2,120,8|2|8,0:0|0:2|0:0,0:0:0:0:
376,232,191629,2,0,P|396:288|376:344,1,120,6|8,0:2|0:0,0:0:0:0:
272,288,192566,2,0,B|212:288,1,60,2|2,0:2|0:2,0:0:0:0:
184,236,193035,2,0,B|124:236,1,60,8|2,0:0|0:2,0:0:0:0:
84,192,193504,5,6,0:2:0:0:
168,104,193972,2,0,B|232:96|256:32|256:32|280:96|344:104,1,240,8|8,0:0|0:0,0:0:0:0:
428,192,195379,5,2,0:2:0:0:
392,240,195613,1,2,0:2:0:0:
356,288,195847,1,8,0:0:0:0:
256,224,196316,1,4,0:3:0:0:
220,272,196550,1,4,0:3:0:0:
184,320,196784,1,8,0:0:0:0:
92,244,197254,5,6,0:0:0:0:
8,160,197722,2,0,P|-8:104|8:44,2,120,8|2|8,0:0|0:0|0:0,0:0:0:0:
92,244,199129,2,0,P|108:300|92:360,2,120,2|8|2,0:0|0:0|0:0,0:0:0:0:
180,164,200535,1,8,0:0:0:0:
264,80,201004,6,0,B|320:80|320:80|368:112|368:112|440:112,2,180,6|2|8,0:0|0:0|0:0,0:0:0:0:
180,164,202879,1,2,0:0:0:0:
92,244,203347,2,0,P|140:268|172:328,1,120,8|2,0:0|0:0,0:0:0:0:
256,240,204285,1,8,0:0:0:0:
340,324,204754,6,0,P|367:271|420:244,1,120,6|8,0:0|0:0,0:0:0:0:
336,156,205691,1,2,0:0:0:0:
256,72,206160,2,0,P|332:148|460:108,2,240,8|8|8,0:0|0:0|0:0,0:0:0:0:
368,32,208504,6,0,L|180:32,2,180,6|2|8,0:0|0:0|0:0,0:0:0:0:
336,148,210379,2,0,L|204:148,1,120,2|8,0:0|0:0,0:0:0:0:
116,216,211316,2,0,L|56:216,2,60,12|12|12,0:3|0:3|0:3,0:0:0:0:
212,288,212254,5,6,0:0:0:0:
312,352,212722,2,0,P|408:352|480:228,1,240,8|8,0:0|0:0,0:0:0:0:
360,240,214129,2,0,B|324:192|324:192|360:144,2,120,2|12|2,0:0|0:0|0:0,0:0:0:0:
448,320,215535,1,8,0:0:0:0:
340,368,216004,6,0,P|256:340|172:368,2,180,6|2|8,0:0|0:0|0:0,0:0:0:0:
448,320,217879,1,2,0:0:0:0:
476,204,218347,2,0,L|448:88,1,120,8|2,0:0|0:0,0:0:0:0:
332,112,219285,2,0,L|316:52,2,60,8|12|6,0:0|0:3|0:0,0:0:0:0:
