osu file format v13

[General]
AudioFilename: My Love.mp3
AudioLeadIn: 0
PreviewTime: 53460
Countdown: 0
SampleSet: Soft
StackLeniency: 0.7
Mode: 0
LetterboxInBreaks: 1
WidescreenStoryboard: 0

[Editor]
DistanceSpacing: 0.9
BeatDivisor: 4
GridSize: 4
TimelineZoom: 1

[Metadata]
Title:My Love
TitleUnicode:My Love
Artist:Kuba Oms
ArtistUnicode:Kuba Oms
Creator:CloudSplash16
Version:Normal
Source:
Tags:monthly beatmapping contest ADHD electronic folk funk pop soul
BeatmapID:399235
BeatmapSetID:163924

[Difficulty]
HPDrainRate:4
CircleSize:4
OverallDifficulty:4.5
ApproachRate:5
SliderMultiplier:1.2
SliderTickRate:1

[Events]
//Background and Video events
0,0,"bg.jpg",0,0
//Break Periods
2,152250,158550
//Storyboard Layer 0 (Background)
//Storyboard Layer 1 (Fail)
//Storyboard Layer 2 (Pass)
//Storyboard Layer 3 (Foreground)
//Storyboard Sound Samples
//Background Colour Transformations
3,100,163,162,255

[TimingPoints]
2250,468.75,4,2,0,50,1,0
9750,-100,4,2,0,55,0,0
24515,-100,4,2,0,60,0,0
39750,-100,4,2,0,65,0,0
54750,-100,4,2,0,70,0,1
69750,-100,4,2,0,55,0,0
84750,-100,4,2,0,60,0,0
99750,-100,4,2,0,65,0,0
114750,-100,4,2,0,70,0,1
129750,-100,4,2,0,55,0,0
144750,-100,4,2,0,60,0,0
163500,-100,4,2,0,65,0,0
167250,-100,4,2,0,75,0,1
182015,-100,4,2,0,70,0,0
182250,-100,4,2,0,75,0,1
197250,-100,4,2,0,75,0,0

[Colours]
Combo1 : 194,250,80
Combo2 : 250,52,91
Combo3 : 252,243,82
Combo4 : 253,159,175
Combo5 : 77,224,251

[HitObjects]
400,140,2250,5,4,0:0:0:0:
256,60,4125,5,2,0:0:0:0:
176,204,6000,5,2,0:0:0:0:
320,284,7875,6,0,P|377:297|435:284,1,120,2|0,0:0|0:0,0:0:0:0:
474,245,8578,2,0,L|480:120,1,120,0|0,0:0|0:0,0:0:0:0:
403,48,9515,1,0,0:0:0:0:
403,48,9750,6,0,P|345:61|287:47,1,120,2|0,0:0|0:0,0:0:0:0:
210,124,10687,2,0,L|204:243,1,120,0|0,0:0|0:0,0:0:0:0:
280,320,11625,2,0,L|345:310,1,60,2|0,0:0|0:0,0:0:0:0:
393,310,12093,2,0,P|450:323|508:310,2,120,0|0|0,0:0|0:0|0:0,0:0:0:0:
316,233,13500,6,0,L|306:168,1,60,2|0,0:0|0:0,0:0:0:0:
204,144,14203,1,0,0:0:0:0:
204,144,14437,2,0,L|214:209,1,60,0|0,0:0|0:0,0:0:0:0:
164,300,15140,1,0,0:0:0:0:
164,300,15375,2,0,P|106:313|48:299,1,120,2|2,0:0|0:0,0:0:0:0:
12,196,16312,1,2,0:0:0:0:
88,119,16781,2,0,L|147:128,1,60,2|2,0:0|0:0,0:0:0:0:
201,128,17250,6,0,P|258:114|316:128,1,120,2|0,0:0|0:0,0:0:0:0:
360,160,17953,1,0,0:0:0:0:
384,208,18187,2,0,L|378:327,1,120,0|0,0:0|0:0,0:0:0:0:
280,372,19125,2,0,L|215:362,1,60,2|0,0:0|0:0,0:0:0:0:
167,362,19593,2,0,P|109:375|51:362,2,120,0|0|0,0:0|0:0|0:0,0:0:0:0:
243,285,21000,6,0,L|248:165,1,120,2|0,0:0|0:0,0:0:0:0:
325,88,21937,2,0,L|390:78,1,60,0|0,0:0|0:0,0:0:0:0:
384,133,22406,2,0,L|445:156,1,60,0|0,0:0|0:0,0:0:0:0:
412,201,22875,2,0,P|425:258|412:316,1,120,2|0,0:0|0:0,0:0:0:0:
312,360,23812,1,0,0:0:0:0:
212,317,24281,1,0,0:0:0:0:
103,317,24750,6,0,P|89:259|103:201,1,120,2|0,3:2|3:0,0:0:0:0:
179,124,25687,2,0,L|202:62,1,60,0|0,3:0|3:0,0:0:0:0:
239,29,26156,2,0,P|296:15|354:29,1,120,0|2,1:0|0:2,0:0:0:0:
431,105,27093,1,2,3:2:0:0:
354,181,27562,2,0,L|332:236,2,60,0|0|0,0:0|0:0|1:0,0:0:0:0:
462,181,28500,6,0,P|476:238|462:296,1,120,2|0,3:2|3:0,0:0:0:0:
368,348,29437,2,0,L|248:343,1,120,0|0,3:0|3:0,0:0:0:0:
196,328,30140,1,0,0:0:0:0:
155,291,30375,2,0,P|141:234|156:176,1,120,2|2,0:0|3:2,0:0:0:0:
248,120,31312,1,2,3:2:0:0:
339,177,31781,2,0,L|394:199,1,60,2|0,3:2|3:0,0:0:0:0:
448,199,32250,6,0,P|462:141|448:83,1,120,2|0,3:2|3:0,0:0:0:0:
409,45,32953,2,0,L|289:40,1,120,0|0,1:0|0:0,0:0:0:0:
236,40,33656,1,0,3:0:0:0:
127,40,34125,2,0,L|105:95,1,60,2|0,0:0|0:0,0:0:0:0:
104,149,34593,2,0,L|126:204,1,60,0|0,3:0|3:0,0:0:0:0:
126,258,35062,2,0,L|104:313,2,60,0|0|0,3:0|3:0|1:0,0:0:0:0:
234,258,36000,6,0,P|292:272|350:258,1,120,2|0,3:2|3:0,0:0:0:0:
426,181,36937,2,0,L|404:126,1,60,0|0,3:0|0:0,0:0:0:0:
364,88,37406,2,0,P|306:101|248:87,1,120,0|0,1:0|0:0,0:0:0:0:
436,196,39750,6,0,P|449:254|435:312,1,120,4|0,3:2|1:0,0:0:0:0:
392,344,40453,1,2,3:2:0:0:
340,328,40687,2,0,P|311:320|281:323,1,60,0|0,3:0|0:0,0:0:0:0:
232,340,41156,1,0,1:0:0:0:
123,340,41625,2,0,L|83:288,1,60,0|0,3:0|0:0,0:0:0:0:
52,252,42093,1,0,1:0:0:0:
128,175,42562,2,0,P|157:171|186:179,1,60,0|0,3:0|0:0,0:0:0:0:
236,200,43031,2,0,P|264:207|294:204,1,60,0|2,1:0|0:0,0:0:0:0:
340,176,43500,6,0,P|353:118|340:60,1,120,0|0,3:0|1:0,0:0:0:0:
236,36,44437,2,0,L|168:52,1,60,0|0,3:0|0:0,0:0:0:0:
124,68,44906,1,0,1:0:0:0:
47,144,45375,2,0,P|51:216|95:244,1,120,0|0,3:0|1:0,0:0:0:0:
193,241,46312,2,0,L|261:225,1,60,0|0,3:0|3:0,0:0:0:0:
305,227,46781,2,0,L|363:240,1,60,0|2,1:0|0:3,0:0:0:0:
416,256,47250,6,0,P|429:314|415:372,1,120,0|0,3:0|1:0,0:0:0:0:
306,371,48187,2,0,L|247:357,1,60,0|0,3:0|0:0,0:0:0:0:
196,344,48656,1,0,1:0:0:0:
88,344,49125,2,0,L|129:300,1,60,0|0,3:0|0:0,0:0:0:0:
165,260,49593,2,0,P|178:202|165:144,1,120,0|0,1:0|3:0,0:0:0:0:
112,48,50531,1,0,1:0:0:0:
216,80,51000,6,0,L|344:88,1,120,0|0,3:0|1:0,0:0:0:0:
432,140,51937,2,0,P|451:195|428:249,1,120,0|0,3:0|1:0,0:0:0:0:
377,262,52640,2,0,P|348:254|318:257,1,60,2|0,0:0|3:0,0:0:0:0:
268,276,53109,1,2,0:0:0:0:
216,288,53343,2,0,P|186:290|157:282,1,60,0|0,1:0|0:0,0:0:0:0:
318,256,54281,2,0,P|348:254|377:262,1,60,8|0,3:0|0:0,0:0:0:0:
428,249,54750,6,0,P|451:195|432:140,1,120,4|8,3:2|0:0,0:0:0:0:
348,68,55687,2,0,L|293:90,1,60,0|0,3:0|0:0,0:0:0:0:
244,64,56156,2,0,L|189:86,1,60,8|2,0:0|3:2,0:0:0:0:
144,116,56625,2,0,P|130:174|143:232,1,120,0|8,3:0|0:0,0:0:0:0:
240,276,57562,2,0,L|295:254,1,60,0|0,3:0|0:0,0:0:0:0:
349,253,58031,2,0,L|404:275,1,60,8|2,0:0|3:2,0:0:0:0:
453,297,58500,5,0,3:0:0:0:
488,192,58968,1,8,0:0:0:0:
411,115,59437,2,0,L|356:93,1,60,0|0,3:0|0:0,0:0:0:0:
317,132,59906,2,0,L|262:110,1,60,8|2,0:0|3:2,0:0:0:0:
207,109,60375,2,0,P|193:167|206:225,1,120,0|8,3:0|0:0,0:0:0:0:
245,263,61078,1,2,3:2:0:0:
352,263,61546,1,0,0:0:0:0:
302,359,62015,6,0,P|243:371|185:358,1,120,2|0,3:0|0:0,0:0:0:0:
71,244,63187,2,0,L|93:189,2,60,0|0|8,3:0|0:0|0:0,0:0:0:0:
179,244,64125,2,0,P|192:185|179:127,1,120,0|8,3:0|0:0,0:0:0:0:
287,127,65062,2,0,L|342:149,2,60,0|0|8,3:0|0:0|0:0,0:0:0:0:
287,235,66000,6,0,P|345:248|403:235,1,120,0|8,3:0|0:0,0:0:0:0:
479,158,66937,2,0,P|492:99|479:41,1,120,0|8,3:0|0:0,0:0:0:0:
428,20,67640,1,2,3:2:0:0:
376,36,67875,2,0,L|256:31,2,120,0|8|0,3:0|0:0|3:0,0:0:0:0:
299,112,69281,1,8,0:0:0:0:
222,188,69750,6,0,B|198:244|198:244|198:304,1,120,2|0,0:0|0:0,0:0:0:0:
292,360,70687,2,0,L|412:355,1,120,0|0,0:0|0:0,0:0:0:0:
472,264,71625,2,0,L|480:192,1,60,2|0,0:0|0:0,0:0:0:0:
448,160,72093,2,0,P|389:147|331:160,1,120,0|0,0:0|0:0,0:0:0:0:
255,236,73031,2,0,L|248:295,1,60,0|0,0:0|0:0,0:0:0:0:
244,348,73500,5,2,0:0:0:0:
136,368,73968,1,0,0:0:0:0:
64,284,74437,1,0,0:0:0:0:
100,179,74906,1,0,0:0:0:0:
208,179,75375,2,0,P|266:191|324:178,1,120,2|2,0:0|0:0,0:0:0:0:
412,112,76312,1,2,0:0:0:0:
400,220,76781,2,0,L|393:279,1,60,2|2,0:0|0:0,0:0:0:0:
384,332,77250,6,0,P|325:345|267:333,1,120,2|0,0:0|0:0,0:0:0:0:
191,256,78187,1,0,0:0:0:0:
140,352,78656,2,0,L|81:345,1,60,0|0,0:0|0:0,0:0:0:0:
32,320,79125,2,0,P|19:261|31:203,1,120,2|0,0:0|0:0,0:0:0:0:
120,144,80062,2,0,L|179:151,2,60,0|0|0,0:0|0:0|0:0,0:0:0:0:
196,67,81000,6,0,L|316:62,1,120,2|0,0:0|0:0,0:0:0:0:
412,108,81937,1,0,0:0:0:0:
364,204,82406,2,0,P|356:232|359:263,1,60,0|0,0:0|0:0,0:0:0:0:
369,316,82875,1,2,0:0:0:0:
265,296,83343,1,0,0:0:0:0:
173,352,83812,2,0,P|114:365|56:353,1,120,0|0,0:0|0:0,0:0:0:0:
12,256,84750,6,0,L|17:136,1,120,2|0,3:2|3:0,0:0:0:0:
93,59,85687,2,0,L|152:66,1,60,0|0,3:0|3:0,0:0:0:0:
200,92,86156,2,0,P|213:151|201:209,1,120,0|2,1:0|0:0,0:0:0:0:
124,284,87093,1,2,3:2:0:0:
216,336,87562,2,0,P|244:343|274:341,1,60,0|0,3:0|0:0,0:0:0:0:
324,320,88031,1,0,1:0:0:0:
408,252,88500,6,0,L|413:132,1,120,2|0,3:2|3:0,0:0:0:0:
336,55,89437,1,0,3:0:0:0:
236,96,89906,2,0,P|206:101|177:95,1,60,0|0,3:0|0:0,0:0:0:0:
125,111,90375,2,0,P|113:169|126:227,1,120,2|2,0:0|3:2,0:0:0:0:
202,303,91312,1,2,3:2:0:0:
300,260,91781,2,0,L|359:267,1,60,2|0,3:2|3:0,0:0:0:0:
412,256,92250,6,0,P|423:197|410:139,1,120,2|0,3:2|3:0,0:0:0:0:
334,63,93187,2,0,L|275:70,1,60,0|0,3:0|0:0,0:0:0:0:
236,108,93656,2,0,P|177:120|119:109,1,120,0|2,3:0|0:0,0:0:0:0:
60,200,94593,2,0,L|67:259,1,60,2|0,3:2|0:0,0:0:0:0:
77,315,95062,2,0,L|29:350,2,60,0|0|0,0:0|0:0|1:0,0:0:0:0:
185,315,96000,6,0,P|243:326|302:314,1,120,2|0,3:2|3:0,0:0:0:0:
350,290,96703,1,0,1:0:0:0:
377,243,96937,2,0,L|384:184,1,60,0|0,3:0|0:0,0:0:0:0:
276,188,97640,1,0,0:0:0:0:
276,188,97875,2,0,B|205:242|137:186|137:186|69:129|4:188,1,300,0|0,3:0|0:0,0:0:0:0:
140,276,99750,6,0,P|197:291|256:283,1,120,4|0,3:2|1:0,0:0:0:0:
304,257,100453,1,2,3:2:0:0:
348,228,100687,2,0,L|400:188,1,60,0|0,3:0|0:0,0:0:0:0:
436,157,101155,1,0,1:0:0:0:
356,83,101625,2,0,L|304:123,1,60,0|0,3:0|0:0,0:0:0:0:
268,154,102093,1,0,1:0:0:0:
244,260,102562,2,0,P|273:264|302:256,1,60,0|0,3:0|0:0,0:0:0:0:
352,235,103031,2,0,P|380:228|410:231,1,60,0|2,1:0|0:0,0:0:0:0:
460,252,103500,6,0,P|473:310|460:368,1,120,0|0,3:0|1:0,0:0:0:0:
352,368,104437,2,0,L|284:352,1,60,0|0,3:0|0:0,0:0:0:0:
240,336,104906,1,0,1:0:0:0:
163,259,105375,2,0,P|159:200|201:161,1,120,0|0,3:0|1:0,0:0:0:0:
309,161,106312,2,0,L|325:229,1,60,0|0,3:0|3:0,0:0:0:0:
323,273,106781,2,0,L|310:331,1,60,0|2,1:0|0:3,0:0:0:0:
271,369,107250,6,0,P|213:382|155:368,1,120,0|0,3:0|1:0,0:0:0:0:
78,291,108187,2,0,L|92:232,1,60,0|0,3:0|0:0,0:0:0:0:
105,181,108656,1,0,1:0:0:0:
105,72,109125,2,0,L|149:113,1,60,0|0,3:0|0:0,0:0:0:0:
189,149,109593,2,0,P|247:162|305:149,1,120,0|0,1:0|3:0,0:0:0:0:
396,92,110531,1,0,1:0:0:0:
400,200,111000,6,0,L|405:320,1,120,0|0,3:0|1:0,0:0:0:0:
296,319,111937,2,0,P|237:305|179:318,1,120,0|0,3:0|1:0,0:0:0:0:
128,304,112640,1,2,0:0:0:0:
104,256,112875,2,0,L|117:197,1,60,0|2,3:0|0:0,0:0:0:0:
132,144,113343,1,0,1:0:0:0:
160,40,113812,1,2,3:2:0:0:
236,116,114281,2,0,P|264:124|294:120,1,60,8|0,3:0|0:0,0:0:0:0:
348,132,114750,6,0,B|359:191|359:191|347:250,1,120,4|8,3:2|0:0,0:0:0:0:
271,325,115687,2,0,L|216:303,1,60,0|0,3:0|0:0,0:0:0:0:
177,342,116156,2,0,L|122:320,1,60,8|2,0:0|3:2,0:0:0:0:
83,281,116625,2,0,B|71:221|71:221|83:162,1,120,0|8,3:0|0:0,0:0:0:0:
188,136,117562,2,0,L|243:158,1,60,0|0,3:0|0:0,0:0:0:0:
297,159,118031,2,0,L|352:137,1,60,8|2,0:0|3:2,0:0:0:0:
401,115,118500,5,0,3:0:0:0:
449,211,118968,1,8,0:0:0:0:
372,288,119437,2,0,L|317:310,1,60,0|0,3:0|0:0,0:0:0:0:
278,271,119906,2,0,L|223:293,1,60,8|2,0:0|3:2,0:0:0:0:
172,276,120375,2,0,B|160:216|160:216|172:157,1,120,0|8,3:0|0:0,0:0:0:0:
210,120,121078,1,2,3:2:0:0:
316,136,121546,1,0,0:0:0:0:
270,40,122015,6,0,B|211:27|211:27|151:39,1,120,2|0,3:0|0:0,0:0:0:0:
32,159,123187,2,0,L|54:214,2,60,0|0|8,3:0|0:0|0:0,0:0:0:0:
140,159,124125,2,0,B|151:218|151:218|139:277,1,120,0|8,3:0|0:0,0:0:0:0:
247,276,125062,2,0,L|306:265,2,60,0|0|8,3:0|0:0|0:0,0:0:0:0:
247,168,126000,6,0,B|306:156|306:156|365:168,1,120,0|8,3:0|0:0,0:0:0:0:
440,244,126937,2,0,B|451:303|451:303|439:362,1,120,0|8,3:0|0:0,0:0:0:0:
389,383,127640,1,2,3:2:0:0:
337,367,127875,2,0,L|217:372,2,120,0|8|0,3:0|0:0|3:0,0:0:0:0:
260,291,129281,1,8,0:0:0:0:
151,291,129750,6,0,B|129:326|129:326|64:276|0:296,2,180,2|2|2,0:0|0:0|0:0,0:0:0:0:
259,291,131625,2,0,P|318:304|376:291,1,120,0|0,0:0|0:0,0:0:0:0:
413,253,132328,2,0,L|418:133,1,120,0|0,0:0|0:0,0:0:0:0:
421,79,133031,1,0,0:0:0:0:
328,132,133500,6,0,B|252:168|192:124|192:124|188:84,2,180,2|2|2,0:0|0:0|0:0,0:0:0:0:
268,224,135375,2,0,P|255:283|268:341,1,120,2|0,0:0|0:0,0:0:0:0:
305,378,136078,1,0,0:0:0:0:
360,376,136312,2,0,L|480:371,2,120,0|0|2,3:0|0:0|0:0,0:0:0:0:
197,376,137953,5,2,0:0:0:0:
82,261,138656,2,0,L|74:202,1,60,2|0,0:0|0:0,0:0:0:0:
104,156,139125,2,0,P|162:143|220:156,1,120,0|0,0:0|0:0,0:0:0:0:
268,180,139828,2,0,P|326:193|384:180,1,120,0|0,0:0|0:0,0:0:0:0:
432,156,140531,1,0,0:0:0:0:
355,79,141000,6,0,B|328:54|328:54|251:91|192:50,2,180,2|2|2,0:0|0:0|3:2,0:0:0:0:
432,156,142875,2,0,P|445:214|432:272,1,120,2|0,0:0|0:0,0:0:0:0:
395,311,143578,2,0,L|275:316,1,120,0|0,0:0|0:0,0:0:0:0:
220,320,144281,1,0,0:0:0:0:
120,276,144750,6,0,L|115:156,1,120,2|0,3:2|0:0,0:0:0:0:
140,108,145453,1,2,0:0:0:0:
192,124,145687,2,0,P|250:137|308:124,1,120,2|0,3:2|0:0,0:0:0:0:
416,124,146625,2,0,L|421:244,1,120,2|0,3:2|0:0,0:0:0:0:
396,292,147328,1,2,0:0:0:0:
344,276,147562,2,0,P|285:262|227:275,1,120,2|0,3:2|0:0,0:0:0:0:
120,276,148500,6,0,L|115:156,1,120,2|0,3:2|0:0,0:0:0:0:
223,156,149437,2,0,L|228:276,2,120,0|2|0,3:0|3:2|0:0,0:0:0:0:
92,240,159750,6,0,L|85:299,2,60,8|0|2,3:0|0:0|0:0,0:0:0:0:
168,163,160687,1,2,3:2:0:0:
244,239,161156,2,0,P|302:252|360:239,1,120,2|0,3:2|3:0,0:0:0:0:
436,162,162093,1,2,3:2:0:0:
359,85,162562,1,2,3:2:0:0:
250,85,163031,2,0,L|191:78,1,60,2|0,3:2|0:0,0:0:0:0:
144,104,163500,6,0,L|139:224,1,120,2|2,3:2|3:2,0:0:0:0:
139,331,164437,2,0,L|194:353,1,60,2|0,3:2|3:0,0:0:0:0:
248,354,164905,2,0,L|303:332,1,60,2|0,3:2|3:0,0:0:0:0:
357,332,165374,2,0,L|412:354,1,60,2|0,3:2|3:0,0:0:0:0:
464,376,165843,1,2,3:2:0:0:
464,376,166078,1,0,1:0:0:0:
300,163,167250,6,0,P|335:118|393:115,1,120,4|8,3:2|0:0,0:0:0:0:
442,211,168187,2,0,P|412:206|383:214,1,60,0|0,3:0|0:0,0:0:0:0:
333,232,168656,2,0,P|304:239|274:235,1,60,8|2,0:0|3:2,0:0:0:0:
219,235,169125,2,0,P|184:280|205:334,1,120,0|8,3:0|0:0,0:0:0:0:
313,334,170062,2,0,L|372:304,1,60,0|0,3:0|0:0,0:0:0:0:
401,265,170531,2,0,P|408:236|404:206,1,60,8|0,0:0|3:2,0:0:0:0:
365,168,171000,6,0,B|340:164|316:136|316:136|284:148|256:144,1,120,0|8,3:0|0:0,0:0:0:0:
156,180,171937,2,0,P|151:209|159:238,1,60,0|0,3:0|0:0,0:0:0:0:
193,280,172406,2,0,L|246:307,1,60,8|2,0:0|3:2,0:0:0:0:
300,306,172875,2,0,P|358:292|417:298,2,120,0|8|0,3:0|0:0|3:0,0:0:0:0:
216,376,174281,2,0,L|162:348,1,60,8|2,0:0|3:0,0:0:0:0:
115,323,174750,6,0,P|98:266|106:207,1,120,0|8,3:0|0:0,0:0:0:0:
212,192,175687,2,0,L|212:256,2,60,0|0|8,3:0|0:0|0:0,0:0:0:0:
320,208,176625,2,0,P|327:267|310:324,1,120,0|8,3:0|0:0,0:0:0:0:
202,324,177562,2,0,P|173:316|143:320,2,60,0|0|8,3:0|0:0|0:0,0:0:0:0:
311,324,178500,6,0,B|344:332|396:288|426:295,1,120,0|8,3:0|0:0,0:0:0:0:
425,187,179437,2,0,P|395:153|316:160,1,120,0|8,3:0|0:0,0:0:0:0:
284,192,180140,1,2,3:2:0:0:
284,246,180375,2,0,L|284:316,1,60,0|2,3:0|0:0,0:0:0:0:
322,344,180843,2,0,P|379:357|437:344,2,120,8|0|8,0:0|3:0|0:0,0:0:0:0:
216,328,182250,6,0,P|159:315|101:328,1,120,4|8,3:2|0:0,0:0:0:0:
72,224,183187,2,0,L|80:152,1,60,0|0,3:0|0:0,0:0:0:0:
128,142,183656,2,0,L|136:70,1,60,8|2,0:0|3:2,0:0:0:0:
172,44,184125,2,0,B|200:40|232:52|232:52|256:24|281:20,1,120,0|8,3:0|0:0,0:0:0:0:
356,96,185062,2,0,P|360:125|352:154,1,60,0|0,3:0|0:0,0:0:0:0:
318,196,185531,2,0,L|264:223,1,60,8|2,0:0|3:2,0:0:0:0:
226,261,186000,6,0,P|219:318|259:361,1,120,0|8,3:0|0:0,0:0:0:0:
367,361,186937,2,0,L|394:307,1,60,0|0,3:0|0:0,0:0:0:0:
444,288,187406,2,0,L|471:234,1,60,8|2,0:0|3:2,0:0:0:0:
471,180,187875,2,0,P|414:167|356:180,2,120,0|8|0,3:0|0:0|3:0,0:0:0:0:
471,71,189281,2,0,L|407:63,1,60,8|2,0:0|3:0,0:0:0:0:
357,63,189750,6,0,B|323:54|271:98|241:91,1,120,0|8,3:0|0:0,0:0:0:0:
320,164,190687,2,0,L|392:164,2,60,0|0|8,3:0|0:0|0:0,0:0:0:0:
242,239,191625,2,0,B|271:231|323:275|357:267,1,120,0|8,3:0|0:0,0:0:0:0:
380,164,192562,2,0,L|320:164,2,60,0|0|8,3:0|0:0|0:0,0:0:0:0:
443,251,193500,6,0,P|434:309|391:349,1,120,0|8,3:0|0:0,0:0:0:0:
283,349,194437,2,0,L|159:337,1,120,0|8,3:0|0:0,0:0:0:0:
86,260,195375,1,0,3:0:0:0:
162,183,195843,2,0,L|281:171,2,120,0|0|0,1:0|1:0|1:0,0:0:0:0:
86,260,197250,5,4,3:2:0:0:
