osu file format v14

[General]
AudioFilename: Because There Is You.mp3
AudioLeadIn: 3690
PreviewTime: 51503
Countdown: 0
SampleSet: Soft
StackLeniency: 0.3
Mode: 0
LetterboxInBreaks: 0
WidescreenStoryboard: 1

[Editor]
Bookmarks: 52594,87503,112594,148594,200958
DistanceSpacing: 1.15
BeatDivisor: 4
GridSize: 4
TimelineZoom: 1.1

[Metadata]
Title:Bo jestes ty
TitleUnicode:Bo jesteÅ› ty
Artist:Krzysztof Krawczyk
ArtistUnicode:Krzysztof Krawczyk
Creator:Krfawy
Version:Trudny Krfawego i Liutha
Source:
Tags:Polish Trubadurzy pop Liuth Raikozen Bathory Witch Cydros WORSTPOLACKEU ReFaller Pappy Papcio cookiezecky WujekGrzyb Wujek Grzyb Reazen fartownik Exile- Venix Asserin CptSqBany
BeatmapID:832518
BeatmapSetID:371675

[Difficulty]
HPDrainRate:3.5
CircleSize:3
OverallDifficulty:6
ApproachRate:6
SliderMultiplier:1.45
SliderTickRate:2

[Events]
//Background and Video events
0,0,"Zakochana Para.jpg",0,0
//Break Periods
2,89685,111544
//Storyboard Layer 0 (Background)
//Storyboard Layer 1 (Fail)
//Storyboard Layer 2 (Pass)
//Storyboard Layer 3 (Foreground)
Sprite,Foreground,Centre,"Tworzyli/Liutheuek.png",320,240 M,0,52185,,99,388 S,0,52185,,0.5292901 F,0,52458,52731,0,1 F,0,52731,85185,1,0.996396 F,0,85185,85458,0.996396,0 F,0,85458,112458,0,0.02554862 F,0,112458,112731,0.02554862,1 F,0,112731,148185,1 F,0,148185,148458,1,0
Sprite,Foreground,Centre,"Tworzyli/Blady Kamyczek.png",320,240 F,0,94,367,0,1 M,0,231,,118,399 S,0,231,,0.488 F,0,367,52185,1 F,0,52185,52458,1,0 F,0,52458,,0 F,0,52458,148458,0 F,0,148458,148731,0,1 F,0,148731,200821,1 F,0,200821,201094,1,0
//Storyboard Sound Samples

[TimingPoints]
231,545.454545454546,4,2,22,75,1,0
7594,-100,4,2,11,75,0,0
7867,-100,4,2,22,75,0,0
16321,-100,4,2,11,75,0,0
16594,-100,4,2,22,75,0,0
25049,-100,4,2,11,75,0,0
25321,-100,4,2,22,75,0,0
33776,-100,4,2,11,75,0,0
34049,-100,4,2,22,75,0,0
42503,-100,4,2,11,75,0,0
42776,-100,4,2,22,75,0,0
44958,-100,4,2,33,75,0,0
47140,-100,4,2,11,75,0,0
47412,-100,4,2,33,75,0,0
52594,-76.9230769230769,4,2,11,75,0,1
83685,-76.9230769230769,4,2,1,75,0,1
83958,-76.9230769230769,4,2,11,75,0,1
84776,-76.9230769230769,4,2,1,75,0,1
85049,-76.9230769230769,4,2,11,75,0,1
87503,-100,4,2,22,75,0,0
148594,-76.9230769230769,4,2,11,75,0,1
183503,-83.3333333333333,4,2,11,65,0,1
186776,-83.3333333333333,4,2,11,60,0,1
187321,-83.3333333333333,4,2,11,55,0,1
187867,-83.3333333333333,4,2,11,50,0,1
188958,-83.3333333333333,4,2,11,45,0,1
192231,-90.9090909090909,4,2,11,40,0,1
194412,-90.9090909090909,4,2,11,35,0,1
196321,-100,4,2,11,30,0,1
200958,-100,4,2,22,25,0,0
201503,-100,4,2,22,5,0,0

[Colours]
Combo1 : 185,234,223
Combo2 : 235,221,177
Combo3 : 189,214,234
SliderBorder : 255,255,255
SliderTrackOverride : 175,175,175

[HitObjects]
22,202,231,6,0,P|129:162|147:148,1,72.5,4|2,0:1|0:0,0:0:0:0:
153,127,776,1,0,1:0:0:0:
232,101,1049,2,0,B|274:95|274:95|376:107,1,145,4|2,0:3|0:0,0:0:0:0:
462,110,1867,1,4,1:3:0:0:
487,195,2140,1,0,0:0:0:0:
416,239,2412,5,8,0:3:0:0:
346,189,2685,1,2,0:0:0:0:
376,107,2958,1,0,1:0:0:0:
462,110,3231,2,0,B|512:186|500:246,1,145,8|2,0:3|0:0,0:0:0:0:
481,329,4049,1,4,1:3:0:0:
400,350,4322,1,0,0:0:0:0:
319,328,4594,6,0,P|283:319|251:302,1,72.5,8|2,0:3|0:0,0:0:0:0:
186,249,5140,1,0,1:0:0:0:
144,177,5412,2,0,B|140:142|140:142|153:80|210:65,1,145,8|2,0:3|0:0,0:0:0:0:
291,49,6231,1,8,1:3:0:0:
372,65,6503,1,2,0:0:0:0:
360,147,6776,6,0,B|328:251|328:251|330:287,2,145,8|0|2,0:3|1:0|0:0,0:0:0:0:
404,72,8140,1,2,0:0:0:0:
476,22,8412,2,0,P|490:54|490:90,1,72.5,4|2,1:3|0:0,0:0:0:0:
454,170,8958,5,4,0:3:0:0:
369,189,9231,1,2,0:0:0:0:
301,135,9503,1,0,1:0:0:0:
215,125,9776,2,0,P|157:182|149:242,1,145,4|2,0:3|0:0,0:0:0:0:
178,320,10594,1,8,1:3:0:0:
256,349,10867,1,0,0:0:0:0:
334,320,11140,5,4,0:3:0:0:
351,238,11412,1,2,0:0:0:0:
360,155,11685,1,0,1:0:0:0:
344,72,11958,2,0,B|235:62|235:62|200:71,1,145,4|2,0:3|0:0,0:0:0:0:
133,121,12776,1,8,1:3:0:0:
122,203,13049,1,0,0:0:0:0:
167,272,13321,6,0,P|197:290|233:291,1,72.5,8|2,0:3|0:0,0:0:0:0:
308,259,13867,1,0,1:0:0:0:
346,184,14140,2,0,B|365:121|317:79|317:79|312:50,1,145,8|2,0:3|0:0,0:0:0:0:
237,12,14958,1,8,1:3:0:0:
155,31,15231,1,2,0:0:0:0:
109,99,15503,6,0,P|89:169|93:241,2,145,8|0|2,0:3|1:0|0:0,0:0:0:0:
155,31,16867,1,2,0:0:0:0:
237,12,17140,1,4,1:3:0:0:
321,14,17412,1,0,0:0:0:0:
361,86,17685,6,0,P|357:122|346:156,1,72.5,4|0,0:1|0:3,0:3:0:0:
319,235,18231,1,0,1:3:0:0:
252,285,18503,2,0,P|181:274|110:288,1,145,8|2,0:3|0:0,0:0:0:0:
27,294,19321,2,0,P|32:262|52:227,1,72.5,8|2,1:3|0:0,0:0:0:0:
112,169,19867,6,0,P|182:183|250:162,1,145,4|0,0:3|1:0,0:0:0:0:
310,104,20685,2,0,P|301:175|329:241,1,145,4|2,0:3|0:0,0:0:0:0:
393,294,21503,1,4,1:3:0:0:
476,297,21776,1,2,0:0:0:0:
506,219,22049,6,0,B|518:144|472:151|483:79,1,145,8|0,0:3|1:0,0:0:0:0:
454,0,22867,2,0,B|425:67|425:67|374:118,1,145,8|2,0:3|0:0,0:0:0:0:
298,151,23685,1,8,1:3:0:0:
214,151,23958,1,2,0:0:0:0:
137,118,24231,6,0,P|70:95|4:126,2,145,8|0|2,0:3|1:0|0:0,0:0:0:0:
171,193,25594,1,2,0:0:0:0:
224,257,25867,1,8,1:3:0:0:
307,258,26140,1,2,0:0:0:0:
385,230,26412,6,0,P|380:300|323:341,1,145,4|0,0:3|1:0,0:0:0:0:
241,357,27231,2,0,B|136:361|136:361|85:337,1,145,4|2,0:3|0:0,0:0:0:0:
50,276,28049,1,8,1:3:0:0:
75,196,28321,1,2,0:0:0:0:
156,175,28594,6,0,P|216:214|259:272,1,145,4|0,0:3|1:0,0:0:0:0:
288,350,29412,2,0,P|291:277|320:211,1,145,4|2,0:3|0:0,0:0:0:0:
366,141,30231,1,4,1:3:0:0:
445,115,30503,1,2,0:0:0:0:
482,189,30776,6,0,B|485:231|459:265|459:265|442:334,1,145,8|0,0:3|1:0,0:0:0:0:
370,366,31594,2,0,P|306:337|318:250,1,145,8|2,0:3|0:0,0:0:0:0:
356,205,32412,1,8,1:3:0:0:
338,123,32685,1,2,0:0:0:0:
270,74,32958,6,0,B|244:58|200:79|200:79|156:100|130:84,2,145,8|0|2,0:3|1:0|0:0,0:0:0:0:
338,123,34321,1,2,0:0:0:0:
321,202,34594,2,0,P|287:186|264:159,1,72.5,4|2,1:3|0:0,0:0:0:0:
351,40,35140,6,0,P|408:80|416:149,1,145,8|0,0:3|1:0,0:0:0:0:
392,230,35958,2,0,B|388:252|369:272|343:278|343:278|317:285|297:304|294:327,1,145,8|2,0:3|0:0,0:0:0:0:
229,379,36776,1,8,1:3:0:0:
145,372,37049,1,2,0:0:0:0:
97,303,37321,6,0,B|89:271|89:271|101:155,1,145,4|0,0:3|1:0,0:0:0:0:
102,75,38140,2,0,P|107:120|194:167,1,145,4|2,0:3|0:0,0:0:0:0:
263,144,38958,1,4,1:3:0:0:
310,209,39231,1,2,0:0:0:0:
263,273,39503,5,8,0:3:0:0:
187,248,39776,1,0,0:0:0:0:
122,201,40049,1,0,1:0:0:0:
39,209,40321,2,0,B|52:262|97:278|97:278|132:315,1,145,8|2,0:3|0:0,0:0:0:0:
201,361,41140,1,8,1:3:0:0:
283,353,41412,1,2,0:0:0:0:
346,300,41685,6,0,P|338:180|322:152,2,145,8|0|2,0:3|1:0|0:0,0:0:0:0:
283,353,43049,1,2,0:0:0:0:
201,361,43321,1,4,1:3:0:0:
120,339,43594,1,2,0:0:0:0:
79,265,43867,5,8,0:3:0:0:
88,182,44140,2,0,P|91:120|79:90,2,72.5,2|0|8,0:0|1:0|0:3,0:0:0:0:
79,265,44958,2,0,B|106:241|145:240|145:240|185:239|212:216,1,145,4|8,0:0|1:3,0:0:0:0:
256,145,45776,1,2,0:0:0:0:
241,61,46049,6,0,P|218:34|184:22,2,72.5,4|2|0,0:3|0:0|1:0,0:0:0:0:
256,145,46867,2,0,B|263:175|303:193|303:193|371:225,1,145,4|2,0:3|0:0,0:0:0:0:
453,215,47685,1,4,1:3:0:0:
416,139,47958,1,2,0:0:0:0:
337,112,48231,6,0,P|264:109|198:80,1,145,8|0,0:3|1:0,0:0:0:0:
134,27,49049,2,0,P|167:91|175:163,1,145,8|2,0:3|0:0,0:0:0:0:
161,244,49867,1,8,1:3:0:0:
114,312,50140,1,2,0:0:0:0:
34,334,50412,6,0,B|21:262|21:262|34:190,1,145,8|0,0:3|1:0,0:0:0:0:
62,112,51231,1,4,0:0:0:0:
115,48,51503,5,8,0:3:0:0:
217,29,51776,1,2,0:0:0:0:
339,58,52049,1,0,1:0:0:0:
419,179,52321,1,4,0:0:0:0:
412,345,52594,5,4,0:1:0:0:
304,352,52867,1,0,0:0:0:0:
200,320,53140,2,0,P|140:292|124:256,1,94.2499956855776,10|2,1:2|0:0,0:0:0:0:
96,168,53685,1,8,0:3:0:0:
124,64,53958,1,2,0:0:0:0:
228,40,54231,2,0,P|272:40|332:72,1,94.2499956855776,10|2,1:2|0:0,0:0:0:0:
404,124,54776,6,0,B|323:133|352:190|231:198,1,188.499991371155,8|10,0:3|1:2,0:0:0:0:
128,180,55594,1,10,1:2:0:0:
32,128,55867,2,0,P|64:88|120:76,1,94.2499956855776,8|2,0:3|0:0,0:0:0:0:
212,68,56412,2,0,L|232:164,1,94.2499956855776,10|2,1:2|0:0,0:0:0:0:
256,264,56958,6,0,P|332:204|324:112,1,188.499991371155,4|10,0:3|1:2,0:0:0:0:
284,20,57776,1,10,1:2:0:0:
176,24,58049,2,0,B|128:36|128:36|84:68,1,94.2499956855776,4|0,0:3|0:0,0:0:0:0:
80,172,58594,2,0,B|128:160|128:160|172:128,1,94.2499956855776,10|2,1:2|0:0,0:0:0:0:
252,72,59140,6,0,P|336:76|323:159,1,188.499991371155,4|10,0:3|1:2,0:0:0:0:
256,231,59958,1,10,1:2:0:0:
102,288,60231,1,4,0:3:0:0:
129,129,60503,1,2,0:0:0:0:
256,231,60776,2,0,P|296:263|344:271,1,94.2499956855776,10|10,1:2|1:2,0:0:0:0:
444,288,61321,6,0,B|456:196|456:196|416:104,1,188.499991371155,8|10,0:3|1:2,0:0:0:0:
340,32,62140,1,10,1:2:0:0:
232,36,62412,2,0,P|184:44|148:72,1,94.2499956855776,8|2,0:3|0:0,0:0:0:0:
84,160,62958,2,0,P|88:208|70:250,1,94.2499956855776,8|2,1:2|0:0,0:0:0:0:
40,352,63503,6,0,B|136:352|136:300|220:300,1,188.499991371155,8|10,0:3|1:2,0:0:0:0:
328,296,64321,1,10,1:2:0:0:
436,292,64594,2,0,L|456:384,2,94.2499956855776,8|2|10,0:3|0:0|1:2,0:0:0:0:
408,188,65412,1,2,0:0:0:0:
356,92,65685,6,0,P|449:85|510:151,2,188.499991371155,8|10|8,0:3|1:2|0:3,0:0:0:0:
252,124,67049,1,2,0:0:0:0:
164,188,67321,1,10,1:2:0:0:
68,140,67594,1,2,0:0:0:0:
99,32,67867,6,0,P|163:92|159:196,1,188.499991371155,8|10,0:3|1:2,0:0:0:0:
140,292,68685,1,10,1:2:0:0:
32,292,68958,1,8,0:3:0:0:
3,131,69231,1,2,0:0:0:0:
157,79,69503,2,0,P|173:140|166:180,1,94.2499956855776,10|10,1:2|1:2,0:0:0:0:
301,201,70049,6,0,B|377:229|377:165|489:213,1,188.499991371155,4|10,1:2|1:2,0:0:0:0:
502,318,70867,1,10,1:2:0:0:
406,366,71140,2,0,B|310:366|310:366|206:330,1,188.499991371155,4|10,0:3|1:2,0:0:0:0:
118,304,71958,1,2,0:0:0:0:
20,256,72231,6,0,P|8:192|16:156,1,94.2499956855776,4|2,0:3|0:0,0:0:0:0:
60,68,72776,1,10,1:2:0:0:
164,36,73049,1,10,1:2:0:0:
272,48,73321,2,0,P|316:64|348:108,1,94.2499956855776,4|2,0:3|0:0,0:0:0:0:
332,208,73867,2,0,P|288:192|256:148,1,94.2499956855776,10|2,1:2|0:0,0:0:0:0:
424,164,74412,6,0,P|424:256|344:308,1,188.499991371155,8|10,0:3|1:2,0:0:0:0:
244,320,75231,1,10,1:2:0:0:
136,304,75503,2,0,P|96:276|72:232,1,94.2499956855776,8|0,0:3|0:0,0:0:0:0:
72,128,76049,2,0,B|128:124|164:164,1,94.2499956855776,10|2,1:2|0:0,0:0:0:0:
240,236,76594,6,0,L|224:344,2,94.2499956855776,8|0|10,0:3|0:0|1:2,0:0:0:0:
272,132,77412,1,10,1:2:0:0:
312,32,77685,2,0,P|357:63|377:112,2,94.2499956855776,8|2|10,0:3|0:0|1:2,0:0:0:0:
204,24,78503,1,10,1:2:0:0:
96,24,78776,6,0,B|96:100|170:129|170:129|160:184,1,188.499991371155,8|10,0:3|1:2,0:0:0:0:
116,280,79594,1,10,1:2:0:0:
52,368,79867,2,0,P|6:290|42:199,1,188.499991371155,8|10,0:3|1:2,0:0:0:0:
116,128,80685,1,2,0:0:0:0:
224,132,80958,6,0,P|272:144|316:176,1,94.2499956855776,8|2,0:3|0:0,0:0:0:0:
388,244,81503,2,0,P|340:256|296:288,1,94.2499956855776,10|10,1:2|1:2,0:0:0:0:
220,348,82049,2,0,B|172:340|172:340|120:312,1,94.2499956855776,8|2,0:3|0:0,0:0:0:0:
85,220,82594,1,10,1:2:0:0:
121,116,82867,1,2,0:0:0:0:
229,107,83140,6,0,B|325:135|369:227|369:227|309:259|269:243|269:243|229:251|229:251|173:247,2,376.99998274231,8|4|8,0:3|0:3|0:3,0:0:0:0:
256,192,85458,12,4,87503,1:2:0:0:
168,296,112594,6,0,B|152:264|152:264|152:216,1,72.5,8|2,0:3|0:0,0:0:0:0:
152,144,113140,2,0,P|188:152|224:144,1,72.5,4|2,1:3|0:0,0:0:0:0:
276,80,113685,6,0,P|305:144|273:211,1,145,4|0,0:1|1:0,0:0:0:0:
212,264,114503,2,0,B|304:276|304:276|357:267,1,145,8|0,0:3|0:0,0:0:0:0:
436,248,115321,1,8,1:3:0:0:
456,168,115594,1,2,0:0:0:0:
476,88,115867,6,0,P|428:144|360:156,1,145,4|0,0:3|1:0,0:0:0:0:
276,156,116685,2,0,P|206:142|160:87,1,145,4|2,0:3|0:0,0:0:0:0:
131,9,117503,2,0,P|99:33|79:69,1,72.5,4|2,1:3|0:0,0:0:0:0:
59,141,118049,6,0,B|59:237|59:237|87:281,1,145,8|0,0:3|1:0,0:0:0:0:
136,344,118867,2,0,P|196:304|276:300,1,145,8|2,0:3|0:0,0:0:0:0:
352,308,119685,2,0,B|388:316|388:316|424:316,1,72.5,8|2,1:3|0:0,0:0:0:0:
500,280,120231,5,8,0:3:0:0:
496,196,120503,1,0,0:0:0:0:
416,176,120776,1,0,1:0:0:0:
376,248,121049,1,2,0:0:0:0:
424,316,121321,2,0,P|464:308|492:288,1,72.5,8|2,0:3|0:0,0:0:0:0:
508,208,121867,2,0,B|492:176|492:176|492:136,1,72.5,8|2,1:3|0:0,0:0:0:0:
492,56,122412,6,0,P|448:112|380:132,1,145,4|0,0:3|1:0,0:0:0:0:
300,100,123231,2,0,B|332:156|332:156|336:236,1,145,4|0,0:3|0:0,0:0:0:0:
332,320,124049,2,0,P|296:332|260:324,1,72.5,8|2,1:3|0:0,0:0:0:0:
188,288,124594,6,0,P|124:260|48:268,1,145,4|0,0:3|1:0,0:0:0:0:
100,336,125412,2,0,P|132:272|108:204,1,145,4|2,0:3|0:0,0:0:0:0:
72,132,126231,2,0,P|112:124|148:132,1,72.5,4|2,1:3|0:0,0:0:0:0:
224,152,126776,6,0,P|284:156|356:112,1,145,8|0,0:3|1:0,0:0:0:0:
412,52,127594,2,0,P|384:116|416:184,1,145,8|0,0:3|0:0,0:0:0:0:
472,240,128412,2,0,P|496:272|500:308,1,72.5,8|2,1:3|0:0,0:0:0:0:
444,368,128958,6,0,P|420:336|416:300,1,72.5,8|0,0:3|0:0,0:0:0:0:
396,224,129503,1,0,1:0:0:0:
312,224,129776,1,2,0:0:0:0:
296,308,130049,2,0,P|289:343|267:371,1,72.5,8|2,0:3|0:0,0:0:0:0:
184,368,130594,2,0,B|148:360|148:360|116:344,1,72.5,4|2,1:3|0:0,0:0:0:0:
32,348,131140,6,0,B|96:316|96:316|136:252,1,145,4|0,0:3|1:0,0:0:0:0:
172,180,131958,2,0,P|216:128|288:116,1,145,8|0,0:3|0:0,0:0:0:0:
364,84,132776,2,0,P|372:120|360:160,1,72.5,8|2,1:3|0:0,0:0:0:0:
320,224,133321,6,0,B|304:252|304:252|304:364,1,145,4|0,0:3|1:0,0:0:0:0:
208,362,134140,2,0,B|208:252|208:252|192:220,1,145,4|0,0:3|0:0,0:0:0:0:
152,148,134958,2,0,L|124:80,1,72.5,4|2,1:3|0:0,0:0:0:0:
60,28,135503,6,0,P|128:48|200:28,1,145,8|0,0:3|1:0,0:0:0:0:
280,12,136321,2,0,B|352:28|352:28|400:84,1,145,8|0,0:3|0:0,0:0:0:0:
440,156,137140,1,8,1:3:0:0:
404,232,137412,1,2,0:0:0:0:
328,268,137685,6,0,P|284:272|256:260,1,72.5,8|0,0:3|0:0,0:0:0:0:
228,184,138231,2,0,P|272:180|300:192,1,72.5,0|2,1:0|0:0,0:0:0:0:
176,248,138776,2,0,P|144:188|172:120,1,145,8|8,0:3|1:3,0:0:0:0:
236,68,139594,1,2,0:0:0:0:
320,64,139867,6,0,B|384:64|384:124|456:124,1,145,8|0,0:3|1:0,0:0:0:0:
508,184,140685,2,0,P|456:204|368:180,1,145,8|2,0:3|0:0,0:0:0:0:
296,148,141503,2,0,P|256:144|220:152,1,72.5,8|2,1:3|0:0,0:0:0:0:
148,120,142049,6,0,B|180:156|180:156|180:260,1,145,4|0,0:3|1:0,0:0:0:0:
180,336,142867,2,0,P|252:352|328:336,1,145,4|2,0:3|0:0,0:0:0:0:
400,312,143685,1,4,1:3:0:0:
420,232,143958,1,2,0:0:0:0:
400,152,144231,6,0,B|364:168|364:168|248:168,1,145,8|0,0:3|1:0,0:0:0:0:
208,104,145049,2,0,P|232:172|208:240,1,145,8|2,0:3|0:0,0:0:0:0:
172,312,145867,2,0,L|100:312,1,72.5,8|2,1:3|0:0,0:0:0:0:
20,288,146412,6,0,P|40:252|72:236,1,72.5,8|0,0:3|0:0,0:0:0:0:
148,216,146958,1,0,1:0:0:0:
220,176,147231,1,2,0:0:0:0:
348,68,147503,5,8,0:3:0:0:
320,228,147776,1,2,0:0:0:0:
248,80,148049,1,8,1:3:0:0:
396,156,148321,1,2,0:0:0:0:
248,80,148594,6,0,P|338:58|429:81,1,188.499991371155,4|10,0:1|1:2,0:0:0:0:
475,185,149412,1,2,0:0:0:0:
457,307,149685,2,0,P|415:285|377:259,1,94.2499956855776,8|2,0:3|0:0,0:0:0:0:
193,215,150231,2,0,P|235:237|274:264,1,94.2499956855776,10|2,1:2|0:0,0:0:0:0:
85,206,150776,6,0,P|49:152|153:143,1,188.499991371155,8|10,0:3|1:2,0:0:0:0:
193,215,151594,1,10,1:2:0:0:
337,376,151867,1,8,0:3:0:0:
175,376,152140,1,2,0:0:0:0:
319,215,152412,2,0,P|368:133|374:119,1,94.2499956855776,8|2,1:2|0:0,0:0:0:0:
450,63,152958,6,0,B|352:47|361:107|268:92,1,188.499991371155,4|10,0:3|1:2,0:0:0:0:
167,69,153776,1,10,1:2:0:0:
113,158,154049,2,0,P|115:205|122:251,1,94.2499956855776,4|0,0:3|0:0,0:0:0:0:
170,348,154594,1,10,1:2:0:0:
278,356,154867,1,2,0:0:0:0:
381,326,155140,6,0,P|321:257|230:257,1,188.499991371155,4|10,0:3|1:2,0:0:0:0:
170,348,155958,1,10,1:2:0:0:
381,326,156231,2,0,P|383:279|390:233,1,94.2499956855776,4|2,0:3|0:0,0:0:0:0:
230,258,156776,2,0,P|182:255|136:248,1,94.2499956855776,10|10,1:2|1:2,0:0:0:0:
46,187,157321,6,0,B|44:226|87:262|87:262|162:324,1,188.499991371155,8|10,0:3|1:2,0:0:0:0:
256,383,158140,1,10,1:2:0:0:
349,326,158412,2,0,P|409:274|418:242,1,94.2499956855776,8|0,0:3|0:0,0:0:0:0:
308,151,158958,2,0,P|247:202|238:234,1,94.2499956855776,10|2,1:2|0:0,0:0:0:0:
329,238,159503,6,0,B|428:138|428:138|448:96,1,188.499991371155,8|10,0:3|1:2,0:0:0:0:
497,0,160321,1,10,1:2:0:0:
390,5,160594,2,0,P|296:16|213:59,1,188.499991371155,8|10,0:3|1:2,0:0:0:0:
137,136,161412,1,2,0:0:0:0:
74,225,161685,6,0,B|108:249|150:244|150:244|255:268,1,188.499991371155,8|10,0:3|1:2,0:0:0:0:
361,293,162503,1,10,1:2:0:0:
467,317,162776,2,0,B|495:290|490:234|490:234|482:137,1,188.499991371155,8|10,0:3|1:2,0:0:0:0:
469,27,163594,1,2,0:0:0:0:
384,0,163867,6,0,P|384:47|406:88,1,94.2499956855776,8|0,0:3|0:0,0:0:0:0:
504,222,164412,2,0,P|503:176|482:135,1,94.2499956855776,10|10,1:2|1:2,0:0:0:0:
384,0,164958,5,8,0:3:0:0:
281,17,165231,1,2,0:0:0:0:
176,86,165504,1,10,1:2:0:0:
143,227,165776,1,10,1:2:0:0:
206,380,166049,6,0,B|299:395|290:335|388:351,1,188.499991371155,4|10,1:2|1:2,0:0:0:0:
495,364,166867,1,10,1:2:0:0:
510,256,167140,2,0,P|508:209|501:163,1,94.2499956855776,4|2,0:3|0:0,0:0:0:0:
329,57,167685,2,0,P|364:89|402:117,1,94.2499956855776,10|2,1:2|0:0,0:0:0:0:
490,54,168231,6,0,B|467:88|426:100|426:100|338:161,1,188.499991371155,4|10,0:3|1:2,0:0:0:0:
256,233,169049,1,10,1:2:0:0:
272,322,169321,2,0,P|333:272|343:240,1,94.2499956855776,4|2,0:3|0:0,0:0:0:0:
237,144,169867,2,0,P|174:192|164:224,1,94.2499956855776,10|2,1:2|0:0,0:0:0:0:
118,351,170412,6,0,P|124:259|60:195,1,188.499991371155,8|10,0:3|1:2,0:0:0:0:
24,300,171231,1,10,1:2:0:0:
127,266,171503,2,0,B|215:232|177:185|270:149,1,188.499991371155,8|10,0:3|1:2,0:0:0:0:
376,129,172321,1,2,0:0:0:0:
481,149,172594,6,0,P|496:225|468:280,1,94.2499956855776,8|2,0:3|0:0,0:0:0:0:
384,256,173140,2,0,P|369:180|397:125,1,94.2499956855776,10|10,1:2|1:2,0:0:0:0:
411,62,173685,1,8,0:3:0:0:
315,8,173958,1,2,0:0:0:0:
161,62,174231,1,10,1:2:0:0:
51,53,174504,1,10,1:2:0:0:
24,185,174776,6,0,P|18:277|82:341,1,188.499991371155,4|10,0:3|1:2,0:0:0:0:
188,368,175594,1,10,1:2:0:0:
250,277,175867,2,0,P|256:185|192:121,1,188.499991371155,4|10,0:3|1:2,0:0:0:0:
86,94,176685,1,2,0:0:0:0:
16,9,176958,6,0,P|110:14|204:10,1,188.499991371155,4|10,0:3|1:2,0:0:0:0:
312,5,177776,1,10,1:2:0:0:
392,76,178049,2,0,P|392:123|370:164,1,94.2499956855776,8|2,0:3|0:0,0:0:0:0:
275,217,178594,1,10,1:2:0:0:
167,229,178867,1,2,0:0:0:0:
64,194,179140,6,0,B|47:101|47:101|64:8,2,188.499991371155,8|8|8,0:3|1:2|0:3,0:0:0:0:
95,297,180503,1,2,0:0:0:0:
256,312,180776,2,0,P|303:310|349:303,1,94.2499956855776,10|2,1:2|0:0,0:0:0:0:
477,190,181321,6,0,P|430:192|384:200,1,94.2499956855776,8|2,0:3|0:0,0:0:0:0:
256,226,181867,1,10,1:2:0:0:
128,200,182140,1,2,0:0:0:0:
11,141,182412,6,0,P|-4:98|2:51,1,94.2499956855776,8|2,0:3|0:0,0:0:0:0:
164,39,182958,2,0,P|180:82|173:129,1,94.2499956855776,10|10,1:2|1:2,0:0:0:0:
103,275,183503,6,0,B|192:260|184:315|270:301,1,173.999994689942,4|10,1:2|1:2,0:0:0:0:
371,307,184321,1,2,0:0:0:0:
416,217,184594,2,0,P|409:132|349:71,1,173.999994689942,8|10,0:3|1:2,0:0:0:0:
256,35,185412,1,2,0:0:0:0:
162,71,185685,6,0,P|102:132|95:217,1,173.999994689942,8|10,0:3|1:2,0:0:0:0:
134,308,186503,1,10,1:2:0:0:
328,354,186776,2,0,P|377:355|414:340,1,86.9999973449708,8|2,0:3|0:0,0:0:0:0:
218,295,187321,2,0,P|169:294|132:309,1,86.9999973449708,8|2,1:2|0:0,0:0:0:0:
24,368,187867,6,0,B|-2:238|-2:238|2:197,1,173.999994689942,4|10,0:3|1:2,0:0:0:0:
17,98,188685,1,10,1:2:0:0:
100,42,188958,2,0,P|141:31|183:41,1,86.9999973449708,4|0,0:3|0:0,0:0:0:0:
225,132,189503,2,0,P|266:143|297:173,1,86.9999973449708,10|0,1:2|0:0,0:0:0:0:
288,272,190049,6,0,P|317:303|330:344,1,86.9999973449708,4|0,0:3|0:0,0:0:0:0:
225,132,190594,2,0,P|195:100|182:59,1,86.9999973449708,10|2,1:2|0:0,0:0:0:0:
283,52,191140,1,8,0:3:0:0:
283,52,191412,1,2,0:0:0:0:
336,192,191685,1,10,1:2:0:0:
336,192,191958,1,10,1:2:0:0:
283,332,192231,6,0,P|243:326|121:330,1,159.500004867554,8|10,0:3|1:2,0:0:0:0:
34,347,193049,1,10,1:2:0:0:
18,257,193321,2,0,P|28:218|25:179,1,79.7500024337769,8|2,0:3|0:0,0:0:0:0:
48,89,193867,1,8,1:2:0:0:
129,46,194140,1,2,0:0:0:0:
210,89,194412,6,0,P|233:121|323:203,1,159.500004867554,8|10,0:3|1:2,0:0:0:0:
407,234,195231,1,2,0:0:0:0:
469,300,195503,1,8,0:3:0:0:
332,320,195776,1,2,0:0:0:0:
195,340,196049,2,0,P|155:346|116:339,1,79.7500024337769,8|2,1:2|0:0,0:0:0:0:
40,288,196594,6,0,B|30:252|41:221|41:221|38:213|38:213|49:181|40:146,1,145,8|10,0:3|1:2,0:0:0:0:
28,62,197412,1,10,1:2:0:0:
81,3,197685,2,0,P|117:7|153:7,1,72.5,8|0,0:3|0:0,0:0:0:0:
235,24,198231,2,0,P|265:42|295:64,1,72.5,10|2,1:2|0:0,0:0:0:0:
336,136,198776,2,0,P|341:91|428:44,2,145,8|10|8,0:3|1:2|0:3,0:0:0:0:
325,239,200140,5,2,0:0:0:0:
256,343,200412,1,8,1:2:0:0:
187,239,200685,1,10,1:2:0:0:
256,87,200958,5,4,1:2:0:0:
256,192,201503,12,2,209685,0:0:0:0:
