osu file format v14

[General]
AudioFilename: Because There Is You.mp3
AudioLeadIn: 3690
PreviewTime: 51503
Countdown: 0
SampleSet: Soft
StackLeniency: 0.3
Mode: 0
LetterboxInBreaks: 0
WidescreenStoryboard: 0

[Editor]
Bookmarks: 113685,209685
DistanceSpacing: 1
BeatDivisor: 4
GridSize: 4
TimelineZoom: 0.8

[Metadata]
Title:Bo jestes ty
TitleUnicode:Bo jesteÅ› ty
Artist:Krzysztof Krawczyk
ArtistUnicode:Krzysztof Krawczyk
Creator:Krfawy
Version:Normalny
Source:
Tags:Polish Trubadurzy pop Liuth Raikozen Bathory Witch Cydros WORSTPOLACKEU ReFaller Pappy Papcio cookiezecky WujekGrzyb Wujek Grzyb Reazen fartownik Exile- Venix Asserin CptSqBany
BeatmapID:816498
BeatmapSetID:371675

[Difficulty]
HPDrainRate:2.5
CircleSize:3
OverallDifficulty:4
ApproachRate:4
SliderMultiplier:1.25
SliderTickRate:2

[Events]
//Background and Video events
0,0,"Zakochana Para.jpg",0,0
//Break Periods
2,89685,111503
//Storyboard Layer 0 (Background)
//Storyboard Layer 1 (Fail)
//Storyboard Layer 2 (Pass)
//Storyboard Layer 3 (Foreground)
//Storyboard Sound Samples

[TimingPoints]
231,545.454545454546,4,2,22,75,1,0
52594,-76.9230769230769,4,2,11,75,0,1
87503,-100,4,2,11,75,0,0
113685,-100,4,2,22,75,0,0
148594,-76.9230769230769,4,2,11,75,0,1
183503,-86.9565217391304,4,2,11,65,0,1
187867,-86.9565217391304,4,2,11,60,0,1
190049,-86.9565217391304,4,2,11,55,0,1
192231,-100,4,2,11,50,0,1
194412,-100,4,2,11,45,0,1
196594,-100,4,2,11,40,0,1
198776,-100,4,2,11,35,0,1
199867,-100,4,2,11,30,0,1
200958,-100,4,2,11,25,0,0
202049,-100,4,2,11,5,0,0

[Colours]
Combo1 : 185,234,223
Combo2 : 235,221,177
Combo3 : 189,214,234
SliderBorder : 255,255,255
SliderTrackOverride : 175,175,175

[HitObjects]
26,92,231,6,0,P|83:107|145:91,1,125,4|0,0:1|1:0,0:0:0:0:
192,49,1049,2,0,P|176:106|193:167,1,125,4|2,0:3|0:0,0:0:0:0:
235,214,1867,1,8,1:3:0:0:
337,286,2413,2,0,B|322:273|263:278|291:303|232:307|218:295,1,125,8|0,0:3|1:0,0:0:0:0:
164,262,3231,2,0,B|70:242|70:242|44:256,1,125,8|2,0:3|0:0,0:0:0:0:
5,305,4049,1,4,1:3:0:0:
116,357,4595,6,0,P|177:368|233:342,1,125,4|0,0:3|1:0,0:0:0:0:
272,293,5413,2,0,B|302:277|332:281|332:281|362:285|392:270,1,125,4|2,0:3|0:0,0:0:0:0:
443,232,6231,1,4,1:3:0:0:
459,108,6776,2,0,P|427:50|355:31,1,125,8|0,0:3|1:0,0:0:0:0:
254,65,7867,2,0,B|217:77|217:77|131:64,1,125,8|8,0:3|1:3,0:0:0:0:
70,75,8685,1,2,0:0:0:0:
33,125,8958,6,0,P|30:186|67:235,1,125,4|0,0:3|1:0,0:0:0:0:
124,261,9776,2,0,B|157:281|157:281|169:328|208:347,1,125,4|2,0:3|0:0,0:0:0:0:
268,364,10595,1,8,1:3:0:0:
381,311,11140,2,0,B|396:300|406:242|375:263|385:205|402:193,1,125,4|0,0:3|1:0,0:0:0:0:
454,159,11958,2,0,P|460:98|419:53,1,125,4|2,0:3|0:0,0:0:0:0:
357,42,12776,1,4,1:3:0:0:
235,71,13322,6,0,P|178:86|116:70,1,125,8|0,0:3|1:0,0:0:0:0:
69,28,14140,2,0,P|85:85|68:146,1,125,8|2,0:3|0:0,0:0:0:0:
26,193,14958,1,8,1:3:0:0:
78,306,15504,2,0,B|118:296|118:296|217:302,1,125,8|0,0:3|1:0,0:0:0:0:
264,304,16322,2,0,P|324:304|376:264,1,125,8|2,0:3|0:0,0:0:0:0:
405,211,17140,1,4,1:3:0:0:
426,87,17685,6,0,B|395:73|395:73|304:82,1,125,4|0,0:1|1:0,0:0:0:0:
245,102,18504,2,0,P|182:105|121:93,1,125,4|2,0:3|0:0,0:0:0:0:
67,61,19322,1,8,1:3:0:0:
14,174,19867,2,0,B|5:208|5:208|-16:251|2:296,1,125,4|0,0:3|1:0,0:0:0:0:
44,340,20685,2,0,B|89:358|132:336|132:336|166:328,1,125,4|2,0:3|0:0,0:0:0:0:
225,311,21504,1,4,1:3:0:0:
341,265,22049,6,0,P|356:208|340:146,1,125,8|0,0:3|1:0,0:0:0:0:
298,99,22867,2,0,P|355:115|416:98,1,125,8|2,0:3|0:0,0:0:0:0:
463,56,23685,1,8,1:3:0:0:
501,174,24231,2,0,B|489:260|489:260|467:290,1,125,8|0,0:3|1:0,0:0:0:0:
359,353,25322,2,0,B|321:354|321:354|244:313,1,125,8|4,0:3|1:3,0:0:0:0:
186,287,26140,1,2,0:0:0:0:
130,261,26413,6,0,P|106:204|118:143,1,125,4|0,0:3|1:0,0:0:0:0:
163,100,27231,2,0,P|223:87|280:111,1,125,4|2,0:3|0:0,0:0:0:0:
314,163,28049,1,8,1:3:0:0:
382,267,28595,2,0,B|357:281|357:281|261:293,1,125,4|0,0:3|1:0,0:0:0:0:
200,304,29413,2,0,B|75:319,1,125,4|2,0:3|0:0,0:0:0:0:
13,329,30231,1,4,1:3:0:0:
2,204,30776,6,0,P|15:144|66:112,1,125,8|0,0:3|1:0,0:0:0:0:
129,116,31595,2,0,B|145:124|202:109|169:90|226:74|244:85,1,125,8|2,0:3|0:0,0:0:0:0:
303,104,32413,1,8,1:3:0:0:
391,192,32958,2,0,P|372:250|318:278,1,125,8|0,0:3|1:0,0:0:0:0:
192,278,34049,2,0,P|139:250|120:188,1,125,8|4,0:3|1:3,0:0:0:0:
131,130,34867,1,2,0:0:0:0:
167,79,35140,6,0,B|192:68|192:68|312:68,1,125,4|0,0:3|1:0,0:0:0:0:
343,99,35958,2,0,P|346:162|334:223,1,125,4|2,0:3|0:0,0:0:0:0:
303,277,36776,1,8,1:3:0:0:
195,340,37322,2,0,B|186:322|130:303|146:337|90:318|81:301,1,125,4|0,0:3|1:0,0:0:0:0:
51,246,38140,2,0,P|63:185|108:143,1,125,4|2,0:3|0:0,0:0:0:0:
165,121,38958,1,4,1:3:0:0:
289,116,39504,6,0,B|389:128|389:128|417:140,1,125,8|0,0:3|1:0,0:0:0:0:
447,188,40322,2,0,P|429:253|375:256,1,125,8|2,0:3|0:0,0:0:0:0:
319,242,41140,1,8,1:3:0:0:
224,159,41685,2,0,P|144:151|96:163,1,125,8|0,0:3|1:0,0:0:0:0:
102,286,42776,2,0,P|182:294|230:282,1,125,8|4,0:3|1:3,0:0:0:0:
280,256,43595,1,2,0:0:0:0:
331,219,43867,6,0,P|392:210|454:245,1,125,8|0,0:3|1:0,0:0:0:0:
472,294,44685,2,0,P|435:343|366:362,1,125,8|2,0:3|0:0,0:0:0:0:
319,340,45504,1,8,1:3:0:0:
193,340,46049,2,0,B|166:344|166:344|50:313,1,125,4|0,0:3|1:0,0:0:0:0:
20,283,46867,2,0,P|30:191|61:167,1,125,4|2,0:3|0:0,0:0:0:0:
105,144,47685,1,4,1:3:0:0:
229,136,48231,6,0,B|235:163|220:196|220:196|205:229|212:256,1,125,8|0,0:3|1:0,0:0:0:0:
233,316,49049,2,0,P|268:347|343:342,1,125,8|2,0:3|0:0,0:0:0:0:
390,302,49867,1,8,1:3:0:0:
433,185,50413,2,0,P|438:123|417:64,1,125,8|0,0:3|1:0,0:0:0:0:
300,19,51504,2,0,P|238:14|179:35,1,125,8|8,0:3|1:3,0:0:0:0:
128,71,52322,1,2,0:0:0:0:
89,120,52595,6,0,B|65:150|65:150|61:274,1,162.499992561341,4|10,0:1|1:2,0:0:0:0:
80,353,53413,1,8,0:3:0:0:
158,373,53685,2,0,B|246:353|230:393|318:373,3,162.499992561341,2|8|8|8,0:0|1:2|0:3|1:2,0:0:0:0:
390,336,55595,1,8,1:2:0:0:
412,257,55867,2,0,P|406:224|374:180,1,81.2499962806703,8|2,0:3|0:0,0:0:0:0:
302,160,56413,2,0,P|278:136|261:85,1,81.2499962806703,8|2,1:2|0:0,0:0:0:0:
286,14,56958,5,8,0:3:0:0:
286,14,57504,2,0,P|317:5|370:15,1,81.2499962806703,8|8,1:2|1:2,0:0:0:0:
432,58,58049,2,0,B|474:137|431:132|473:212,3,162.499992561341,8|8|8|8,0:3|1:2|0:3|1:2,0:0:0:0:
489,292,59958,1,10,1:2:0:0:
418,332,60231,2,0,P|378:319|334:316,1,81.2499962806703,8|2,0:3|0:0,0:0:0:0:
260,335,60776,2,0,P|219:331|181:318,1,81.2499962806703,8|8,1:2|1:2,0:0:0:0:
101,302,61322,6,0,P|31:252|91:162,1,162.499992561341,8|8,0:3|1:2,0:0:0:0:
84,116,62140,1,8,1:2:0:0:
164,129,62413,2,0,P|234:179|174:269,3,162.499992561341,8|8|8|8,0:3|1:2|0:3|1:2,0:0:0:0:
181,319,64322,1,8,1:2:0:0:
99,312,64595,2,0,P|67:285|21:271,1,81.2499962806703,8|2,0:3|0:0,0:0:0:0:
18,192,65140,2,0,P|56:177|90:145,1,81.2499962806703,8|2,1:2|0:0,0:0:0:0:
161,183,65685,6,0,P|154:236|222:327,1,162.499992561341,8|8,0:3|1:2,0:0:0:0:
279,371,66504,1,8,1:2:0:0:
352,337,66776,2,0,P|400:315|445:211,3,162.499992561341,8|8|8|8,0:3|1:2|0:3|1:2,0:0:0:0:
435,140,68685,1,8,1:2:0:0:
361,105,68958,2,0,P|328:100|276:115,1,81.2499962806703,8|2,0:3|0:0,0:0:0:0:
221,165,69504,2,0,P|188:171|136:156,1,81.2499962806703,8|8,1:2|1:2,0:0:0:0:
89,98,70049,5,4,1:2:0:0:
89,98,70594,2,0,P|122:98|171:75,1,81.2499962806703,8|8,1:2|1:2,0:0:0:0:
190,1,71140,2,0,P|223:22|219:143,3,162.499992561341,8|8|8|8,0:3|1:2|0:3|1:2,0:0:0:0:
166,80,73049,1,8,1:2:0:0:
149,158,73322,2,0,P|170:193|206:211,1,81.2499962806703,8|2,0:3|0:0,0:0:0:0:
286,220,73867,2,0,P|311:250|317:290,1,81.2499962806703,8|8,1:2|1:2,0:0:0:0:
301,370,74413,6,0,B|237:370|237:370|205:354|205:354|141:354,1,162.499992561341,8|8,0:3|1:2,0:0:0:0:
62,368,75231,1,8,1:2:0:0:
27,294,75504,2,0,B|47:206|7:222|27:134,3,162.499992561341,8|8|8|8,0:3|1:2|0:3|1:2,0:0:0:0:
62,60,77413,1,8,1:2:0:0:
133,20,77685,2,0,P|173:19|211:33,1,81.2499962806703,8|2,0:3|0:0,0:0:0:0:
261,97,78231,1,8,1:2:0:0:
266,177,78504,1,8,1:2:0:0:
237,253,78776,6,0,P|171:295|97:269,1,162.499992561341,8|8,0:3|1:2,0:0:0:0:
40,210,79595,1,8,1:2:0:0:
30,129,79867,2,0,B|109:142|109:142|161:205,3,162.499992561341,8|10|8|10,0:3|1:2|0:3|1:2,0:0:0:0:
179,284,81776,1,10,1:2:0:0:
256,309,82049,2,0,P|295:317|335:313,1,81.2499962806703,8|2,0:3|0:0,0:0:0:0:
410,279,82595,2,0,P|444:257|469:225,1,81.2499962806703,8|8,1:2|1:2,0:0:0:0:
490,146,83140,6,0,B|458:138|458:138|330:154,1,162.499992561341,8|8,0:3|1:2,0:0:0:0:
256,190,83958,1,8,1:2:0:0:
183,154,84231,2,0,P|142:151|81:251,2,162.499992561341,8|8|8,0:3|1:2|0:3,0:0:0:0:
256,190,85595,1,2,0:0:0:0:
329,153,85867,2,0,P|336:193|324:232,1,81.2499962806703,8|8,1:2|1:2,0:0:0:0:
391,279,86412,2,0,P|422:253|461:244,1,81.2499962806703,8|2,0:3|0:0,0:0:0:0:
468,163,86958,2,0,P|430:148|402:119,1,81.2499962806703,10|10,1:2|1:2,0:0:0:0:
337,74,87503,5,4,1:2:0:0:
426,297,113685,6,0,B|395:311|395:311|304:302,1,125,4|0,0:1|1:0,0:0:0:0:
245,282,114504,2,0,P|182:279|121:291,1,125,4|2,0:3|0:0,0:0:0:0:
67,323,115322,1,8,1:3:0:0:
14,210,115867,2,0,B|5:176|5:176|-16:133|2:88,1,125,4|0,0:3|1:0,0:0:0:0:
50,50,116685,2,0,B|65:36|124:41|95:66|154:71|168:60,1,125,4|2,0:3|0:0,0:0:0:0:
229,44,117504,1,4,1:3:0:0:
339,102,118049,6,0,P|354:159|338:221,1,125,8|0,0:3|1:0,0:0:0:0:
296,268,118867,2,0,P|353:252|414:269,1,125,8|2,0:3|0:0,0:0:0:0:
461,311,119685,1,8,1:3:0:0:
510,195,120231,2,0,B|473:116|473:116|475:79,1,125,8|0,0:3|1:0,0:0:0:0:
359,31,121321,2,0,B|334:58|334:58|252:88,1,125,8|4,0:3|1:3,0:0:0:0:
191,105,122140,1,2,0:0:0:0:
139,140,122413,6,0,P|115:197|127:258,1,125,4|0,0:3|1:0,0:0:0:0:
173,298,123231,2,0,P|233:311|290:287,1,125,4|2,0:3|0:0,0:0:0:0:
326,236,124049,1,8,1:3:0:0:
382,117,124595,2,0,B|357:103|357:103|261:91,1,125,4|0,0:3|1:0,0:0:0:0:
200,80,125413,2,0,B|75:65,1,125,4|2,0:3|0:0,0:0:0:0:
13,55,126231,1,4,1:3:0:0:
2,180,126776,6,0,B|27:190|62:181|62:181|97:172|123:184,1,125,8|0,0:3|1:0,0:0:0:0:
171,226,127594,2,0,P|210:250|283:232,1,125,8|2,0:3|0:0,0:0:0:0:
330,192,128412,1,8,1:3:0:0:
370,74,128958,2,0,P|308:67|252:92,1,125,8|0,0:3|1:0,0:0:0:0:
135,137,130049,2,0,P|98:186|92:248,1,125,8|4,0:3|1:3,0:0:0:0:
120,304,130867,1,2,0:0:0:0:
177,329,131140,6,0,B|202:340|202:340|322:340,1,125,4|0,0:3|1:0,0:0:0:0:
353,308,131958,2,0,P|373:251|346:192,1,125,4|2,0:3|0:0,0:0:0:0:
302,152,132776,1,8,1:3:0:0:
223,54,133321,2,0,B|202:54|161:97|199:97|158:139|139:140,1,125,4|0,0:3|1:0,0:0:0:0:
90,179,134140,2,0,P|75:239|98:296,1,125,4|2,0:3|0:0,0:0:0:0:
140,340,134958,1,4,1:3:0:0:
264,354,135504,6,0,B|364:342|364:342|392:330,1,125,8|0,0:3|1:0,0:0:0:0:
429,287,136321,2,0,P|450:228|452:166,1,125,8|2,0:3|0:0,0:0:0:0:
434,106,137140,1,8,1:3:0:0:
309,107,137685,2,0,P|229:115|181:103,1,125,8|0,0:3|1:0,0:0:0:0:
61,95,138776,2,0,P|111:157|154:182,1,125,8|4,0:3|1:3,0:0:0:0:
208,200,139595,1,2,0:0:0:0:
271,209,139867,6,0,P|320:245|339:314,1,125,8|0,0:3|1:0,0:0:0:0:
317,362,140685,2,0,P|256:370|193:335,1,125,8|2,0:3|0:0,0:0:0:0:
157,297,141504,1,8,1:3:0:0:
136,173,142049,2,0,B|158:157|158:157|277:137,1,125,4|0,0:3|1:0,0:0:0:0:
317,151,142867,2,0,P|346:238|328:273,1,125,4|2,0:3|0:0,0:0:0:0:
305,318,143685,1,4,1:3:0:0:
182,292,144231,6,0,B|176:265|191:232|191:232|206:199|199:172,1,125,8|0,0:3|1:0,0:0:0:0:
178,112,145049,2,0,P|143:81|68:86,1,125,8|2,0:3|0:0,0:0:0:0:
21,126,145867,1,8,1:3:0:0:
16,251,146413,2,0,P|42:307|90:347,1,125,8|0,0:3|1:0,0:0:0:0:
214,356,147504,2,0,P|270:329|310:281,1,125,8|8,0:3|1:3,0:0:0:0:
336,225,148322,1,2,0:0:0:0:
358,165,148594,6,0,B|270:145|286:185|198:165,1,162.499992561341,4|8,0:1|1:2,0:0:0:0:
119,141,149412,1,8,0:3:0:0:
55,192,149685,2,0,B|80:250|80:250|83:292|83:292|112:362,3,162.499992561341,2|10|8|10,0:0|1:2|0:3|1:2,0:0:0:0:
179,378,151594,1,10,1:2:0:0:
252,344,151867,2,0,P|284:334|324:298,1,81.2499962806703,8|2,0:3|0:0,0:0:0:0:
335,224,152413,2,0,P|356:197|405:175,1,81.2499962806703,8|2,1:2|0:0,0:0:0:0:
472,207,152958,5,8,0:3:0:0:
472,207,153503,2,0,P|484:238|479:292,1,81.2499962806703,8|10,1:2|1:2,0:0:0:0:
447,358,154049,2,0,P|379:348|292:285,3,162.499992561341,8|10|8|10,0:3|1:2|0:3|1:2,0:0:0:0:
256,229,155958,1,10,1:2:0:0:
337,213,156231,2,0,P|378:215|417:226,1,81.2499962806703,8|2,0:3|0:0,0:0:0:0:
491,192,156776,2,0,P|472:155|462:116,1,81.2499962806703,10|10,1:2|1:2,0:0:0:0:
396,69,157321,6,0,P|357:116|250:136,1,162.499992561341,8|10,0:3|1:2,0:0:0:0:
183,114,158140,1,10,1:2:0:0:
116,160,158412,2,0,P|112:245|220:254,3,162.499992561341,8|8|8|10,0:3|1:2|0:3|1:2,0:0:0:0:
252,286,160321,1,10,1:2:0:0:
324,249,160594,2,0,P|357:227|382:195,1,81.2499962806703,8|2,0:3|0:0,0:0:0:0:
411,119,161140,2,0,P|419:79|414:39,1,81.2499962806703,8|2,1:2|0:0,0:0:0:0:
334,52,161685,6,0,P|273:100|292:174,1,162.499992561341,8|8,0:3|1:2,0:0:0:0:
324,249,162503,1,10,1:2:0:0:
244,259,162776,2,0,P|170:279|160:356,3,162.499992561341,8|8|8|10,0:3|1:2|0:3|1:2,0:0:0:0:
238,378,164685,1,10,1:2:0:0:
297,321,164958,2,0,P|336:313|376:320,1,81.2499962806703,8|2,0:3|0:0,0:0:0:0:
442,275,165503,2,0,P|435:235|444:195,1,81.2499962806703,10|10,1:2|1:2,0:0:0:0:
400,127,166049,5,4,1:2:0:0:
400,127,166594,2,0,P|360:125|324:108,1,81.2499962806703,8|8,1:2|1:2,0:0:0:0:
300,30,167140,2,0,P|267:51|271:172,3,162.499992561341,8|8|8|8,0:3|1:2|0:3|1:2,0:0:0:0:
320,220,169049,1,10,1:2:0:0:
397,196,169321,2,0,P|397:236|380:272,1,81.2499962806703,8|2,0:3|0:0,0:0:0:0:
302,298,169867,2,0,P|266:278|243:245,1,81.2499962806703,10|2,1:2|0:0,0:0:0:0:
263,163,170412,6,0,B|219:268|219:268|179:302,1,162.499992561341,8|10,0:3|1:2,0:0:0:0:
109,337,171231,1,10,1:2:0:0:
27,341,171503,2,0,P|13:304|6:264,1,81.2499962806703,4|0,0:3|0:0,0:0:0:0:
44,191,172049,2,0,P|37:151|22:113,1,81.2499962806703,10|2,1:2|0:0,0:0:0:0:
60,40,172594,2,0,P|109:98|183:75,1,162.499992561341,4|10,0:3|1:2,0:0:0:0:
256,39,173412,1,10,1:2:0:0:
329,75,173685,2,0,P|363:97|392:126,1,81.2499962806703,8|2,0:3|0:0,0:0:0:0:
386,207,174231,2,0,P|405:244|415:283,1,81.2499962806703,10|10,1:2|1:2,0:0:0:0:
369,349,174776,6,0,B|306:339|306:339|265:347|265:347|190:337,1,162.499992561341,8|10,0:3|1:2,0:0:0:0:
128,353,175594,1,10,1:2:0:0:
62,304,175867,2,0,P|53:264|54:223,1,81.2499962806703,8|2,0:3|0:0,0:0:0:0:
28,145,176412,2,0,P|50:110|79:82,1,81.2499962806703,10|2,1:2|0:0,0:0:0:0:
116,8,176958,2,0,B|204:28|188:-12|276:8,1,162.499992561341,8|8,0:3|1:2,0:0:0:0:
338,60,177776,1,10,1:2:0:0:
418,67,178048,2,0,P|402:105|373:132,1,81.2499962806703,8|2,0:3|0:0,0:0:0:0:
317,192,178594,2,0,P|287:219|272:256,1,81.2499962806703,10|2,1:2|0:0,0:0:0:0:
255,335,179140,6,0,P|201:276|127:246,1,162.499992561341,8|10,0:3|1:2,0:0:0:0:
65,192,179958,1,10,1:2:0:0:
127,137,180231,2,0,P|201:107|255:48,2,162.499992561341,8|10|8,0:3|1:2|0:3,0:0:0:0:
65,192,181594,1,2,0:0:0:0:
127,246,181867,2,0,P|167:240|203:222,1,81.2499962806703,10|2,1:2|0:0,0:0:0:0:
282,241,182412,2,0,P|306:208|319:170,1,81.2499962806703,8|2,0:3|0:0,0:0:0:0:
349,94,182958,1,10,1:2:0:0:
427,71,183231,1,10,1:2:0:0:
505,91,183503,6,0,B|510:119|510:119|502:248,1,143.750002741814,4|10,1:2|1:2,0:0:0:0:
504,306,184321,1,8,1:2:0:0:
450,353,184594,2,0,P|386:361|306:361,3,143.750002741814,8|10|8|10,0:3|1:2|0:3|1:2,0:0:0:0:
238,335,186503,1,10,1:2:0:0:
170,309,186776,2,0,P|98:307|26:317,1,143.750002741814,8|10,0:3|1:2,0:0:0:0:
73,180,187867,6,0,P|109:118|137:52,1,143.750002741814,4|10,0:3|1:2,0:0:0:0:
189,2,188685,1,10,1:2:0:0:
256,25,188958,2,0,P|321:84|375:102,1,143.750002741814,4|8,0:3|1:2,0:0:0:0:
486,190,190049,2,0,B|430:179|399:208|343:197,1,143.750002741814,4|10,0:3|1:2,0:0:0:0:
271,192,190867,1,8,1:2:0:0:
198,197,191140,2,0,P|136:198|96:190,1,71.8750013709069,8|2,0:3|0:0,0:0:0:0:
68,153,191685,2,0,P|36:99|23:61,1,71.8750013709069,10|10,1:2|1:2,0:0:0:0:
41,18,192231,5,8,0:3:0:0:
41,18,192776,2,0,B|99:-2|99:-2|158:18,1,125,8|8,1:2|0:3,0:0:0:0:
256,96,193867,1,10,1:2:0:0:
353,18,194412,2,0,B|412:-2|412:-2|471:18,2,125,8|10|4,0:3|1:2|0:3,0:0:0:0:
304,57,195776,1,2,0:0:0:0:
256,95,196049,2,0,P|224:98|193:98,2,62.5,10|2|8,1:2|0:0|0:3,0:0:0:0:
255,95,197140,6,0,P|287:98|318:98,1,62.5,10|10,1:2|1:2,0:0:0:0:
380,90,197685,2,0,B|355:178|355:178|331:202,3,125,8|10|8|10,3:3|1:2|0:3|1:2,0:0:0:0:
279,235,199594,1,2,0:0:0:0:
217,225,199867,2,0,P|159:202|134:143,1,125,8|10,0:3|1:2,0:0:0:0:
136,85,200685,1,10,1:2:0:0:
177,37,200958,5,4,1:2:0:0:
256,192,202049,12,2,209685,0:0:0:0:
