osu file format v14

[General]
AudioFilename: Because There Is You.mp3
AudioLeadIn: 3690
PreviewTime: 51503
Countdown: 0
SampleSet: Soft
StackLeniency: 0.3
Mode: 0
LetterboxInBreaks: 0
WidescreenStoryboard: 1

[Editor]
Bookmarks: 17685,35140,52594,70049,71685,78231,87503,96231,112594,113685,131140,148594,166049,183503,200958,209685
DistanceSpacing: 1.2
BeatDivisor: 4
GridSize: 4
TimelineZoom: 1.8

[Metadata]
Title:Bo jestes ty
TitleUnicode:Bo jesteÅ› ty
Artist:Krzysztof Krawczyk
ArtistUnicode:Krzysztof Krawczyk
Creator:Krfawy
Version:Bardzo Trudny Wieloautorski
Source:
Tags:Polish Trubadurzy pop Liuth Raikozen Bathory Witch Cydros WORSTPOLACKEU ReFaller Pappy Papcio cookiezecky WujekGrzyb Wujek Grzyb Reazen fartownik Exile- Venix Asserin CptSqBany
BeatmapID:1024369
BeatmapSetID:371675

[Difficulty]
HPDrainRate:4.5
CircleSize:3
OverallDifficulty:7.5
ApproachRate:8
SliderMultiplier:1.8
SliderTickRate:2

[Events]
//Background and Video events
0,0,"Zakochana Para.jpg",0,0
//Break Periods
2,97321,111503
//Storyboard Layer 0 (Background)
//Storyboard Layer 1 (Fail)
//Storyboard Layer 2 (Pass)
//Storyboard Layer 3 (Foreground)
Sprite,Foreground,Centre,"Tworzyli/Blady Kamyczek.png",320,240 S,0,231,,0.488 F,0,165912,166185,0,1 M,0,166049,,118,399 F,0,166185,183094,1 F,0,183094,183367,1,0
Sprite,Foreground,Centre,"Tworzyli/Ryz.png",320,240 S,0,231,,0.488 F,0,131003,131276,0,1 M,0,131140,,118,399 F,0,131276,148185,1 F,0,148185,148458,1,0
Sprite,Foreground,Centre,"Tworzyli/Raiko.png",320,240 F,0,94,367,0,1 S,0,231,,0.488 F,0,367,17276,1 F,0,17276,17549,1,0 M,0,131140,,118,399
Sprite,Foreground,Centre,"Tworzyli/fartowniczek.png",320,240 S,0,231,,0.488 M,0,131140,,118,399 F,0,148458,148731,0,1 F,0,148731,165640,1 F,0,165640,165913,1,0
Sprite,Foreground,Centre,"Tworzyli/Ciastek.png",320,240 S,0,231,,0.488 F,0,112458,112731,0,1 F,0,112731,113276,1 F,0,113276,113549,1,0 M,0,131140,,118,399
Sprite,Foreground,Centre,"Tworzyli/Wujcio.png",320,240 S,0,231,,0.488 F,0,113549,113822,0,1 F,0,113822,130731,1 F,0,130731,131004,1,0 M,0,131140,,118,399
Sprite,Foreground,Centre,"Tworzyli/Exile.png",320,240 S,0,231,,0.488 M,0,131140,,118,399 F,0,183367,183640,0,1 F,0,183640,200549,1 F,0,200549,200822,1,0
Sprite,Foreground,Centre,"Tworzyli/Batory.png",320,240 S,0,231,,0.488 F,0,17549,17822,0,1 F,0,17822,34731,1 F,0,34731,35004,1,0 M,0,131140,,118,399
Sprite,Foreground,Centre,"Tworzyli/Cydros.png",320,240 S,0,231,,0.488 F,0,35003,35276,0,1 F,0,35276,52185,1 F,0,52185,52458,1,0 M,0,131140,,118,399
Sprite,Foreground,Centre,"Tworzyli/Wurst.png",320,240 S,0,231,,0.488 M,0,17685,,211,394 F,0,52458,52731,0,1 F,0,52731,69640,1 F,0,69640,69913,1,0
Sprite,Foreground,Centre,"Tworzyli/ReFallerek.png",320,240 S,0,231,,0.488 F,0,69912,70185,0,1 F,0,70185,87094,1 F,0,87094,87367,1,0 M,0,131140,,118,399
Sprite,Foreground,Centre,"Tworzyli/Papciu.png",320,240 S,0,231,,0.488 F,0,87367,87640,0,1 F,0,87640,95958,1 F,0,95958,96231,1,0 M,0,131140,,118,399
//Storyboard Sound Samples

[TimingPoints]
231,545.454545454546,4,2,22,75,1,0
52594,-76.9230769230769,4,2,33,75,0,1
87503,-100,4,2,22,75,0,0
148458,-76.9230769230769,4,2,22,75,0,0
148594,-76.9230769230769,4,2,22,75,0,1
156776,-66.6666666666667,4,2,22,75,0,1
157321,-76.9230769230769,4,2,22,75,0,1
163321,-100,4,2,22,75,0,1
163867,-76.9230769230769,4,2,22,75,0,1
166594,-76.9230769230769,4,2,33,75,0,1
183503,-76.9230769230769,4,2,22,75,0,1
185685,-76.9230769230769,4,2,22,70,0,1
187867,-76.9230769230769,4,2,22,65,0,1
190049,-76.9230769230769,4,2,22,55,0,1
192231,-76.9230769230769,4,2,22,50,0,1
193321,-86.9565217391304,4,2,22,45,0,1
194412,-86.9565217391304,4,2,22,40,0,1
195503,-100,4,2,22,40,0,1
196321,-100,4,2,22,35,0,1
197685,-100,4,2,22,30,0,1
199867,-100,4,2,22,25,0,1
200958,-76.9230769230769,4,2,22,20,0,0
201094,-100,4,2,11,5,0,0

[Colours]
Combo1 : 185,234,223
Combo2 : 235,221,177
Combo3 : 189,214,234
SliderBorder : 255,255,255
SliderTrackOverride : 175,175,175

[HitObjects]
351,15,231,5,4,0:1:0:0:
326,146,504,1,2,0:0:0:0:
228,61,776,1,0,1:3:0:0:
403,93,1049,1,4,0:3:0:0:
326,146,1322,2,0,L|214:156,1,90,0|2,0:0|0:0,0:0:0:0:
95,290,1867,2,0,L|228:276,1,135,8|0,1:3|0:0,0:0:0:0:
254,272,2413,5,8,0:3:0:0:
366,261,2685,1,2,0:0:0:0:
400,354,2958,1,0,1:3:0:0:
288,365,3231,1,8,0:3:0:0:
366,261,3504,2,0,L|369:171,1,90,0|2,0:0|0:0,0:0:0:0:
333,54,4049,2,0,L|328:188,1,135,4|0,1:3|0:0,0:0:0:0:
327,214,4595,5,8,0:3:0:0:
165,243,4867,1,2,0:0:0:0:
207,86,5140,1,0,1:0:0:0:
247,220,5413,2,0,L|39:188,1,180,8|2,0:3|0:0,0:0:0:0:
97,43,6231,2,0,P|151:62|190:113,1,90,8|2,1:3|0:0,0:0:0:0:
258,242,6776,5,8,0:3:0:0:
80,205,7049,1,0,0:0:0:0:
152,86,7322,1,0,1:0:0:0:
176,192,7595,1,2,0:0:0:0:
21,137,7867,2,0,P|13:92|14:47,1,90,8|2,0:3|0:0,0:0:0:0:
173,175,8413,2,0,P|180:219|179:264,1,90,8|2,1:3|0:0,0:0:0:0:
27,161,8958,5,4,0:3:0:0:
74,36,9231,1,2,0:0:0:0:
193,131,9504,1,0,1:0:0:0:
240,6,9776,2,0,L|356:26,2,90,4|0|2,0:3|0:0|0:0,0:0:0:0:
94,112,10595,2,0,L|122:272,1,135,8|0,1:3|0:0,0:0:0:0:
123,270,11140,5,4,0:3:0:0:
313,258,11413,1,2,0:0:0:0:
202,316,11685,1,0,1:0:0:0:
288,166,11958,2,0,P|220:108|132:98,1,180,4|2,0:3|0:0,0:0:0:0:
26,207,12776,2,0,B|45:272|45:272|58:291|58:291|70:333,1,135,4|0,1:3|0:0,0:0:0:0:
80,358,13321,6,0,P|124:353|165:370,1,90,8|2,0:3|0:0,0:0:0:0:
26,207,13867,1,0,1:0:0:0:
188,370,14140,2,0,L|368:355,1,180,8|2,0:3|0:0,0:0:0:0:
448,295,14958,1,8,1:3:0:0:
326,148,15231,1,2,0:0:0:0:
359,269,15504,6,0,L|448:277,1,90,8|0,0:3|0:0,0:0:0:0:
454,146,16049,2,0,L|468:46,1,90,0|2,1:0|0:0,0:0:0:0:
199,127,16595,5,8,0:3:0:0:
235,239,16867,1,2,0:0:0:0:
448,295,17140,1,0,1:0:0:0:
454,146,17413,1,0,0:0:0:0:
375,52,17685,6,0,P|345:87|333:129,1,90,4|0,0:1|0:0,0:0:0:0:
256,277,18231,1,0,1:0:0:0:
125,238,18504,2,0,P|50:190|15:109,1,180,8|0,0:3|0:0,0:0:0:0:
150,105,19322,1,8,1:3:0:0:
125,238,19595,1,2,0:0:0:0:
277,60,19867,6,0,P|273:148|220:219,1,180,4|0,0:3|1:0,0:0:0:0:
168,344,20685,2,0,B|256:324|256:324|344:344,1,180,4|2,0:3|0:0,0:0:0:0:
466,233,21504,1,4,1:3:0:0:
337,192,21776,1,2,0:0:0:0:
175,192,22049,6,0,B|147:216|136:270|136:270|147:325|175:349,1,180,8|0,0:3|1:0,0:0:0:0:
335,349,22867,2,0,B|365:325|376:270|376:270|365:216|337:192,1,180,8|0,0:3|0:0,0:0:0:0:
256,82,23685,1,8,1:3:0:0:
175,192,23958,1,2,0:0:0:0:
256,302,24231,5,8,0:3:0:0:
256,302,24504,1,0,0:0:0:0:
337,192,24776,1,0,1:0:0:0:
337,192,25049,1,2,0:0:0:0:
160,96,25321,2,0,B|140:8,1,90,8|2,0:3|0:0,0:0:0:0:
352,96,25867,2,0,B|372:8,1,90,8|2,1:3|0:0,0:0:0:0:
478,205,26413,6,0,P|412:265|325:279,1,180,4|0,0:3|1:0,0:0:0:0:
186,279,27231,2,0,P|99:265|34:205,1,180,4|0,0:3|0:0,0:0:0:0:
5,71,28049,1,8,1:3:0:0:
123,7,28322,1,2,0:0:0:0:
256,29,28595,6,0,P|307:100|311:188,1,180,4|0,0:3|1:0,0:0:0:0:
201,189,29413,2,0,P|204:101|256:29,1,180,4|2,0:3|0:0,0:0:0:0:
328,143,30231,1,4,1:3:0:0:
256,256,30504,1,2,0:0:0:0:
122,264,30776,6,0,B|82:182|82:182|82:92,1,180,8|0,0:3|1:0,0:0:0:0:
198,23,31595,2,0,P|274:41|349:131,1,180,8|0,0:3|0:0,0:0:0:0:
366,246,32413,1,8,1:3:0:0:
256,325,32685,1,2,0:0:0:0:
146,246,32958,6,0,P|147:201|173:165,1,90,8|0,0:3|0:0,0:0:0:0:
256,58,33504,1,0,1:0:0:0:
256,58,33776,1,0,0:0:0:0:
338,165,34049,6,0,P|364:201|366:246,1,90,8|2,0:3|0:0,0:0:0:0:
256,325,34595,1,0,1:0:0:0:
256,325,34867,1,2,0:0:0:0:
146,246,35140,5,8,0:3:0:0:
248,184,35413,1,0,0:0:0:0:
309,287,35685,1,0,1:0:0:0:
206,348,35958,2,0,P|113:339|21:356,1,180,8|2,0:3|0:0,0:0:0:0:
220,351,36776,2,0,P|263:366|308:367,1,90,8|0,1:3|0:0,0:0:0:0:
185,239,37322,5,4,0:3:0:0:
259,279,37595,1,0,0:0:0:0:
403,311,37867,1,0,1:0:0:0:
307,367,38140,1,4,0:3:0:0:
351,223,38413,1,2,0:0:0:0:
259,279,38685,2,0,P|205:312|184:328,2,90,0|4|2,0:0|1:3|0:0,0:0:0:0:
88,308,39504,6,0,P|60:273|50:229,1,90,8|0,0:3|0:0,0:0:0:0:
108,137,40049,1,0,1:0:0:0:
216,134,40322,1,8,0:3:0:0:
320,186,40595,2,0,L|273:263,1,90,2|0,0:0|0:0,0:0:0:0:
401,218,41140,2,0,L|447:140,1,90,8|2,1:3|0:0,0:0:0:0:
412,30,41685,6,0,P|307:31|233:16,1,180,8|0,0:3|1:2,0:0:0:0:
177,109,42504,1,2,0:0:0:0:
264,171,42776,1,8,0:3:0:0:
369,196,43049,2,0,P|416:187|455:174,2,90,2|4|2,0:0|1:3|0:0,0:0:0:0:
65,196,43867,5,4,0:3:0:0:
207,161,44140,1,2,0:0:0:0:
129,39,44413,1,0,1:0:0:0:
207,161,44685,2,0,P|255:244|343:261,1,180,4|0,0:3|0:2,0:0:0:0:
433,162,45504,1,8,1:3:0:0:
321,152,45776,1,2,0:0:0:0:
196,36,46049,6,0,P|285:35|371:63,1,180,4|0,0:3|1:0,0:0:0:0:
418,160,46867,2,0,P|312:151|232:134,1,180,4|2,0:3|0:2,0:0:0:0:
133,115,47685,1,4,1:3:0:0:
184,277,47958,1,2,0:0:0:0:
245,365,48231,6,0,P|158:374|91:319,1,180,8|0,0:3|1:0,0:0:0:0:
183,277,49049,2,0,P|216:151|127:58,1,270,8|8,0:3|1:3,0:0:0:0:
90,186,50140,1,2,0:0:0:0:
294,118,50413,6,0,P|381:154|397:240,1,180,8|0,0:3|1:0,0:0:0:0:
307,213,51231,1,2,0:0:0:0:
178,68,51504,6,0,P|143:39|102:23,1,90,8|2,0:3|0:0,0:0:0:0:
334,68,52049,2,0,P|368:39|409:23,1,90,0|2,1:0|0:2,0:0:0:0:
256,288,52594,5,4,0:1:0:0:
164,128,53140,6,0,L|148:192,1,58.4999973220826,12|0,1:2|0:0,0:0:0:0:
148,336,53413,2,0,L|164:272,1,58.4999973220826,4|0,0:0|0:0,0:0:0:0:
64,196,53685,6,0,L|80:260,1,58.4999973220826,6|0,0:0|0:0,0:0:0:0:
248,268,53958,2,0,L|232:204,1,58.4999973220826,4|0,0:0|0:0,0:0:0:0:
200,92,54231,6,0,L|258:102,1,58.4999973220826,12|0,1:2|0:0,0:0:0:0:
304,200,54503,2,0,L|247:191,1,58.4999973220826,4|0,0:0|0:0,0:0:0:0:
369,133,54776,6,0,L|426:123,1,58.4999973220826,6|0,0:0|0:0,0:0:0:0:
492,204,55048,2,0,L|434:213,1,58.4999973220826
256,76,55321,5,12,1:2:0:0:
348,228,55594,1,10,1:2:0:0:
228,356,55867,2,0,B|172:328|108:344,1,116.999994644165,4|2,0:3|0:0,0:0:0:0:
8,204,56412,2,0,B|64:232|121:217,1,116.999994644165,12|10,1:2|1:2,0:0:0:0:
280,112,56958,6,0,L|272:248,1,116.999994644165,8|4,0:3|0:0,0:0:0:0:
440,172,57503,1,12,1:2:0:0:
384,340,57776,2,0,B|368:308|373:254|373:254|328:335|236:326,1,233.999989288331,10|4,1:2|0:0,0:0:0:0:
84,284,58594,2,0,B|88:232|88:232|72:160,1,116.999994644165,12|2,1:2|0:0,0:0:0:0:
208,56,59140,5,4,0:3:0:0:
32,44,59412,1,4,0:0:0:0:
180,140,59685,2,0,P|240:140|288:92,1,116.999994644165,12|10,1:2|1:2,0:0:0:0:
448,164,60231,1,8,0:3:0:0:
284,224,60503,1,2,0:0:0:0:
384,80,60776,1,12,1:2:0:0:
440,248,61049,2,0,L|368:272,1,58.4999973220826,10|0,1:2|0:0,0:0:0:0:
424,344,61321,6,0,P|364:316|292:320,1,116.999994644165,4|4,0:1|0:0,0:0:0:0:
144,368,61867,6,0,L|128:304,1,58.4999973220826,12|0,1:2|0:0,0:0:0:0:
128,160,62140,2,0,L|144:224,1,58.4999973220826,10|0,1:2|0:0,0:0:0:0:
44,300,62412,6,0,L|60:236,1,58.4999973220826,6|0,0:0|0:0,0:0:0:0:
228,228,62685,2,0,L|212:292,1,58.4999973220826,4|0,0:0|0:0,0:0:0:0:
52,308,62958,6,0,L|68:244,1,58.4999973220826,12|0,1:2|0:0,0:0:0:0:
236,236,63231,2,0,L|220:300,1,58.4999973220826,4|0,0:0|0:0,0:0:0:0:
112,177,63503,6,0,P|132:91|148:180,1,233.999989288331,6|12,0:0|1:2,0:0:0:0:
140,348,64321,1,10,1:2:0:0:
288,252,64594,1,8,0:3:0:0:
112,260,64867,1,4,0:0:0:0:
268,340,65140,1,12,1:2:0:0:
198,176,65412,1,2,0:0:0:0:
340,288,65685,6,0,L|216:308,1,116.999994644165,8|2,0:3|0:0,0:0:0:0:
404,356,66231,1,12,1:2:0:0:
428,184,66503,2,0,B|420:148|439:98|439:98|375:164|288:132,1,233.999989288331,10|4,1:2|0:0,0:0:0:0:
512,160,67321,2,0,P|516:204|464:264,1,116.999994644165,12|4,1:2|0:0,0:0:0:0:
228,120,67867,5,4,0:3:0:0:
300,280,68140,1,4,0:0:0:0:
180,196,68412,1,12,1:2:0:0:
356,208,68685,1,10,1:2:0:0:
108,252,68958,6,0,L|236:228,2,116.999994644165,8|2|12,0:3|0:0|1:2,0:0:0:0:
228,120,69776,1,10,1:2:0:0:
212,316,70049,6,0,L|336:323,1,116.999994644165,4|0,0:1|0:0,0:0:0:0:
459,162,70594,1,2,1:2:0:0:
368,107,70867,2,0,P|353:159|372:228,2,116.999994644165,4|0|0,0:3|0:0|0:0,0:0:0:0:
416,288,71685,6,0,L|438:358,1,58.4999973220826,2|0,1:2|0:0,0:0:0:0:
288,271,71958,2,0,L|266:201,1,58.4999973220826,2|0,0:0|0:0,0:0:0:0:
144,186,72231,6,0,L|73:207,1,58.4999973220826,2|0,0:0|0:0,0:0:0:0:
109,329,72503,2,0,L|180:307,1,58.4999973220826,2|0,0:0|0:0,0:0:0:0:
296,255,72776,6,0,L|279:200,1,58.4999973220826,2|0,1:2|0:0,0:0:0:0:
127,130,73049,2,0,L|144:186,1,58.4999973220826
292,187,73322,2,0,P|350:168|406:165,1,116.999994644165
262,350,73867,1,2,1:2:0:0:
111,206,74140,1,0,0:0:0:0:
51,305,74412,6,0,P|106:322|163:310,1,116.999994644165,4|0,0:3|0:0,0:0:0:0:
387,213,74958,1,2,1:2:0:0:
244,247,75231,2,0,P|147:191|151:80,1,233.999989288331,8|0,0:3|0:0,0:0:0:0:
249,136,76049,1,2,1:2:0:0:
357,105,76321,1,0,0:0:0:0:
425,190,76594,6,0,P|465:86|391:2,1,233.999989288331,4|2,0:3|1:2,0:0:0:0:
249,136,77412,5,4,0:3:0:0:
357,105,77684,1,0,0:0:0:0:
276,240,77957,5,0,0:0:0:0:
168,271,78231,1,2,1:2:0:0:
249,136,78503,1,0,0:0:0:0:
383,212,78776,6,0,P|440:222|505:221,1,116.999994644165,4|0,0:3|0:0,0:0:0:0:
357,105,79321,1,2,1:2:0:0:
249,136,79594,2,0,P|134:116|13:108,1,233.999989288331
184,233,80412,2,0,P|126:224|67:221,1,116.999994644165,2|0,1:2|0:0,0:0:0:0:
208,336,80958,6,0,P|298:308|351:186,1,233.999989288331,4|2,0:3|1:2,0:0:0:0:
249,136,81776,1,0,0:0:0:0:
184,233,82049,1,0,0:0:0:0:
67,221,82321,1,0,0:0:0:0:
137,126,82594,1,2,1:2:0:0:
249,136,82867,1,4,0:3:0:0:
351,187,83140,6,0,P|408:175|456:123,1,116.999994644165,4|0,0:3|0:0,0:0:0:0:
249,136,83685,1,2,1:2:0:0:
173,218,83958,2,0,P|141:169|144:98,1,116.999994644165
351,187,84503,2,0,L|367:312,2,116.999994644165,0|2|0,0:0|1:2|0:0,0:0:0:0:
188,238,85321,6,0,B|136:264|136:264|63:254,1,116.999994644165,4|0,0:3|0:0,0:0:0:0:
249,136,85867,2,0,B|302:114|302:114|366:122,1,116.999994644165,2|2,1:2|0:0,0:0:0:0:
459,267,86412,2,0,P|478:213|466:147,1,116.999994644165,0|2,0:0|0:0,0:0:0:0:
315,229,86958,5,0,1:0:0:0:
118,161,87231,1,0,1:0:0:0:
184,351,87503,6,0,L|364:344,1,180,4|0,0:1|1:0,0:0:0:0:
460,192,88321,1,4,0:3:0:0:
280,184,88594,2,0,P|235:182|190:176,1,90,2|0,0:0|0:0,0:0:0:0:
16,328,89140,2,0,P|60:322|105:320,1,90,0|0,1:0|0:0,0:0:0:0:
206,371,89685,5,8,0:3:0:0:
256,187,89958,1,2,0:0:0:0:
107,303,90230,1,0,1:0:0:0:
296,296,90503,1,8,0:3:0:0:
140,192,90776,2,0,P|109:158|82:123,1,90,2|0,0:0|0:0,0:0:0:0:
296,296,91321,1,8,1:3:0:0:
140,192,91867,5,8,0:3:0:0:
203,279,92140,1,2,0:0:0:0:
37,333,92412,1,0,1:0:0:0:
36,224,92685,2,0,P|47:138|117:86,1,180,4|2,0:3|0:0,0:0:0:0:
299,240,93503,2,0,P|255:248|212:240,1,90,4|2,1:3|0:0,0:0:0:0:
394,86,94049,6,0,P|464:138|475:224,1,180,4|0,0:3|1:0,0:0:0:0:
349,297,94867,2,0,P|278:245|268:158,1,180,4|2,0:3|0:0,0:0:0:0:
108,76,95685,1,4,1:3:0:0:
115,255,95958,2,0,P|138:256|160:253,1,45,2|0,0:0|0:0,0:0:0:0:
256,188,96231,5,4,1:2:0:0:
80,208,112594,5,8,0:3:0:0:
208,108,112867,1,2,0:0:0:0:
212,292,113140,1,4,1:3:0:0:
368,244,113413,1,2,0:0:0:0:
88,128,113685,6,0,P|177:128|262:156,1,180,4|0,0:1|1:0,0:0:0:0:
420,308,114503,1,8,0:3:0:0:
364,160,114776,1,0,0:0:0:0:
236,248,115049,1,2,0:0:0:0:
476,180,115321,2,0,P|420:212|364:208,1,90,8|2,1:3|0:0,0:0:0:0:
252,152,115867,6,0,P|172:136|140:144,2,90,4|0|0,0:3|0:0|1:0,0:0:0:0:
288,316,116685,2,0,P|228:352|136:280,1,180,4|2,0:3|0:0,0:0:0:0:
172,100,117503,1,4,1:3:0:0:
200,204,117776,1,2,0:0:0:0:
56,52,118049,6,0,L|164:44,1,90,8|0,0:3|0:0,0:0:0:0:
272,156,118594,1,0,1:0:0:0:
324,68,118867,2,0,L|520:48,1,180,8|0,0:3|0:0,0:0:0:0:
420,192,119685,2,0,L|300:180,1,90,8|2,1:3|0:0,0:0:0:0:
476,296,120231,5,8,0:3:0:0:
372,320,120503,1,0,0:0:0:0:
272,276,120776,1,0,1:0:0:0:
168,300,121049,1,2,0:0:0:0:
332,200,121321,2,0,L|456:216,1,90,8|2,0:3|0:0,0:0:0:0:
240,236,121867,1,8,1:3:0:0:
320,88,122140,1,4,0:0:0:0:
320,88,122412,5,8,0:3:0:0:
108,48,122958,1,0,1:0:0:0:
180,108,123231,2,0,P|200:168|196:296,1,180,8|0,0:3|0:0,0:0:0:0:
248,176,124049,2,0,P|292:132|340:116,1,90,8|2,1:3|0:0,0:0:0:0:
288,277,124594,6,0,L|172:285,2,90,4|2|0,0:3|0:0|1:0,0:0:0:0:
396,296,125412,1,4,0:3:0:0:
396,296,125958,1,2,0:0:0:0:
300,344,126231,1,4,1:3:0:0:
304,236,126503,1,2,0:0:0:0:
400,104,126776,6,0,P|392:148|392:232,1,90,8|0,0:3|0:0,0:0:0:0:
432,12,127321,1,0,1:0:0:0:
292,72,127594,2,0,P|201:91|104:100,1,180,8|0,0:3|0:0,0:0:0:0:
288,164,128412,1,8,1:3:0:0:
236,256,128685,1,2,0:0:0:0:
356,248,128958,6,0,P|408:252|452:260,2,90,8|0|0,0:3|0:0|1:0,0:0:0:0:
228,280,129776,1,2,0:0:0:0:
136,152,130049,2,0,P|145:108|140:63,1,90,8|2,0:3|0:0,0:0:0:0:
48,200,130594,5,8,1:3:0:0:
240,156,130867,1,2,0:0:0:0:
141,288,131140,6,0,P|200:328|281:330,1,135,4|0,1:2|0:0,0:0:0:0:
301,326,131685,2,0,P|358:325|405:342,1,90,8|0,1:2|0:0,0:0:0:0:
106,290,132231,1,0,0:0:0:0:
263,152,132504,1,2,0:0:0:0:
301,326,132776,2,0,L|174:308,1,90,8|0,1:2|0:0,0:0:0:0:
81,297,133322,6,0,P|107:232|171:190,1,135,4|0,1:2|0:0,0:0:0:0:
178,193,133867,2,0,L|179:303,2,90,8|0|2,1:2|0:0|0:0,0:0:0:0:
173,30,134685,1,0,0:0:0:0:
178,193,134958,1,8,1:2:0:0:
34,115,135231,1,2,0:0:0:0:
296,72,135503,6,0,P|337:115|338:196,1,135,4|0,1:2|0:0,0:0:0:0:
329,226,136049,2,0,P|323:272|347:335,1,90,8|0,1:2|0:0,0:0:0:0:
429,265,136594,1,2,0:0:0:0:
342,187,136867,1,0,0:0:0:0:
244,325,137140,2,0,L|334:314,1,90,8|2,1:2|0:0,0:0:0:0:
453,287,137686,6,0,P|475:224|432:127,1,135,4|0,1:2|0:0,0:0:0:0:
431,131,138231,2,0,P|421:66|438:27,1,90,8|2,1:2|0:0,0:0:0:0:
308,63,138776,1,2,0:0:0:0:
83,44,139049,1,2,0:0:0:0:
204,63,139322,1,8,1:2:0:0:
428,44,139594,1,2,0:0:0:0:
392,179,139867,6,0,B|392:263|392:263|348:348,1,180,4|8,1:2|1:2,0:0:0:0:
199,346,140686,1,0,0:0:0:0:
120,179,140958,2,0,P|177:155|224:172,1,90,2|0,0:0|0:0,0:0:0:0:
365,273,141503,2,0,P|308:297|261:280,1,90,8|0,1:2|0:0,0:0:0:0:
120,179,142049,6,0,B|204:159|204:159|243:131,1,135,4|0,1:2|0:0,0:0:0:0:
275,105,142594,1,8,1:2:0:0:
386,56,142867,1,0,0:0:0:0:
495,221,143140,2,0,P|455:268|406:276,1,90,2|0,0:0|0:0,0:0:0:0:
235,253,143685,2,0,P|274:205|323:197,1,90,8|0,1:2|0:0,0:0:0:0:
495,221,144231,6,4,B|436:253|430:303|349:333,1,180,4|8,1:2|1:2,0:0:0:0:
342,133,145049,2,0,P|409:190|513:223,1,180,2|0,0:0|0:0,0:0:0:0:
297,241,145867,1,8,1:2:0:0:
314,89,146140,1,2,0:0:0:0:
131,180,146413,6,0,B|205:115|205:115|291:83,1,180,4|8,1:2|1:2,0:0:0:0:
430,136,147231,1,2,0:0:0:0:
297,241,147503,1,0,0:0:0:0:
314,89,147776,1,2,0:0:0:0:
464,320,148049,1,8,1:2:0:0:
227,300,148321,1,0,0:0:0:0:
464,320,148594,6,0,B|504:248|464:168|464:168|376:144,1,233.999989288331,4|10,0:1|1:2,0:0:0:0:
88,64,149412,1,2,0:0:0:0:
88,64,149549,1,0,0:0:0:0:
88,64,149685,2,0,L|96:184,1,116.999994644165,2|2,0:0|0:0,0:0:0:0:
368,176,150231,1,8,1:2:0:0:
368,176,150503,6,0,P|408:184|440:184,1,58.4999973220826,2|0,0:0|0:0,0:0:0:0:
384,80,150776,2,0,P|392:40|392:8,1,58.4999973220826,2|0,0:0|0:0,0:0:0:0:
288,72,151049,2,0,P|248:64|216:64,1,58.4999973220826,2|0,0:0|0:0,0:0:0:0:
280,160,151322,2,0,P|272:200|272:232,1,58.4999973220826,10|0,1:2|0:0,0:0:0:0:
432,336,151594,5,2,0:0:0:0:
432,336,151867,2,0,L|424:216,1,116.999994644165,2|2,0:0|0:0,0:0:0:0:
88,208,152412,2,0,L|80:88,1,116.999994644165,8|2,1:2|0:0,0:0:0:0:
168,32,152821,1,0,0:0:0:0:
168,32,152958,6,0,B|216:64|216:64|280:80|352:56,1,175.499991966248,2|2,0:0|0:0,0:0:0:0:
360,48,153503,1,8,1:2:0:0:
456,208,153776,2,0,L|384:200,1,58.4999973220826,8|2,1:2|0:0,0:0:0:0:
312,224,154049,1,0,0:0:0:0:
168,184,154321,1,2,0:0:0:0:
56,336,154594,6,0,L|176:344,1,116.999994644165,8|2,1:2|0:0,0:0:0:0:
264,360,155003,1,0,0:0:0:0:
264,360,155140,2,0,B|272:296|272:296|304:248|280:176,1,175.499991966248,2|0,0:0|0:0,0:0:0:0:
192,176,155685,6,0,L|208:120,1,58.4999973220826,10|0,1:2|0:0,0:0:0:0:
312,88,155958,2,0,L|368:64,1,58.4999973220826,10|0,1:2|0:0,0:0:0:0:
432,152,156231,6,0,L|496:168,1,58.4999973220826,2|0,0:0|0:0,0:0:0:0:
456,272,156503,2,0,L|488:320,1,58.4999973220826,2|0,0:0|0:0,0:0:0:0:
312,280,156776,6,0,L|240:288,1,67.5000025749208,10|0,1:2|0:0,0:0:0:0:
88,144,157049,2,0,L|160:152,1,67.5000025749208,10|0,1:2|0:0,0:0:0:0:
248,40,157321,6,0,B|280:96|280:96|280:168|224:208,1,175.499991966248,2|0,0:0|0:0,0:0:0:0:
216,208,157867,1,8,1:2:0:0:
48,64,158140,1,8,1:2:0:0:
280,99,158412,2,0,L|272:219,1,116.999994644165,2|0,0:0|0:0,0:0:0:0:
104,352,158958,2,0,L|96:232,1,116.999994644165,8|2,1:2|0:0,0:0:0:0:
56,152,159367,1,0,0:0:0:0:
56,152,159503,6,0,P|104:112|216:128,1,175.499991966248,2|0,0:0|0:0,0:0:0:0:
304,88,160049,2,0,L|296:152,1,58.4999973220826,8|0,1:2|0:0,0:0:0:0:
240,272,160321,2,0,L|232:208,1,58.4999973220826,2|0,0:0|0:0,0:0:0:0:
336,240,160594,6,0,L|400:248,1,58.4999973220826,2|0,0:0|0:0,0:0:0:0:
448,136,160867,2,0,L|384:144,1,58.4999973220826,2|0,0:0|0:0,0:0:0:0:
72,80,161140,1,8,1:2:0:0:
72,80,161412,2,0,L|80:144,1,58.4999973220826,2|0,0:0|0:0,0:0:0:0:
136,256,161685,6,0,P|192:240|248:264,1,116.999994644165,2|2,0:0|0:0,0:0:0:0:
336,336,162094,1,0,0:0:0:0:
336,336,162231,2,0,L|344:272,1,58.4999973220826,10|0,1:2|0:0,0:0:0:0:
464,168,162503,2,0,L|456:232,1,58.4999973220826,10|0,1:2|0:0,0:0:0:0:
312,192,162776,2,0,L|376:200,1,58.4999973220826,2|0,0:0|0:0,0:0:0:0:
488,320,163048,2,0,L|424:312,1,58.4999973220826,2|0,0:0|0:0,0:0:0:0:
312,192,163321,6,0,L|320:144,1,45,10|0,1:2|0:0,0:0:0:0:
480,40,163594,2,0,L|472:88,1,45,2|0,0:0|0:0,0:0:0:0:
280,40,163867,6,0,B|240:80|176:80|176:80|168:152,1,175.499991966248
167,169,164412,1,8,1:2:0:0:
96,336,164685,2,0,L|88:264,1,58.4999973220826,8|0,1:2|0:0,0:0:0:0:
240,352,164958,6,0,L|304:344,1,58.4999973220826,2|0,0:0|0:0,0:0:0:0:
336,232,165231,2,0,L|392:200,1,58.4999973220826,2|0,0:0|0:0,0:0:0:0:
304,96,165503,2,0,L|328:40,1,58.4999973220826,10|0,1:2|0:0,0:0:0:0:
168,0,165776,1,10,1:2:0:0:
168,0,165912,1,0,0:0:0:0:
168,0,166049,6,4,B|120:48|120:48|120:104|168:144,1,175.499991966248,4|0,0:1|0:0,0:2:0:0:
184,160,166594,2,0,P|191:208|181:276,1,116.999994644165,12|10,1:2|1:2,0:0:0:0:
108,351,167140,1,4,0:3:0:0:
108,351,167412,1,2,0:0:0:0:
184,160,167685,2,0,P|217:112|263:76,1,116.999994644165,12|2,1:2|0:0,0:0:0:0:
332,222,168231,6,0,P|278:291|197:322,1,175.499991966248,4|0,0:3|0:0,0:0:0:0:
171,324,168776,1,12,1:2:0:0:
332,222,169049,1,10,1:2:0:0:
171,324,169321,5,8,0:3:0:0:
125,229,169594,1,2,0:0:0:0:
331,117,169867,1,12,1:2:0:0:
332,222,170140,1,2,0:0:0:0:
144,18,170412,6,0,B|171:9|214:13|227:32|241:52|284:55|311:47,1,175.499991966248,8|0,0:3|0:0,0:0:0:0:
337,40,170958,1,12,1:2:0:0:
493,17,171231,1,10,1:2:0:0:
458,250,171503,2,0,P|416:291|361:311,1,116.999994644165,4|2,0:3|0:0,0:0:0:0:
145,270,172049,2,0,P|203:271|256:296,1,116.999994644165,8|4,1:2|0:0,0:0:0:0:
33,301,172594,6,0,P|43:215|101:152,1,175.499991966248,4|0,0:3|0:0,0:0:0:0:
126,143,173140,2,0,P|164:114|205:58,1,116.999994644165,12|10,1:2|1:2,0:0:0:0:
34,44,173685,1,8,0:3:0:0:
206,59,173958,1,2,0:0:0:0:
289,257,174231,1,12,1:2:0:0:
126,143,174503,1,10,1:2:0:0:
306,59,174776,6,0,B|364:84|420:72|420:72|474:119,1,175.499991966248,8|0,0:3|0:0,0:0:0:0:
480,131,175321,1,12,1:2:0:0:
306,59,175594,1,10,1:2:0:0:
390,236,175867,2,0,P|441:264|499:267,1,116.999994644165,4|2,0:3|0:0,0:0:0:0:
203,84,176412,1,12,1:2:0:0:
372,67,176685,1,2,0:0:0:0:
220,253,176958,6,0,P|154:311|69:336,1,175.499991966248,4|0,0:3|0:0,0:0:0:0:
45,337,177503,1,12,1:2:0:0:
220,253,177776,1,10,1:2:0:0:
372,66,178049,2,0,P|429:70|480:98,1,116.999994644165,8|4,0:3|0:0,0:0:0:0:
217,98,178594,1,12,1:2:0:0:
64,56,178867,1,2,0:0:0:0:
86,298,179140,6,0,P|137:326|251:319,1,175.499991966248,8|0,0:3|0:0,0:0:0:0:
271,300,179685,2,0,P|256:243|263:185,1,116.999994644165,12|10,1:2|1:2,0:0:0:0:
163,19,180231,2,4,P|178:76|171:134,1,116.999994644165,4|2,0:3|0:0,0:3:0:0:
120,255,180776,1,12,1:2:0:0:
118,281,180912,1,2,0:0:0:0:
124,306,181049,1,0,0:0:0:0:
388,306,181321,5,8,0:3:0:0:
430,153,181594,1,4,0:0:0:0:
305,64,181867,1,12,1:2:0:0:
165,217,182140,1,2,0:0:0:0:
347,217,182412,5,8,0:3:0:0:
145,3,182685,1,2,0:0:0:0:
61,285,182958,2,0,P|103:324|159:341,1,116.999994644165,12|10,1:2|1:2,0:0:0:0:
452,284,183503,6,0,P|421:199|460:96,1,175.499991966248,4|0,1:0|0:0,0:0:0:0:
468,143,184049,2,0,L|312:141,1,116.999994644165,10|10,1:2|1:2,0:0:0:0:
147,229,184594,1,4,0:3:0:0:
339,300,184867,1,0,0:0:0:0:
264,54,185140,2,0,P|250:132|277:202,1,116.999994644165,10|4,1:2|0:3,0:0:0:0:
89,71,185685,6,0,L|313:49,1,175.499991966248,4|0,0:3|0:0,0:0:0:0:
298,50,186231,1,10,1:2:0:0:
248,199,186503,1,10,1:2:0:0:
174,8,186776,1,4,0:3:0:0:
368,158,187049,1,2,0:0:0:0:
142,133,187321,1,10,1:2:0:0:
420,58,187594,1,4,0:3:0:0:
142,133,187867,2,0,L|155:289,1,116.999994644165,4|2,0:3|0:0,0:0:0:0:
374,338,188412,6,0,L|364:268,3,58.4999973220826,10|0|10|0,1:2|0:0|1:2|0:0,0:0:0:0:
462,248,188958,2,0,L|421:191,3,58.4999973220826,2|0|2|0,0:0|0:0|0:0|0:0,0:0:0:0:
490,120,189503,2,0,L|405:93,3,58.4999973220826,10|0|4|0,1:2|0:0|0:3|0:0,0:0:0:0:
354,40,190049,2,0,P|288:84|183:51,1,175.499991966248,4|0,0:3|0:0,0:0:0:0:
171,42,190594,1,10,1:2:0:0:
294,298,190867,1,10,1:2:0:0:
294,298,191140,6,0,L|429:286,1,116.999994644165,4|2,0:3|0:0,0:0:0:0:
506,184,191685,1,10,1:2:0:0:
220,130,191958,1,10,1:2:0:0:
220,130,192231,2,0,P|224:207|131:275,1,175.499991966248,4|0,0:3|0:0,0:0:0:0:
121,272,192776,1,10,1:2:0:0:
86,135,193049,1,10,1:2:0:0:
280,235,193321,6,0,B|334:251|334:251|397:240,1,103.500001974106,4|2,0:3|0:0,0:0:0:0:
464,150,193867,2,0,B|407:136|407:136|335:149,1,103.500001974106,10|2,1:2|0:0,0:0:0:0:
274,56,194412,2,0,P|193:110|75:56,1,207.000003948212,4|10,0:3|1:2,0:0:0:0:
66,244,195231,1,10,1:2:0:0:
66,244,195503,6,0,L|70:348,2,90,4|2|10,0:3|0:0|1:2,0:0:0:0:
174,245,196321,2,0,P|251:268|364:242,1,180,4|2,0:3|0:0,0:0:0:0:
446,207,197140,1,10,1:2:0:0:
446,207,197412,1,10,1:2:0:0:
368,50,197685,2,0,P|356:114|375:155,1,90,4|0,0:3|0:0,0:0:0:0:
262,176,198231,2,0,P|206:157|164:169,1,90,10|2,1:2|0:0,0:0:0:0:
75,35,198776,6,0,L|256:55,1,180,4|10,0:3|1:2,0:0:0:0:
235,233,199594,1,10,1:2:0:0:
235,233,199867,2,0,L|126:220,2,90,4|2|10,0:3|0:0|1:2,0:0:0:0:
339,203,200685,5,10,1:2:0:0:
372,108,200958,5,4,1:2:0:0:
256,192,201094,12,2,209685,0:0:0:0:
