osu file format v14

[General]
AudioFilename: Because There Is You.mp3
AudioLeadIn: 3690
PreviewTime: 51503
Countdown: 0
SampleSet: Soft
StackLeniency: 0.3
Mode: 0
LetterboxInBreaks: 0
WidescreenStoryboard: 0

[Editor]
Bookmarks: 71685,78231,113685,166049,178594,200958,209685
DistanceSpacing: 1
BeatDivisor: 2
GridSize: 4
TimelineZoom: 0.4999999

[Metadata]
Title:Bo jestes ty
TitleUnicode:Bo jesteÅ› ty
Artist:Krzysztof Krawczyk
ArtistUnicode:Krzysztof Krawczyk
Creator:Krfawy
Version:Banalny
Source:
Tags:Polish Trubadurzy pop Liuth Raikozen Bathory Witch Cydros WORSTPOLACKEU ReFaller Pappy Papcio cookiezecky WujekGrzyb Wujek Grzyb Reazen fartownik Exile- Venix Asserin CptSqBany
BeatmapID:814198
BeatmapSetID:371675

[Difficulty]
HPDrainRate:0.5
CircleSize:3
OverallDifficulty:1
ApproachRate:1
SliderMultiplier:1
SliderTickRate:1

[Events]
//Background and Video events
0,0,"Zakochana Para.jpg",0,0
//Break Periods
2,89685,112005
//Storyboard Layer 0 (Background)
//Storyboard Layer 1 (Fail)
//Storyboard Layer 2 (Pass)
//Storyboard Layer 3 (Foreground)
//Storyboard Sound Samples

[TimingPoints]
231,545.454545454546,4,2,11,75,1,0
776,-100,4,2,1,65,0,0
1049,-100,4,2,11,75,0,0
2958,-100,4,2,1,65,0,0
3231,-100,4,2,11,75,0,0
5140,-100,4,2,1,65,0,0
5412,-100,4,2,11,75,0,0
7321,-100,4,2,1,65,0,0
7867,-100,4,2,11,75,0,0
9503,-100,4,2,1,65,0,0
9776,-100,4,2,11,75,0,0
11685,-100,4,2,1,65,0,0
11958,-100,4,2,11,75,0,0
13867,-100,4,2,1,65,0,0
14412,-100,4,2,11,75,0,0
16049,-100,4,2,1,65,0,0
16594,-100,4,2,11,75,0,0
18231,-100,4,2,1,65,0,0
18503,-100,4,2,11,75,0,0
20412,-100,4,2,1,65,0,0
20685,-100,4,2,11,75,0,0
22594,-100,4,2,1,65,0,0
22867,-100,4,2,11,75,0,0
24776,-100,4,2,1,65,0,0
25049,-100,4,2,11,75,0,0
26958,-100,4,2,1,65,0,0
27503,-100,4,2,11,75,0,0
29140,-100,4,2,1,65,0,0
29685,-100,4,2,11,75,0,0
31321,-100,4,2,1,65,0,0
31594,-100,4,2,11,75,0,0
33503,-100,4,2,1,65,0,0
33776,-100,4,2,11,75,0,0
35685,-100,4,2,1,65,0,0
35958,-100,4,2,11,75,0,0
37867,-100,4,2,1,65,0,0
38140,-100,4,2,11,75,0,0
40049,-100,4,2,1,65,0,0
40321,-100,4,2,11,75,0,0
42231,-100,4,2,1,65,0,0
42503,-100,4,2,11,75,0,0
44412,-100,4,2,1,65,0,0
44685,-100,4,2,11,75,0,0
46594,-100,4,2,1,65,0,0
46867,-100,4,2,11,75,0,0
48776,-100,4,2,1,65,0,0
49049,-100,4,2,11,75,0,0
50958,-100,4,2,1,65,0,0
51231,-100,4,2,11,75,0,0
52594,-100,4,2,11,75,0,1
53140,-100,4,2,1,65,0,1
53412,-100,4,2,11,75,0,1
54231,-100,4,2,1,65,0,1
54503,-100,4,2,11,75,0,1
55321,-100,4,2,1,65,0,1
55594,-100,4,2,11,75,0,1
57503,-100,4,2,1,65,0,1
57776,-100,4,2,11,75,0,1
58594,-100,4,2,1,65,0,1
58867,-100,4,2,11,75,0,1
59685,-100,4,2,1,65,0,1
59958,-100,4,2,11,75,0,1
61867,-100,4,2,1,65,0,1
62140,-100,4,2,11,75,0,1
62958,-100,4,2,1,65,0,1
63231,-100,4,2,11,75,0,1
64049,-100,4,2,1,65,0,1
64321,-100,4,2,11,75,0,1
66231,-100,4,2,1,65,0,1
66503,-100,4,2,11,75,0,1
67321,-100,4,2,1,65,0,1
67594,-100,4,2,11,75,0,1
68412,-100,4,2,1,65,0,1
68685,-100,4,2,11,75,0,1
70594,-100,4,2,1,65,0,1
70867,-100,4,2,11,75,0,1
71685,-100,4,2,1,65,0,1
71958,-100,4,2,11,75,0,1
72776,-100,4,2,1,65,0,1
73049,-100,4,2,11,75,0,1
74958,-100,4,2,1,65,0,1
75231,-100,4,2,11,75,0,1
76049,-100,4,2,1,65,0,1
76321,-100,4,2,11,75,0,1
77140,-100,4,2,1,65,0,1
77412,-100,4,2,11,75,0,1
79321,-100,4,2,1,65,0,1
79594,-100,4,2,11,75,0,1
80412,-100,4,2,1,65,0,1
80685,-100,4,2,11,75,0,1
81503,-100,4,2,1,65,0,1
81776,-100,4,2,11,75,0,1
87503,-100,4,2,11,75,0,0
114231,-100,4,2,1,65,0,0
114503,-100,4,2,11,75,0,0
116412,-100,4,2,1,65,0,0
116685,-100,4,2,11,75,0,0
118594,-100,4,2,1,65,0,0
118867,-100,4,2,11,75,0,0
120776,-100,4,2,1,65,0,0
121049,-100,4,2,11,75,0,0
122958,-100,4,2,1,65,0,0
123231,-100,4,2,11,75,0,0
125140,-100,4,2,1,65,0,0
125412,-100,4,2,11,75,0,0
127321,-100,4,2,1,65,0,0
127594,-100,4,2,11,75,0,0
129503,-100,4,2,1,65,0,0
129776,-100,4,2,11,75,0,0
131685,-100,4,2,1,65,0,0
131958,-100,4,2,11,75,0,0
133867,-100,4,2,1,65,0,0
134140,-100,4,2,11,75,0,0
136049,-100,4,2,1,65,0,0
136321,-100,4,2,11,75,0,0
138231,-100,4,2,1,65,0,0
138503,-100,4,2,11,75,0,0
140412,-100,4,2,1,65,0,0
140685,-100,4,2,11,75,0,0
142594,-100,4,2,1,65,0,0
142867,-100,4,2,11,75,0,0
144776,-100,4,2,1,65,0,0
145049,-100,4,2,11,75,0,0
146958,-100,4,2,1,65,0,0
147231,-100,4,2,11,75,0,0
148594,-100,4,2,11,75,0,1
149140,-100,4,2,1,65,0,1
149412,-100,4,2,11,75,0,1
150231,-100,4,2,1,65,0,1
150503,-100,4,2,11,75,0,1
151321,-100,4,2,1,65,0,1
151594,-100,4,2,11,75,0,1
152958,-100,4,2,1,65,0,1
153776,-100,4,2,11,75,0,1
155140,-100,4,2,1,65,0,1
155958,-100,4,2,11,75,0,1
157867,-100,4,2,1,65,0,1
158140,-100,4,2,11,75,0,1
158958,-100,4,2,1,65,0,1
159231,-100,4,2,11,75,0,1
160049,-100,4,2,1,65,0,1
160321,-100,4,2,11,75,0,1
162231,-100,4,2,1,65,0,1
162503,-100,4,2,11,75,0,1
163321,-100,4,2,1,65,0,1
163594,-100,4,2,11,75,0,1
164412,-100,4,2,1,65,0,1
164685,-100,4,2,11,75,0,1
166049,-100,4,2,11,75,0,1
166594,-100,4,2,1,65,0,1
166867,-100,4,2,11,75,0,1
167685,-100,4,2,1,65,0,1
167958,-100,4,2,11,75,0,1
168776,-100,4,2,1,65,0,1
169049,-100,4,2,11,75,0,1
170412,-100,4,2,1,65,0,1
171231,-100,4,2,11,75,0,1
172594,-100,4,2,1,65,0,1
173412,-100,4,2,11,75,0,1
175321,-100,4,2,1,65,0,1
175594,-100,4,2,11,75,0,1
176412,-100,4,2,1,65,0,1
176685,-100,4,2,11,75,0,1
177503,-100,4,2,1,65,0,1
177776,-100,4,2,11,75,0,1
178594,-100,4,2,11,65,0,1
179685,-100,4,2,1,65,0,1
179958,-100,4,2,11,75,0,1
180776,-100,4,2,1,65,0,1
181049,-100,4,2,11,75,0,1
181867,-100,4,2,1,65,0,1
182140,-100,4,2,11,75,0,1
182958,-100,4,2,1,75,0,1
184049,-100,4,2,1,65,0,1
184594,-100,4,2,11,75,0,1
185140,-100,4,2,1,65,0,1
185685,-100,4,2,11,75,0,1
186231,-100,4,2,1,65,0,1
186776,-100,4,2,11,75,0,1
188412,-100,4,2,1,65,0,1
188958,-100,4,2,11,70,0,1
190049,-100,4,2,11,65,0,1
190594,-100,4,2,1,60,0,1
191140,-100,4,2,11,55,0,1
191685,-100,4,2,11,50,0,1
192776,-100,4,2,1,45,0,1
193321,-100,4,2,11,45,0,1
193867,-100,4,2,1,45,0,1
194412,-100,4,2,11,40,0,1
194958,-100,4,2,1,40,0,1
195503,-100,4,2,11,35,0,1
196049,-100,4,2,1,35,0,1
196594,-100,4,2,11,30,0,1
197140,-100,4,2,1,30,0,1
197685,-100,4,2,11,30,0,1
198231,-100,4,2,1,25,0,1
198776,-100,4,2,11,25,0,1
199321,-100,4,2,1,25,0,1
199867,-100,4,2,11,25,0,1
200412,-100,4,2,1,25,0,1
200958,-100,4,2,11,25,0,0
202049,-100,4,2,11,5,0,0

[Colours]
Combo1 : 185,234,223
Combo2 : 235,221,177
Combo3 : 189,214,234
SliderBorder : 255,255,255
SliderTrackOverride : 175,175,175

[HitObjects]
344,188,231,6,0,L|332:28,2,150,4|0|8,0:1|0:0|1:3,0:0:0:0:
316,284,2413,2,0,B|256:308|256:308|160:308,2,150,0|0|4,0:0|0:0|1:3,0:0:0:0:
398,227,4595,2,0,B|432:209|449:175|449:175|467:140|501:123,2,150,2|0|8,0:0|0:0|1:3,0:0:0:0:
335,149,6776,2,0,B|298:132|298:132|321:93|302:46|255:30|209:46|190:93|213:132|213:132|176:149,1,300,0|4,0:0|1:3,0:0:0:0:
103,218,8958,6,0,B|91:330|91:330|102:365,2,150,2|0|8,0:0|0:0|1:3,0:0:0:0:
111,118,11140,2,0,B|91:60|39:32|39:32|7:18,2,150,0|0|4,0:0|0:0|1:3,0:0:0:0:
172,197,13321,2,0,B|230:238|315:211|315:211|319:300|378:341,1,300,2|8,0:0|1:3,0:0:0:0:
458,281,15503,2,0,B|522:243|507:150|507:150|434:91|369:128,1,300,0|4,0:0|1:3,0:0:0:0:
278,172,17685,6,0,P|203:165|133:190,2,150,4|0|8,0:1|0:0|1:3,0:0:0:0:
358,229,19867,2,0,P|405:286|472:317,2,150,0|0|4,0:1|0:0|1:3,0:0:0:0:
370,129,22049,2,0,B|383:100|403:80|403:80|442:57|442:57|442:12,2,150,2|0|8,0:0|0:0|1:3,0:0:0:0:
317,213,24231,2,0,B|332:239|332:239|328:285|282:289|256:326|256:326|229:289|184:285|180:239|180:239|195:213,1,300,0|4,0:0|1:3,0:0:0:0:
256,131,26412,6,0,P|276:89|161:128,1,300,2|8,0:0|1:3,0:0:0:0:
193,211,28594,2,0,B|174:309|174:309|134:351,2,150,0|0|4,0:0|0:0|1:3,0:0:0:0:
256,131,30776,2,0,B|375:139|396:256|396:256|443:263|443:263|478:292,1,300,2|8,0:0|1:3,0:0:0:0:
402,358,32958,2,0,B|328:385|255:357|255:357|182:330|109:357,1,300,0|4,0:0|1:3,0:0:0:0:
23,306,35140,6,0,B|3:270|20:232|20:232|29:213|25:196|25:196|39:181|43:164,2,150,2|0|8,0:0|0:0|1:3,0:0:0:0:
109,357,37321,2,0,B|148:345|163:306|163:306|170:286|185:277|185:277|186:257|195:242,2,150,0|0|4,0:0|0:0|1:3,0:0:0:0:
23,306,39503,2,0,B|26:189|139:157|139:157|111:115|135:67,1,300,2|8,0:0|1:3,0:0:0:0:
225,109,41685,2,0,B|328:60|328:60|376:164|273:212,1,300,0|4,0:0|1:3,0:0:0:0:
179,249,43867,6,0,B|88:273|121:224|31:249,2,150,2|0|8,0:0|0:0|1:3,0:0:0:0:
233,165,46049,2,0,B|256:74|282:127|306:37,2,150,0|0|4,0:0|0:0|1:3,0:0:0:0:
279,254,48231,2,0,B|345:319|286:315|352:381,2,150,2|0|8,0:0|0:0|1:3,0:0:0:0:
196,197,50412,2,0,B|182:156|199:125|199:125|162:112|141:78|141:78|121:112|83:125|83:125|100:156|87:197,1,300,0|4,0:0|1:3,0:0:0:0:
56,291,52594,6,0,B|84:353|153:377|153:377|168:345|168:345|252:300|230:190|230:190|262:172|262:172|339:204|413:173|413:173|340:229|345:304,1,700,4|8,0:1|1:3,0:0:0:0:
437,345,56958,2,0,B|496:292|484:201|484:201|378:138|338:23|338:23|284:25|284:25|250:70|250:70|143:50|89:153,1,700,2|8,0:0|1:3,0:0:0:0:
67,250,61321,2,0,B|87:256|119:295|119:295|160:343|223:298|223:298|244:246|348:201|223:62|98:201|202:246|223:298|223:298|285:343|327:295|327:295|358:256|379:250,1,700,2|8,0:0|1:3,0:0:0:0:
473,289,65685,2,0,B|433:233|438:173|438:173|414:136|376:108|376:108|404:34|333:-7|333:-7|255:20|271:98|271:98|224:107|224:107|180:90|180:90|126:129|66:105,1,700,2|8,0:0|1:3,0:0:0:0:
11,23,70049,6,0,B|27:38|53:38|53:38|-3:86|22:153|48:175|48:175|70:204|78:249|67:278|42:297|11:292|-13:274|-16:244|-6:215|24:203|54:208|89:238|104:270|104:270|109:304|155:359|224:335|224:335|212:357|217:379,1,700,4|8,0:1|1:3,0:0:0:0:
317,380,74412,2,0,B|399:384|440:305|440:305|518:264|512:181|512:181|482:120|482:120|414:150|414:150|435:186|421:195|421:195|411:220|376:235|376:235|310:194|325:117,1,700,2|8,0:0|1:3,0:0:0:0:
324,15,78776,2,0,B|278:14|237:60|237:60|145:20|145:20|125:64|125:64|81:92|81:92|77:152|57:188|57:188|77:224|81:284|81:284|181:284|181:284|181:185,1,700,2|8,0:0|1:3,0:0:0:0:
256,192,83140,12,4,87503,1:2:0:0:
140,188,113685,6,0,B|42:153|42:153|19:112,2,150,4|0|8,0:1|0:0|1:3,0:0:0:0:
240,197,115867,2,0,P|256:124|240:51,2,150,0|0|4,0:0|0:0|1:3,0:0:0:0:
183,279,118049,2,0,P|110:262|37:279,2,150,2|0|8,0:0|0:0|1:3,0:0:0:0:
273,321,120231,2,0,P|346:338|419:321,2,150,0|0|4,0:0|0:0|1:3,0:0:0:0:
264,221,122412,6,0,P|281:148|264:75,2,150,2|0|8,0:0|0:0|1:3,0:0:0:0:
183,279,124594,2,0,B|134:289|87:243|87:243|57:212,2,150,0|0|4,0:0|0:0|1:3,0:0:0:0:
264,220,126776,2,0,B|278:193|276:148|276:148|313:81,2,150,2|0|8,0:0|0:0|1:3,0:0:0:0:
183,279,128958,2,0,B|142:287|109:274|109:274|76:262|36:270,2,150,0|0|4,0:0|0:0|1:3,0:0:0:0:
280,255,131140,6,0,B|375:221|375:221|508:72,1,300,2|8,0:0|1:3,0:0:0:0:
436,4,133321,2,0,B|396:7|367:30|371:39|341:63|302:66,2,150,0|0|4,0:0|0:0|1:3,0:0:0:0:
509,74,135503,2,0,B|517:144|447:205|447:205|336:305,1,300,2|8,0:0|1:3,0:0:0:0:
240,333,137685,2,0,B|161:325|138:237|138:237|48:246|14:174,1,300,0|4,0:0|1:3,0:0:0:0:
20,74,139867,6,0,B|59:70|88:47|84:38|114:14|153:11,2,150,2|0|8,0:0|0:0|1:3,0:0:0:0:
14,174,142049,2,0,B|18:281|18:281|53:338,2,150,0|0|4,0:0|0:0|1:3,0:0:0:0:
65,90,144231,2,0,B|131:108|131:108|179:143|179:143|254:106|342:159,1,300,2|8,0:0|1:3,0:0:0:0:
353,258,146412,2,0,P|223:315|118:220,1,300,0|4,0:0|1:3,0:0:0:0:
162,129,148594,6,0,B|253:199|338:136|345:58|345:58|395:27|444:47|444:47|475:89|455:145|455:145|383:171|341:269|433:341,1,700,4|8,0:1|1:3,0:0:0:0:
337,366,152958,2,0,B|304:353|276:361|276:361|239:391|194:383|194:383|179:339|204:298|204:298|208:270|192:240,1,300,2|4,0:0|1:3,0:0:0:0:
142,151,155140,2,0,B|73:202|102:285|102:285|47:305|47:305|6:280|6:280|-4:241,1,300,2|8,0:0|1:3,0:0:0:0:
1,141,157321,2,0,B|45:120|45:120|27:105|5:23|51:-28|138:-60|208:-1|233:64|185:132|163:141|163:141|167:210|231:191|261:227|261:227|290:163|367:166,1,700,2|8,0:0|1:3,0:0:0:0:
353,268,161685,2,0,B|403:234|452:277|449:365|362:398|321:355|321:355|281:334|234:335|234:335|201:294|201:294|66:330|-36:230|1:141,1,700,2|8,0:0|1:3,0:0:0:0:
68,66,166049,6,0,B|122:56|170:79|170:79|194:83|206:81|206:81|340:89|353:191|277:276|175:222|153:122|276:69|276:69|288:67|309:55|309:55|347:16|401:7,1,700,4|8,0:1|1:3,0:0:0:0:
488,57,170412,2,0,B|430:154|430:154|392:180|392:180|375:254|307:286,1,300,2|4,0:0|1:3,0:0:0:0:
204,286,172594,2,0,B|116:255|96:168|96:168|23:167|23:167|-9:215,1,300,2|8,0:0|1:3,0:0:0:0:
43,303,174776,2,0,B|81:308|112:333|112:333|200:399|263:346|263:346|326:370|402:339|445:275|440:197|395:126|345:106|260:115|237:145,1,700,2|8,0:0|1:3,0:0:0:0:
298,238,179140,2,0,B|275:268|190:277|140:257|95:186|90:108|133:44|209:13|272:37|272:37|335:-16|423:50|423:50|454:75|492:80,1,700,2|4,0:0|1:3,0:0:0:0:
492,179,183503,6,0,B|470:152|430:145|400:150|400:150|370:154|330:148|308:121|308:121|275:111|250:114|224:125|207:157|202:184|210:210|234:238|262:250|298:237|298:237|262:250|242:329|157:306|116:295|116:295|93:303|68:296,1,700,4|8,1:2|1:3,0:0:0:0:
5,220,187867,2,0,P|31:125|235:56,1,300,2|0,0:0|1:0,0:0:0:0:
266,123,190049,2,0,P|239:217|35:286,1,300,2|4,0:0|1:3,0:0:0:0:
5,220,192231,2,0,B|189:268|189:268|229:270|229:270|303:290|303:290|378:310|437:302|490:246|472:171|425:133|425:133|313:125|284:20,2,800,2|2|4,0:0|0:0|1:2,0:0:0:0:
256,192,202049,12,2,209685,0:0:0:0:
