osu file format v9

[General]
AudioFilename: Keluang man (krisya original song).mp3
AudioLeadIn: 1000
PreviewTime: 1984
Countdown: 0
SampleSet: Normal
StackLeniency: 0.7
Mode: 1
LetterboxInBreaks: 0

[Editor]
DistanceSpacing: 1
BeatDivisor: 4
GridSize: 4

[Metadata]
Title:Keluang Man
Artist:Krisya
Creator:HeatKai
Version:Taiko Muzukashii
Source:Keluang Man
Tags:intro bahasa Malaysia Melayu Kite

[Difficulty]
HPDrainRate:5
CircleSize:5
OverallDifficulty:5
ApproachRate:5
SliderMultiplier:1.4
SliderTickRate:1

[Events]
//Background and Video events
0,0,"Keluang man 32211142.JPG"
//Break Periods
//Storyboard Layer 0 (Background)
//Storyboard Layer 1 (Fail)
//Storyboard Layer 2 (Pass)
//Storyboard Layer 3 (Foreground)
//Storyboard Sound Samples
//Background Colour Transformations
3,100,163,162,255

[TimingPoints]
1985,374.882849109653,4,1,0,60,1,0
55968,-100,4,1,0,60,0,1
63090,-100,4,1,0,60,0,0

[Colours]
Combo1 : 220,105,188
Combo2 : 128,64,0
Combo3 : 48,43,55

[HitObjects]
256,192,1984,1,4
256,192,2359,1,0
256,192,2547,1,8
256,192,2734,1,0
256,192,3109,1,4
256,192,3484,1,4
256,192,3671,1,8
256,192,3859,1,8
256,192,4046,1,0
256,192,4421,1,0
256,192,4796,1,8
256,192,4984,1,4
256,192,5358,1,8
256,192,5733,1,0
256,192,6108,1,8
256,192,6296,1,8
256,192,6483,1,0
256,192,6858,1,8
256,192,7233,1,0
256,192,7608,1,8
256,192,7795,1,8
256,192,7983,1,0
256,192,8358,1,8
256,192,8732,1,0
256,192,9107,1,8
256,192,9295,1,8
256,192,9482,1,0
256,192,9857,1,8
256,192,10232,1,0
256,192,10607,1,8
256,192,10794,1,8
256,192,10982,1,0
256,192,11357,1,8
256,192,11731,1,0
256,192,12106,1,8
256,192,12294,1,8
256,192,12481,1,0
256,192,12856,1,8
256,192,13044,1,0
256,192,13231,1,8
256,192,13606,1,8
256,192,13793,1,8
256,192,13981,1,0
256,192,14356,1,8
256,192,14543,1,0
256,192,14731,1,8
256,192,15105,1,8
256,192,15293,1,0
256,192,15668,1,8
256,192,15855,1,0
256,192,16230,1,0
256,192,16605,1,8
256,192,16980,1,8
256,192,17355,1,0
256,192,17542,1,0
256,192,17730,1,8
256,192,18104,1,8
256,192,18292,1,0
256,192,18667,1,0
256,192,18854,1,8
256,192,19042,1,0
256,192,19229,1,0
256,192,19417,1,0
256,192,19604,1,8
256,192,19791,1,0
252,176,19979,1,4
256,192,20354,1,0
256,192,20729,1,8
256,192,21104,1,8
256,192,21291,1,8
256,192,21478,1,0
256,192,21666,1,0
256,192,21853,1,8
256,192,22041,1,0
256,192,22228,1,0
256,192,22416,1,0
256,192,22603,1,8
256,192,22790,1,0
256,192,22978,1,0
256,192,23353,1,8
256,192,23540,1,0
256,192,23915,1,0
256,192,24103,1,8
256,192,24477,1,0
256,192,24852,1,8
256,192,25040,1,0
256,192,25415,1,0
256,192,25602,1,8
256,192,25977,1,0
256,192,26352,1,8
256,192,26539,1,8
256,192,26727,1,0
256,192,26914,1,0
256,192,27102,1,8
256,192,27289,1,0
256,192,27477,1,0
256,192,27851,1,8
256,192,28039,1,8
256,192,28414,1,0
256,192,28601,1,8
256,192,28976,1,0
256,192,29351,1,8
256,192,29538,1,8
256,192,29726,1,0
256,192,29913,1,0
256,192,30101,1,8
256,192,30476,1,4
256,192,30850,1,12
256,192,31225,1,4
256,192,31600,1,12
256,192,31975,1,4
256,192,32350,1,8
256,192,32537,1,8
256,192,32912,1,0
256,192,33100,1,8
256,192,33287,1,0
256,192,33662,1,0
256,192,33850,1,8
256,192,34037,1,8
256,192,34412,1,0
256,192,34599,1,8
256,192,34787,1,0
256,192,34974,1,8
256,192,35349,1,8
256,192,35537,1,8
256,192,35911,1,0
256,192,36099,1,8
256,192,36474,1,0
256,192,36849,1,8
256,192,37036,1,0
256,192,37223,1,0
256,192,37411,1,0
256,192,37598,1,8
256,192,37786,1,0
256,192,37973,1,8
256,192,38348,1,8
256,192,38536,1,8
256,192,38910,1,0
256,192,39098,1,8
256,192,39473,1,0
256,192,39848,1,8
256,192,40035,1,8
256,192,40410,1,0
256,192,40597,1,8
256,192,40785,1,0
256,192,40972,1,8
256,192,41347,1,8
256,192,41535,1,8
256,192,41910,1,0
256,192,42097,1,8
256,192,42472,1,4
256,192,42847,1,12
256,192,43222,1,4
256,192,43596,1,12
256,192,43971,1,4
256,192,44346,1,8
256,192,44721,1,0
256,192,45096,1,8
256,192,45283,1,8
256,192,45471,1,0
256,192,45846,1,8
256,192,46221,1,0
256,192,46408,1,0
256,192,46596,1,8
256,192,46783,1,8
256,192,46970,1,0
256,192,47345,1,8
256,192,47720,1,0
256,192,48095,1,8
256,192,48283,1,8
256,192,48470,1,0
256,192,48845,1,8
256,192,49032,1,8
256,192,49407,1,0
256,192,49595,1,8
256,192,49970,1,8
256,192,50344,1,8
256,192,50719,1,8
256,192,50907,1,8
256,192,51094,1,0
256,192,51469,1,8
256,192,51656,1,0
256,192,52031,1,0
256,192,52219,1,8
256,192,52594,1,8
256,192,52969,1,8
256,192,53156,1,8
256,192,53343,1,0
256,192,53531,1,8
256,192,53906,1,8
256,192,54093,1,8
256,192,54281,1,0
256,192,54468,1,8
256,192,54656,1,0
256,192,55030,1,0
256,192,55405,1,0
256,192,55780,1,0
256,192,55968,1,4
256,192,56155,1,8
256,192,56343,1,8
256,192,56530,1,4
256,192,56905,1,0
256,192,57092,1,8
256,192,57467,1,4
256,192,57655,1,8
256,192,57842,1,8
256,192,58029,1,4
256,192,58404,1,8
256,192,58592,1,8
256,192,58967,1,4
256,192,59155,1,8
256,192,59342,1,8
256,192,59529,1,4
256,192,59904,1,0
256,192,60091,1,8
256,192,60279,1,8
256,192,60466,1,0
256,192,60654,1,0
256,192,60841,1,8
256,192,61029,1,0
256,192,61403,1,0
256,192,61591,1,8
256,192,61966,12,4,63465
