osu file format v9

[General]
AudioFilename: Dearest (Remix).mp3
AudioLeadIn: 0
PreviewTime: 69159
Countdown: 0
SampleSet: Soft
StackLeniency: 0.6
Mode: 1
LetterboxInBreaks: 1

[Editor]
DistanceSpacing: 0.8
BeatDivisor: 4
GridSize: 8

[Metadata]
Title:Dearest (Remix)
Artist:Kristine Sa + DJ Jinnai
Creator:spboxer3
Version:Taiko
Source:Inuyasha
Tags:ayumi hamasaki

[Difficulty]
HPDrainRate:6
CircleSize:4
OverallDifficulty:5
ApproachRate:7
SliderMultiplier:1.4
SliderTickRate:2

[Events]
//Background and Video events
0,0,"dearest-bg.jpg"
//Break Periods
//Storyboard Layer 0 (Background)
//Storyboard Layer 1 (Fail)
//Storyboard Layer 2 (Pass)
//Storyboard Layer 3 (Foreground)
//Storyboard Sound Samples
//Background Colour Transformations
3,100,163,162,255

[TimingPoints]
10005,352.112676056338,4,2,0,100,1,0
80428,-100,4,2,0,100,0,1
102963,-100,4,2,0,100,0,0

[Colours]
Combo1 : 0,128,255
Combo2 : 255,128,128

[HitObjects]
256,192,10709,1,0
256,192,10886,1,0
256,192,11062,1,0
256,192,11238,1,0
256,192,11414,5,8
256,192,11766,5,0
256,192,12118,5,8
256,192,12294,5,0
256,192,12470,5,8
256,192,12646,5,0
256,192,12822,5,8
256,192,12998,1,8
256,192,13174,5,0
256,192,13350,1,0
256,192,13526,5,8
256,192,13702,1,8
256,192,13879,5,0
256,192,14055,5,8
256,192,14231,1,8
256,192,14583,5,0
256,192,14935,5,8
256,192,15111,1,8
256,192,15287,5,0
256,192,15639,5,8
256,192,15991,5,0
256,192,16343,5,8
256,192,16519,1,8
256,192,16695,5,0
256,192,17048,5,8
256,192,17400,5,0
256,192,17752,5,8
256,192,17928,5,0
256,192,18104,5,8
256,192,18280,5,0
256,192,18456,5,8
256,192,18632,1,8
256,192,18808,5,0
256,192,18984,1,0
256,192,19160,5,8
256,192,19336,1,8
256,192,19512,5,0
256,192,19688,5,8
256,192,19864,1,8
256,192,20217,5,0
256,192,20569,5,8
256,192,20745,1,8
256,192,20921,5,0
256,192,21273,5,8
256,192,21625,1,8
256,192,21977,5,0
256,192,22065,1,0
256,192,22153,1,0
256,192,22241,1,0
256,192,22329,5,8
256,192,22505,1,8
256,192,22681,5,0
256,192,22857,5,8
256,192,23033,5,0
256,192,23121,1,0
256,192,23209,5,8
256,192,23386,5,0
256,192,23562,5,8
256,192,23738,5,0
256,192,23914,5,8
256,192,24090,5,0
256,192,24178,1,0
256,192,24266,5,8
256,192,24442,5,0
256,192,24618,5,8
256,192,24794,5,0
256,192,25146,1,4
256,192,25498,1,0
256,192,25674,5,8
256,192,25850,5,0
256,192,25938,1,0
256,192,26026,5,8
256,192,26202,5,0
256,192,26379,5,8
256,192,26555,5,0
256,192,26643,1,0
256,192,26731,5,8
256,192,26907,5,0
256,192,27083,5,8
256,192,27259,5,0
256,192,27347,1,0
256,192,27435,5,8
256,192,27611,5,0
256,192,27787,5,8
256,192,27963,1,8
256,192,28315,5,0
256,192,28491,5,8
256,192,28667,5,0
256,192,28755,1,0
256,192,28843,5,8
256,192,29019,5,0
256,192,29195,5,8
256,192,29371,5,0
256,192,29548,1,0
256,192,29724,5,8
256,192,30076,5,0
256,192,30252,1,0
256,192,30428,5,8
256,192,30780,5,4
256,192,31132,5,8
256,192,31484,5,0
256,192,31836,5,8
256,192,32012,5,0
256,192,32188,1,0
256,192,32364,5,8
256,192,32540,5,0
256,192,32893,5,8
256,192,33245,5,0
256,192,33333,1,0
256,192,33421,1,0
256,192,33509,1,0
256,192,33597,5,8
256,192,33773,1,8
256,192,33949,1,6
256,192,34125,5,0
256,192,34301,5,8
256,192,34389,5,0
256,192,34477,1,0
256,192,34653,1,0
256,192,34829,5,8
256,192,35005,5,0
256,192,35181,5,8
256,192,35357,1,8
256,192,35445,5,0
256,192,35533,1,0
256,192,35709,1,0
256,192,35886,5,8
256,192,36062,5,0
256,192,36414,1,8
256,192,36766,1,0
256,192,36942,5,8
256,192,37118,5,0
256,192,37206,5,8
256,192,37294,1,8
256,192,37470,5,0
256,192,37646,5,8
256,192,37822,5,0
256,192,37910,5,8
256,192,37998,1,8
256,192,38174,5,0
256,192,38350,5,8
256,192,38526,5,0
256,192,38614,5,8
256,192,38702,1,8
256,192,38879,5,0
256,192,39055,5,8
256,192,39231,1,8
256,192,39583,1,8
256,192,39759,5,0
256,192,39935,5,8
256,192,40023,5,0
256,192,40111,1,0
256,192,40287,1,0
256,192,40463,5,8
256,192,40639,5,0
256,192,40815,5,8
256,192,40991,1,8
256,192,41343,1,8
256,192,41519,5,0
256,192,41695,5,8
256,192,42048,1,8
256,192,42400,5,0
256,192,42752,1,0
256,192,43104,5,8
256,192,43280,5,0
256,192,43456,1,0
256,192,43632,5,8
256,192,43808,5,0
256,192,44160,1,8
256,192,44512,5,8
256,192,44600,5,0
256,192,44688,1,0
256,192,44776,1,0
256,192,44864,5,8
256,192,44952,5,0
256,192,45040,5,8
256,192,45217,12,0,46273
256,192,46625,5,0
256,192,46977,1,0
256,192,47329,1,0
256,192,47505,1,0
256,192,47681,5,8
256,192,47857,5,0
256,192,48033,1,0
256,192,48386,1,0
256,192,48738,1,0
256,192,48914,5,8
256,192,49090,5,0
256,192,49266,1,0
256,192,49618,1,0
256,192,49794,5,8
256,192,50146,5,0
256,192,50498,1,0
256,192,50674,5,8
256,192,51026,5,0
256,192,51202,5,8
256,192,51555,5,0
256,192,51643,1,0
256,192,51731,1,0
256,192,51907,5,8
256,192,52259,5,0
256,192,52435,1,0
256,192,52611,5,8
256,192,52787,5,0
256,192,52963,1,0
256,192,53315,1,0
256,192,53491,5,8
256,192,53843,1,8
256,192,54019,5,0
256,192,54371,1,0
256,192,54724,5,8
256,192,54900,5,0
256,192,55252,1,0
256,192,55428,5,8
256,192,55780,5,0
256,192,55956,1,0
256,192,56132,5,8
256,192,56308,1,8
256,192,56660,5,0
256,192,56836,5,8
256,192,57188,1,8
256,192,57364,5,0
256,192,57540,5,8
256,192,57717,5,0
256,192,57893,1,4
256,192,58245,1,0
256,192,58421,1,0
256,192,58597,5,8
256,192,58949,1,8
256,192,59125,5,0
256,192,59477,5,8
256,192,59653,5,0
256,192,59829,1,0
256,192,60005,5,8
256,192,60357,5,0
256,192,60533,5,8
256,192,60886,5,0
256,192,61062,5,8
256,192,61238,5,0
256,192,61414,1,0
256,192,61590,5,8
256,192,61766,5,0
256,192,61942,5,8
256,192,62470,1,8
256,192,62822,5,0
256,192,62910,1,0
256,192,62998,1,0
256,192,63174,5,8
256,192,63526,5,0
256,192,63702,5,8
256,192,63879,5,0
256,192,64055,1,0
256,192,64231,5,8
256,192,64407,5,0
256,192,64583,1,0
256,192,64759,5,8
256,192,65111,5,0
256,192,65287,5,8
256,192,65639,1,8
256,192,65991,1,8
256,192,66343,1,8
256,192,66695,1,8
256,192,66871,5,0
256,192,67224,1,0
256,192,67400,5,8
256,192,67752,5,0
256,192,67928,5,8
256,192,68104,5,0
256,192,68280,5,8
256,192,68456,5,0
256,192,68544,1,0
256,192,68632,5,8
256,192,68720,1,0
256,192,68808,5,0
256,192,68896,1,0
256,192,68984,5,8
256,192,69160,5,4
256,192,69512,5,8
256,192,69688,5,0
256,192,69776,1,0
256,192,69864,5,8
256,192,70040,5,0
256,192,70217,5,8
256,192,70393,5,0
256,192,70481,1,0
256,192,70569,5,8
256,192,70745,5,0
256,192,70921,5,8
256,192,71097,5,0
256,192,71273,5,8
256,192,71361,5,0
256,192,71449,1,0
256,192,71625,5,8
256,192,71801,5,0
256,192,71977,5,8
256,192,72065,5,0
256,192,72153,1,0
256,192,72329,5,8
256,192,72505,5,0
256,192,72593,1,0
256,192,72681,5,8
256,192,72857,5,0
256,192,73033,5,8
256,192,73209,5,0
256,192,73386,5,8
256,192,73562,5,0
256,192,73738,5,8
256,192,73914,5,0
256,192,74090,5,8
256,192,74178,5,0
256,192,74266,1,0
256,192,74354,1,0
256,192,74442,5,8
256,192,74794,5,0
256,192,74970,5,8
256,192,75146,5,0
256,192,75322,5,8
256,192,75498,1,8
256,192,75586,5,0
256,192,75674,5,8
256,192,75850,5,0
256,192,75938,5,8
256,192,76026,5,0
256,192,76202,1,0
256,192,76555,1,0
256,192,76731,5,8
256,192,76907,5,0
256,192,77083,1,0
256,192,77259,5,8
256,192,77435,5,0
256,192,77611,5,8
256,192,77699,5,0
256,192,77787,1,0
256,192,77963,5,8
256,192,78051,5,0
256,192,78139,1,0
256,192,78315,5,8
256,192,78403,5,0
256,192,78491,1,0
256,192,78667,5,8
256,192,78755,5,0
256,192,78843,1,0
256,192,79019,5,8
256,192,79195,1,8
256,192,79371,1,8
256,192,79548,1,8
256,192,79724,1,8
256,192,79812,1,8
256,192,79900,5,0
256,192,79988,1,0
256,192,80076,5,8
256,192,80164,5,0
256,192,80252,5,8
256,192,80428,5,4
256,192,80780,1,0
256,192,80956,1,0
256,192,81132,5,8
256,192,81308,5,0
256,192,81396,1,0
256,192,81484,5,8
256,192,81660,5,0
256,192,81836,5,8
256,192,82012,5,0
256,192,82188,5,8
256,192,82276,5,0
256,192,82364,1,0
256,192,82540,5,8
256,192,82717,5,0
256,192,82805,1,0
256,192,82893,5,8
256,192,83069,5,0
256,192,83245,5,8
256,192,83421,5,0
256,192,83597,5,8
256,192,83773,5,0
256,192,83949,5,8
256,192,84037,5,0
256,192,84125,1,0
256,192,84301,5,8
256,192,84477,5,0
256,192,84653,5,8
256,192,84741,5,0
256,192,84829,1,0
256,192,85005,5,8
256,192,85093,5,0
256,192,85181,1,0
256,192,85357,5,8
256,192,85533,5,0
256,192,85709,5,8
256,192,85798,5,0
256,192,85886,1,0
256,192,85974,1,0
256,192,86062,5,8
256,192,86238,5,0
256,192,86414,5,8
256,192,86590,5,0
256,192,86766,5,8
256,192,86854,5,0
256,192,86942,1,0
256,192,87118,5,8
256,192,87294,5,0
256,192,87470,5,8
256,192,87558,5,0
256,192,87646,1,0
256,192,87822,5,8
256,192,87998,5,0
256,192,88174,5,8
256,192,88526,1,8
256,192,88879,1,8
256,192,88967,5,0
256,192,89055,1,0
256,192,89231,5,8
256,192,89407,5,0
256,192,89583,5,8
256,192,89671,5,0
256,192,89759,1,0
256,192,89935,5,8
256,192,90287,1,8
256,192,90375,5,0
256,192,90463,1,0
256,192,90639,5,8
256,192,90727,5,0
256,192,90815,1,0
256,192,90991,5,8
256,192,91167,1,8
256,192,91343,1,2
256,192,91431,1,0
256,192,91519,1,2
256,192,91607,1,8
256,192,91695,1,8
256,192,91871,5,0
256,192,92048,1,0
256,192,92136,1,0
256,192,92224,5,8
256,192,92400,5,0
256,192,92752,5,8
256,192,93104,5,0
256,192,93280,5,8
256,192,93456,5,0
256,192,93544,1,0
256,192,93632,5,8
256,192,93808,5,0
256,192,94160,5,8
256,192,94512,5,0
256,192,94600,1,0
256,192,94688,5,8
256,192,94864,5,0
256,192,95217,1,0
256,192,95305,1,0
256,192,95393,5,8
256,192,95569,5,0
256,192,95921,1,0
256,192,96009,1,0
256,192,96097,5,8
256,192,96185,1,8
256,192,96273,1,8
256,192,96449,1,8
256,192,96625,1,8
256,192,96713,1,8
256,192,96801,1,8
256,192,96977,1,8
256,192,97065,1,8
256,192,97153,1,0
256,192,97241,5,0
256,192,97329,5,8
256,192,97505,1,8
256,192,97681,5,0
256,192,97857,5,8
256,192,98033,5,0
256,192,98209,5,8
256,192,98298,5,0
256,192,98386,1,0
256,192,98562,5,8
256,192,98738,5,0
256,192,98914,5,8
256,192,99002,5,0
256,192,99090,1,0
256,192,99266,5,8
256,192,99442,5,0
256,192,99618,5,8
256,192,99706,5,0
256,192,99794,1,0
256,192,99970,1,0
256,192,100146,5,8
256,192,100322,5,0
256,192,100498,1,0
256,192,100586,1,0
256,192,100674,5,8
256,192,100850,1,8
256,192,101202,5,0
256,192,101555,5,2
256,192,101907,1,2
256,192,102259,1,8
256,192,102347,5,0
256,192,102435,1,0
256,192,102523,1,0
256,192,102611,5,8
256,192,102699,5,0
256,192,102787,5,8
256,192,102875,1,8
256,192,102963,5,0
