osu file format v9

[General]
AudioFilename: Dearest (Remix).mp3
AudioLeadIn: 0
PreviewTime: 69159
Countdown: 0
SampleSet: Soft
StackLeniency: 0.7
Mode: 0
LetterboxInBreaks: 1

[Editor]
DistanceSpacing: 0.8
BeatDivisor: 4
GridSize: 8

[Metadata]
Title:Dearest (Remix)
Artist:Kristine Sa + DJ Jinnai
Creator:spboxer3
Version:Normal
Source:Inuyasha
Tags:ayumi hamasaki

[Difficulty]
HPDrainRate:3
CircleSize:4
OverallDifficulty:3
ApproachRate:4
SliderMultiplier:1
SliderTickRate:1

[Events]
//Background and Video events
0,0,"dearest-bg.jpg"
//Break Periods
//Storyboard Layer 0 (Background)
//Storyboard Layer 1 (Fail)
//Storyboard Layer 2 (Pass)
//Storyboard Layer 3 (Foreground)
//Storyboard Sound Samples
//Background Colour Transformations
3,100,163,162,255

[TimingPoints]
10005,352.112676056338,4,2,1,50,1,0
22681,-100,4,2,1,70,0,0
47329,-100,4,2,1,50,0,0
57893,-100,4,2,1,70,0,0
80428,-100,4,2,1,70,0,1
102963,-100,4,2,1,70,0,0

[Colours]
Combo1 : 255,128,128
Combo2 : 255,128,64
Combo3 : 0,128,255
Combo4 : 255,128,192

[HitObjects]
448,72,10709,2,0,B|400:88|376:136|376:136|344:88|280:64,1,200,0|8
136,88,12117,2,0,B|112:160|112:160|144:248|240:192,1,200,0|8
328,312,13526,6,0,B|380:339|440:304,1,100
376,248,14230,2,0,B|376:136,2,100,0|0|8
216,248,15638,6,0,B|104:248,2,100,0|0|8
272,192,16695,2,0,B|320:176|320:176|384:200,1,100,2|8
216,136,17751,6,0,B|216:32,2,100,0|0|8
216,216,18807,2,0,B|168:232|168:232|112:216,2,100,0|8|0
288,176,19864,6,0,B|288:56|424:56,1,200,8|2
456,208,21272,6,0,B|487:263|447:327,1,100,8|2
376,304,21976,2,0,B|304:304,2,50,8|2|2
344,232,22681,6,0,B|240:184|104:248,1,200,4|2
96,168,23737,2,0,B|16:80,1,100,8|0
192,80,24793,6,0,B|240:80|240:80|304:56|352:88|368:136,1,200,2|0
408,288,26202,6,0,B|288:288,1,100,0|2
232,256,26906,2,0,B|176:280|176:280|136:256|72:272|64:336,1,200,0|2
112,176,28314,6,0,B|144:96|144:96|200:72|248:136,1,200,4|2
304,184,29371,2,0,B|392:264,1,100,8|2
224,280,30427,6,0,B|216:232|216:232|184:184|216:128|216:128|232:64,1,200,2|0
368,160,31835,2,0,B|472:208,2,100,0|2|2
227,88,33244,2,0,B|128:40,1,100,0|8
104,112,33948,6,0,B|104:192|104:192|208:248,1,200,4|2
280,280,35004,2,8,B|320:240|312:216|304:176|304:176|240:176|224:88,1,200,0|0
304,80,36061,2,0,B|392:24,1,100,2|8
424,96,36765,6,0,B|454:146|454:146|464:208|416:240|352:200,1,200,0|2
208,168,38174,2,0,B|158:135|110:167|119:229|119:229|150:279,1,200,0|2
296,224,39582,6,0,B|392:192|392:192|400:200|400:200|488:168,1,200,4|2
432,112,40638,2,0,B|488:128|504:192|496:256|392:264,1,200
352,280,41695,2,0,B|304:296|304:296|240:272,1,100,2|0
192,240,42399,6,0,B|144:240|120:208|152:176|136:120|48:120,1,200,0|2
40,200,43455,2,0,B|16:304,1,100
176,320,44512,2,0,B|72:352,1,100
256,192,45216,12,4,46624
216,160,47328,6,0,B|200:112|200:112|160:72|56:141|104:192,1,200,0|2
240,216,48737,2,0,B|272:312,1,100
336,272,49441,1,2
464,184,50145,2,0,B|417:172|417:172|376:120|344:112|272:136,1,200,0|0
160,248,51554,2,0,B|56:248,1,100,0|0
96,320,52258,6,0,B|112:352|112:352|208:376|256:272,1,200,0|2
248,208,53314,2,0,B|207:119|111:143|111:143|95:175,1,200,0|2
64,248,54371,2,0,B|8:360,2,100,2|0|0
128,104,55779,2,0,B|144:64|144:64|152:72|152:72|168:24,2,100,2|0|0
272,176,57188,2,0,B|374:225,1,100,0|8
384,144,57892,6,0,B|280:96|280:96|272:72|272:72|208:40,1,200,4|2
176,112,58948,2,0,B|120:208,1,100
40,200,59652,1,0
80,272,60004,2,0,B|137:291|137:291|159:279|159:279|267:319,1,200,0|2
416,256,61413,2,0,B|328:208|328:208|264:192|232:240,1,200,2|0
88,280,62821,2,0,B|148:300|200:256,1,100,8|0
256,224,63526,6,0,B|245:109|145:47,1,200,0|2
80,72,64582,2,0,B|32:176|32:176|32:176|48:240|112:224,1,200
176,216,65638,2,0,B|232:240|224:312,1,100,2|0
304,280,66343,2,0,B|384:248|392:160,2,150
256,192,67751,12,0,69159
256,152,69864,5,0
336,296,70568,2,0,B|240:296|240:296|176:272|208:312|128:288,1,200,0|2
79,239,71624,6,0,B|56:192|85:128,1,100
135,85,72328,2,0,B|249:85,1,100
312,88,73033,2,0,B|384:176|296:296,1,200,0|2
248,224,74089,2,0,B|176:224,2,50,0|2|2
208,152,74793,6,0,B|96:176|56:288,1,200,4|2
117,331,75850,2,0,B|232:320|280:176,1,200,0|2
322,155,76906,2,0,B|368:136|432:160,1,100,0|2
376,224,77610,6,0,B|376:336,1,100,0|2
296,328,78314,2,0,B|174:327,1,100,0|2
192,248,79019,2,0,B|191:148,1,100,0|2
136,88,79723,2,2,B|80:64,2,50,0|2|8
216,72,80427,6,0,B|320:48|432:80,1,200,4|2
464,136,81483,2,0,B|362:165|402:285|282:301,1,250,0|2
216,200,82892,1,8
168,264,83244,2,0,B|136:200|136:200|96:184|96:184|72:136,2,150
200,336,84652,2,0,B|296:280,1,100,2|8
352,328,85357,2,0,B|448:272,1,100,2|8
376,232,86061,6,0,B|376:176|376:176|410:138|393:97|360:72|320:96,1,200,4|2
240,88,87117,1,0
176,136,87469,2,0,B|144:184|89:199|89:199|48:176,2,150
240,88,88878,6,0,B|271:40|325:25|325:25|362:45,2,150
280,152,90286,2,0,B|328:184|384:144,1,100,0|2
440,104,90990,2,0,B|488:72,2,50,0|0|8
373,150,91695,6,0,B|416:184|416:240|416:240|344:304,1,200,0|2
280,248,92751,1,0
232,184,93103,2,0,B|197:144|197:144|144:104|192:112|128:64,2,150
160,216,94512,6,0,B|194:255|194:255|248:296|200:288|264:336,2,150
232,184,95920,2,0,B|336:144,1,100
400,120,96624,2,0,B|456:144|448:208,1,100,0|8
376,232,97328,6,0,B|312:288|256:272|256:272|208:224,1,200,0|2
256,160,98385,2,0,B|208:112|144:144|128:192|128:192|128:240,1,200,0|2
128,280,99265,2,0,B|128:336|128:336|82:343|32:304,1,150
72,232,100145,2,0,B|96:192|96:192|160:168|208:192,2,150
128,280,101554,2,0,B|184:304|232:272,1,100,8|8
280,216,102258,1,8
304,296,102610,1,8
223,278,102962,5,12
