osu file format v13

[General]
AudioFilename: Slut Off.mp3
AudioLeadIn: 2000
PreviewTime: 16284
Countdown: 0
SampleSet: Soft
StackLeniency: 0.7
Mode: 0
LetterboxInBreaks: 0
WidescreenStoryboard: 0

[Editor]
DistanceSpacing: 0.9
BeatDivisor: 2
GridSize: 4
TimelineZoom: 1.5

[Metadata]
Title:Slut Off
TitleUnicode:Slut Off
Artist:Krfawy
ArtistUnicode:Krfawy
Creator:Krfawy
Version:Normal
Source:
Tags:synth pop dance edm Pinksane Treats
BeatmapID:447039
BeatmapSetID:185690

[Difficulty]
HPDrainRate:4.1
CircleSize:3.5
OverallDifficulty:4.1
ApproachRate:5
SliderMultiplier:1.4
SliderTickRate:2

[Events]
//Background and Video events
0,0,"muny.jpg",0,0
//Break Periods
//Storyboard Layer 0 (Background)
//Storyboard Layer 1 (Fail)
//Storyboard Layer 2 (Pass)
//Storyboard Layer 3 (Foreground)
//Storyboard Sound Samples

[TimingPoints]
13,508.474576271186,4,2,1,43,1,0
16284,-100,4,2,1,55,0,1
32555,-100,4,2,1,43,0,0
47301,-100,4,2,1,25,0,0
47809,-100,4,2,1,15,0,0
48318,-100,4,2,1,5,0,0

[Colours]
Combo1 : 190,20,20
Combo2 : 249,170,172
Combo3 : 213,193,249
Combo4 : 224,146,231
Combo5 : 204,49,131
SliderBorder : 250,220,230
SliderTrackOverride : 95,82,103

[HitObjects]
55,44,13,6,0,B|123:68|96:107|164:128,1,140,4|8,0:1|0:1,0:0:0:0:
208,144,775,2,0,B|244:120|296:136|296:136|328:128|356:108,1,140,2|0,0:0|0:0,0:0:0:0:
388,127,1538,1,8,0:1:0:0:
368,251,2047,2,0,P|372:319|316:363,1,140,2|8,0:0|0:1,0:0:0:0:
272,355,2809,2,0,B|244:344|233:344|233:344|204:346|204:346|180:331|180:331|169:328|137:326,1,140,2|0,0:0|0:0,0:0:0:0:
88,332,3572,1,8,0:1:0:0:
32,218,4081,6,0,B|35:193|30:173|30:173|38:149|38:149|50:117|46:77,1,140,2|8,0:0|0:1,0:0:0:0:
80,46,4843,2,0,B|132:42|146:64|161:89|216:82,1,140,2|0,0:0|0:0,0:0:0:0:
260,90,5606,1,8,0:1:0:0:
355,171,6114,2,0,P|308:195|287:280,1,140,2|8,0:0|0:1,0:0:0:0:
266,320,6877,2,0,P|201:331|133:300,1,140,2|0,0:0|0:0,0:0:0:0:
99,263,7640,1,8,0:1:0:0:
214,212,8148,6,0,B|222:180|222:180|211:158|211:158|218:140|218:140|206:109|206:109|226:80,1,140,4|8,0:1|0:1,0:0:0:0:
250,44,8911,2,0,P|294:24|331:101,1,140,2|0,0:0|0:0,0:0:0:0:
329,137,9674,1,8,0:1:0:0:
273,250,10182,2,0,B|340:253|340:253|405:222,1,140,2|8,0:0|0:1,0:0:0:0:
437,182,10945,2,0,P|450:131|405:62,1,140,2|0,0:0|0:0,0:0:0:0:
357,46,11708,1,8,0:1:0:0:
307,161,12216,38,0,P|312:240|381:269,1,140,2|8,0:0|0:1,0:0:0:0:
406,274,12979,2,0,P|471:250|498:184,1,140,2|0,0:0|0:0,0:0:0:0:
492,140,13742,1,8,0:1:0:0:
424,33,14250,2,0,B|355:50|355:50|300:130,1,140,2|8,0:0|0:1,0:0:0:0:
306,155,15013,2,0,B|295:180|295:180|301:229|301:229|287:262|260:277,1,140,2|0,0:0|0:0,0:0:0:0:
220,300,15775,1,8,0:1:0:0:
106,244,16284,38,0,B|92:163|92:163|57:111,1,140,4|8,0:1|0:1,0:0:0:0:
31,74,17047,1,0,0:0:0:0:
3,33,17301,2,0,L|143:37,1,140,2|8,0:0|0:1,0:0:0:0:
268,44,18318,2,0,P|252:80|255:118,1,70,2|0,0:0|0:0,0:0:0:0:
260,158,18826,2,0,B|236:213|236:213|204:237|163:247,2,140,8|2|8,0:1|0:0|0:1,0:0:0:0:
383,183,20352,6,0,L|363:269,1,70,2|0,0:0|0:0,0:0:0:0:
338,295,20860,2,0,P|302:326|272:331,1,70,8|0,0:1|0:0,0:0:0:0:
231,330,21369,2,0,P|198:319|174:295,1,70,2|0,0:0|0:0,0:0:0:0:
160,248,21877,1,8,0:1:0:0:
256,166,22386,2,0,L|332:146,1,70,2|0,0:0|0:0,0:0:0:0:
372,134,22894,2,0,B|393:129|409:132|409:132|430:149|456:155|456:155|482:145|512:150,2,140,8|2|8,0:1|0:0|0:1,0:0:0:0:
248,158,24419,53,4,0:1:0:0:
246,207,24674,1,0,0:0:0:0:
270,249,24928,1,8,0:1:0:0:
381,307,25436,2,0,P|359:344|267:378,1,140,2|8,0:0|0:1,0:0:0:0:
185,287,26453,2,0,P|181:209|194:190,1,70,2|0,0:0|0:0,0:0:0:0:
206,180,26962,2,0,P|238:168|263:143,1,70,8|0,0:1|0:0,0:0:0:0:
300,112,27470,2,0,B|339:75|395:120|430:78,1,140,2|8,0:0|0:1,0:0:0:0:
486,191,28487,6,0,P|455:212|420:218,1,70,2|0,0:0|0:0,0:0:0:0:
372,216,28996,2,0,P|340:200|301:197,1,70,8|0,0:1|0:0,0:0:0:0:
256,188,29504,2,0,P|170:186|162:191,2,70,2|0|8,0:0|0:0|0:1,0:0:0:0:
207,304,30521,2,0,L|211:376,2,70,2|0|8,0:0|0:0|0:1,0:0:0:0:
256,296,31284,1,0,0:0:0:0:
305,304,31538,2,0,L|301:376,2,70,2|0|8,0:0|0:0|0:1,0:0:0:0:
287,179,32555,6,0,B|311:107|263:107|287:35,1,140,4|8,0:1|0:1,0:0:0:0:
161,21,33572,1,2,0:0:0:0:
161,21,33826,2,0,L|121:80,1,70,4|8,0:0|0:1,0:0:0:0:
72,194,34589,2,0,P|80:242|156:282,1,140,2|8,0:0|0:1,0:0:0:0:
256,206,35606,2,0,L|256:134,2,70,2|4|8,0:0|0:0|0:1,0:0:0:0:
356,282,36623,6,0,P|420:258|440:194,2,140,2|8|2,0:0|0:1|0:0,0:0:0:0:
309,269,37894,2,0,P|277:253|233:245,1,70,4|8,0:0|0:1,0:0:0:0:
122,211,38657,2,0,P|55:173|13:114,2,140,2|8|2,0:0|0:1|0:0,0:0:0:0:
169,223,39928,2,0,L|141:299,1,70,4|8,0:0|0:1,0:0:0:0:
31,343,40691,6,0,P|15:311|39:251,1,70,4|0,0:1|0:0,0:0:0:0:
49,239,41199,2,0,B|51:199|91:153|91:153|75:88,1,140,8|2,0:1|0:0,0:0:0:0:
116,77,41962,2,0,P|152:81|196:97,1,70,4|8,0:0|0:1,0:0:0:0:
300,139,42725,2,0,P|296:175|280:219,1,70,2|0,0:0|0:0,0:0:0:0:
260,247,43233,2,0,B|194:271|194:271|108:269,1,140,8|2,0:1|0:0,0:0:0:0:
72,267,43996,1,4,0:0:0:0:
24,259,44250,1,8,0:1:0:0:
82,147,44758,38,0,P|109:140|153:118,1,70,2|0,0:0|0:0,0:0:0:0:
192,99,45267,2,0,B|214:111|214:111|230:135|255:149|255:149|279:156|306:166|316:195,1,140,8|2,0:1|0:0,0:0:0:0:
332,217,46030,1,4,0:0:0:0:
376,236,46284,1,8,0:1:0:0:
256,192,46792,12,4,48826,0:1:0:0:
