osu file format v13

[General]
AudioFilename: Slut Off.mp3
AudioLeadIn: 2000
PreviewTime: 16284
Countdown: 0
SampleSet: Soft
StackLeniency: 0.7
Mode: 0
LetterboxInBreaks: 0
WidescreenStoryboard: 0

[Editor]
DistanceSpacing: 0.7
BeatDivisor: 4
GridSize: 4
TimelineZoom: 3.399998

[Metadata]
Title:Slut Off
TitleUnicode:Slut Off
Artist:Krfawy
ArtistUnicode:Krfawy
Creator:Krfawy
Version:Insane
Source:
Tags:synth pop dance edm Pinksane Treats
BeatmapID:509306
BeatmapSetID:185690

[Difficulty]
HPDrainRate:6.9
CircleSize:4
OverallDifficulty:6.9
ApproachRate:8
SliderMultiplier:2.4
SliderTickRate:2

[Events]
//Background and Video events
0,0,"muny.jpg",0,0
//Break Periods
//Storyboard Layer 0 (Background)
//Storyboard Layer 1 (Fail)
//Storyboard Layer 2 (Pass)
//Storyboard Layer 3 (Foreground)
//Storyboard Sound Samples
//Background Colour Transformations
3,100,48,48,48

[TimingPoints]
13,508.474576271186,4,2,1,43,1,0
13,-142.857142857143,4,2,1,43,0,0
16284,-100,4,2,1,55,0,1
32555,-100,4,2,1,43,0,0
47301,-100,4,2,1,25,0,0
47809,-100,4,2,1,15,0,0
48318,-100,4,2,1,5,0,0

[Colours]
Combo1 : 190,20,20
Combo2 : 249,170,172
Combo3 : 213,193,249
Combo4 : 224,146,231
Combo5 : 204,49,131
SliderBorder : 250,220,230
SliderTrackOverride : 95,82,103

[HitObjects]
474,206,13,6,0,P|451:257|423:276,1,83.9999974365235,4|0,0:1|0:0,0:0:0:0:
354,308,522,1,8,0:1:0:0:
281,350,776,2,0,B|267:332|266:312|266:312|257:305|257:305|245:263|210:253|210:253|206:245|206:245|190:232|182:207,1,167.999994873047,2|0,0:0|0:0,0:0:0:0:
168,20,1538,1,8,0:1:0:0:
88,168,1793,1,0,0:0:0:0:
256,160,2047,6,0,B|296:174|296:174|340:168,1,83.9999974365235,2|0,0:0|0:0,0:0:0:0:
434,128,2555,1,8,0:1:0:0:
364,49,2810,2,0,B|283:27|283:27|198:35,1,167.999994873047,2|0,0:0|0:0,0:0:0:0:
103,80,3572,2,0,P|126:115|164:133,1,83.9999974365235,8|0,0:1|0:0,0:0:0:0:
266,156,4081,6,0,B|310:150|310:150|356:160,2,83.9999974365235,2|0|8,0:0|0:0|0:1,0:0:0:0:
147,238,4844,2,0,B|179:256|206:249|206:249|213:254|213:254|243:256|243:256|265:274|265:274|276:272|276:272|291:288|310:289,1,167.999994873047,2|0,0:0|0:0,0:0:0:0:
402,305,5606,1,8,0:1:0:0:
363,207,5861,1,0,0:0:0:0:
402,306,6115,38,0,B|356:309|356:309|318:295,1,83.9999974365235,2|0,0:0|0:0,0:0:0:0:
321,110,6623,1,8,0:1:0:0:
114,84,6877,2,0,P|189:107|183:186,1,167.999994873047,2|0,0:0|0:0,0:0:0:0:
112,312,7640,2,0,P|154:300|200:318,1,83.9999974365235,8|0,0:1|0:0,0:0:0:0:
280,361,8149,6,0,L|309:353,4,20.9999993591309,4|0|0|0|2,0:1|0:0|0:0|0:0|0:0,0:0:0:0:
331,268,8657,1,8,0:1:0:0:
226,271,8911,2,0,B|195:277|167:256|167:256|139:236|114:236|114:236|111:223|111:223|93:214|88:198,1,167.999994873047,2|0,0:0|0:0,0:0:0:0:
69,116,9674,2,0,B|101:116|101:116|125:125|125:125|156:125,1,83.9999974365235,8|0,0:1|0:0,0:0:0:0:
316,171,10183,6,0,B|284:171|284:171|260:162|260:162|234:162,2,83.9999974365235,2|0|8,0:0|0:0|0:1,0:0:0:0:
415,205,10945,2,0,B|405:233|388:247|388:247|391:281|372:300|372:300|341:310|319:333,1,167.999994873047,2|0,0:0|0:0,0:0:0:0:
201,370,11708,2,0,B|163:288,1,83.9999974365235,8|0,0:1|0:0,0:0:0:0:
135,104,12216,38,0,B|173:186,1,83.9999974365235,2|0,0:0|0:0,0:0:0:0:
187,277,12725,1,8,0:1:0:0:
289,303,12979,2,0,P|348:303|412:220,1,167.999994873047,2|0,0:0|0:0,0:0:0:0:
415,118,13742,2,0,B|381:95|381:95|339:83,1,83.9999974365235,8|0,0:1|0:0,0:0:0:0:
228,96,14250,6,0,P|186:104|145:104,1,83.9999974365235,2|0,0:0|0:0,0:0:0:0:
45,109,14759,1,8,0:1:0:0:
103,195,15013,2,0,B|140:229|205:215|205:215|212:222|212:222|243:217|277:227,1,167.999994873047,2|0,0:0|0:0,0:0:0:0:
364,243,15776,1,8,0:1:0:0:
256,99,16284,38,0,B|201:81|201:81|138:81,1,120,4|0,0:1|0:0,0:0:0:0:
95,94,16666,1,0,0:0:0:0:
54,114,16793,1,8,0:1:0:0:
26,205,16920,2,0,P|84:192|142:205,1,120,0|0,0:0|0:0,0:0:0:0:
222,259,17301,2,0,B|243:266|258:305|258:305|271:335|300:344,1,120,2|0,0:0|0:0,0:0:0:0:
344,354,17683,1,0,0:0:0:0:
385,335,17810,2,0,P|414:284|416:225,1,120,8|0,0:1|0:0,0:0:0:0:
335,61,18318,54,0,L|210:49,1,120,2|0,0:0|0:0,0:0:0:0:
170,54,18699,1,0,0:0:0:0:
131,77,18827,1,8,0:1:0:0:
105,113,18954,2,0,B|95:130|83:140|83:140|85:150|85:150|66:183|80:223,1,120,0|0,0:0|0:0,0:0:0:0:
127,305,19335,1,2,0:0:0:0:
226,378,19589,1,0,0:0:0:0:
270,373,19716,1,0,0:0:0:0:
304,344,19844,2,0,P|293:283|343:251,1,120,8|0,0:1|0:0,0:0:0:0:
445,201,20352,6,0,P|434:149|360:107,1,120,2|2,0:0|0:0,0:0:0:0:
337,104,20733,1,0,0:0:0:0:
295,107,20861,1,8,0:1:0:0:
258,126,20988,2,0,B|229:135|208:125|208:125|198:128|198:128|178:111|145:107,1,120,0|0,0:0|0:0,0:0:0:0:
62,199,21369,2,0,P|55:227|60:261,1,60,2|0,0:0|0:0,0:0:0:0:
144,292,21623,2,0,P|159:317|186:337,1,60,2|0,0:0|0:0,0:0:0:0:
236,324,21877,2,0,B|292:308|292:308|360:312,1,120,8|0,0:1|0:0,0:0:0:0:
478,263,22386,54,0,L|482:141,1,120,2|0,0:0|0:0,0:0:0:0:
468,96,22767,1,0,0:0:0:0:
431,75,22894,1,8,0:1:0:0:
389,67,23022,2,0,P|335:85|266:51,1,120,0|0,0:0|0:0,0:0:0:0:
170,37,23403,2,0,B|154:48|132:49|132:49|124:57|121:66|121:66|111:63|97:62|97:62|85:73|61:77,1,120,2|2,0:0|0:0,0:0:0:0:
36,114,23784,1,0,0:0:0:0:
35,153,23911,2,0,P|51:210|27:263,1,120,8|0,0:1|0:0,0:0:0:0:
12,360,24420,6,0,L|140:344,1,120,4|2,0:1|0:0,0:0:0:0:
169,361,24801,1,0,0:0:0:0:
210,359,24928,1,8,0:1:0:0:
240,329,25055,2,0,B|276:287|276:287|294:225,1,120,2|0,0:0|0:0,0:0:0:0:
343,99,25437,2,0,B|282:103|282:103|227:79,1,120,2|2,0:0|0:0,0:0:0:0:
183,73,25818,1,0,0:0:0:0:
138,80,25945,2,0,P|93:120|86:178,1,120,8|0,0:1|0:0,0:0:0:0:
113,300,26454,53,2,0:0:0:0:
259,326,26708,2,0,P|287:314|317:310,1,60,2|0,0:0|0:0,0:0:0:0:
349,325,26962,2,0,P|381:331|454:277,1,120,8|0,0:1|0:0,0:0:0:0:
465,240,27344,1,0,0:0:0:0:
448,190,27471,1,2,0:0:0:0:
373,95,27725,1,2,0:0:0:0:
330,126,27852,1,0,0:0:0:0:
287,142,27979,2,0,P|255:149|218:143,1,60,8|0,0:1|0:0,0:0:0:0:
10,32,28488,6,0,P|33:76|23:147,1,120,2|2,0:0|0:0,0:0:0:0:
12,187,28869,1,0,0:0:0:0:
4,276,28996,2,0,P|4:305|15:337,2,60,8|0|2,0:1|0:0|0:0,0:0:0:0:
138,209,29505,2,0,P|163:223|196:229,1,60,2|0,0:0|0:0,0:0:0:0:
258,290,29759,2,0,P|286:287|317:273,1,60,2|0,0:0|0:0,0:0:0:0:
391,329,30013,2,0,P|413:310|430:281,1,60,8|0,0:1|0:0,0:0:0:0:
395,48,30522,54,0,P|332:41|273:81,1,120,2|2,0:0|0:0,0:0:0:0:
267,117,30903,1,0,0:0:0:0:
270,169,31030,2,0,P|303:198|320:200,1,60,8|0,0:1|0:0,0:0:0:0:
306,289,31284,2,0,P|349:286|363:275,1,60,0|0,0:0|0:0,0:0:0:0:
422,212,31538,1,2,0:0:0:0:
193,184,31793,1,2,0:0:0:0:
231,346,32047,1,8,0:1:0:0:
180,354,32174,2,0,P|148:322|143:297,1,60
172,217,32555,54,0,P|194:168|159:110,1,120,4|0,0:1|0:0,0:0:0:0:
125,91,32937,1,0,0:0:0:0:
74,92,33064,2,0,P|34:87|10:17,2,120,8|0|2,0:1|0:0|0:0,0:0:0:0:
243,29,33827,1,4,0:0:0:0:
202,204,34081,1,8,0:1:0:0:
202,204,34208,2,0,B|179:222|174:249|174:249|166:247|166:247|163:276|131:290,1,120,0|0,0:0|0:0,0:0:0:0:
119,378,34589,38,0,P|72:368|38:300,1,120,2|0,0:0|0:0,0:0:0:0:
46,163,35098,1,8,0:1:0:0:
64,121,35225,1,0,0:0:0:0:
103,98,35352,1,0,0:0:0:0:
247,89,35606,2,0,B|303:102|303:102|365:99,2,120,2|4|8,0:0|0:0|0:1,0:0:0:0:
208,65,36242,1,0,0:0:0:0:
162,62,36369,1,2,0:0:0:0:
189,231,36623,6,0,B|214:230|233:240|233:240|244:237|244:237|301:267|369:232,1,180,2|0,0:0|0:0,0:0:0:0:
399,197,37132,1,8,0:1:0:0:
386,147,37259,1,0,0:0:0:0:
335,133,37386,1,0,0:0:0:0:
177,133,37640,2,0,B|156:132|156:132|119:141|119:141|80:132|80:132|60:134,2,120,2|4|8,0:0|0:0|0:1,0:0:0:0:
177,133,38276,1,0,0:0:0:0:
177,133,38403,1,2,0:0:0:0:
242,268,38657,6,0,B|214:268|189:279|189:279|180:277|180:277|133:299|64:276,1,180,2|0,0:0|0:0,0:0:0:0:
31,247,39166,2,0,P|9:222|12:136,1,120,8|0,0:1|0:0,0:0:0:0:
54,28,39674,1,2,0:0:0:0:
165,72,39928,1,4,0:0:0:0:
121,183,40183,1,8,0:1:0:0:
121,183,40310,2,0,P|180:207|242:200,1,120,0|0,0:0|0:0,0:0:0:0:
275,182,40691,1,4,0:1:0:0:
405,35,41199,38,0,B|376:84|405:136|405:136|401:145|401:145|431:207|403:266,1,240,8|2,0:1|0:0,0:0:0:0:
327,358,41962,1,4,0:0:0:0:
207,354,42216,1,8,0:1:0:0:
207,354,42344,2,0,B|174:346|148:357|148:357|128:334|93:328,1,120
23,271,42725,6,0,B|28:245|60:231|60:231|83:208|85:174|85:174|119:194|145:174|145:174|164:149|191:148,2,240,2|8|2,0:0|0:1|0:0,0:0:0:0:
23,271,43996,1,4,0:0:0:0:
171,256,44250,1,8,0:1:0:0:
171,256,44377,2,0,B|206:249|230:263|230:263|232:256|232:256|266:267|297:263,1,120,0|0,0:0|0:0,0:0:0:0:
327,260,44759,1,2,0:0:0:0:
491,302,45013,5,0,0:0:0:0:
451,156,45267,2,0,P|382:76|313:156,1,240,8|2,0:1|0:0,0:0:0:0:
326,305,46030,1,4,0:0:0:0:
176,315,46284,1,8,0:1:0:0:
176,315,46411,2,0,P|107:224|112:204,1,120,0|0,0:0|0:0,0:0:0:0:
114,185,46793,53,2,0:0:0:0:
256,192,46856,12,4,48826,0:1:0:0:
