osu file format v13

[General]
AudioFilename: Slut Off.mp3
AudioLeadIn: 2000
PreviewTime: 16284
Countdown: 0
SampleSet: Soft
StackLeniency: 0.7
Mode: 0
LetterboxInBreaks: 0
WidescreenStoryboard: 0

[Editor]
DistanceSpacing: 1
BeatDivisor: 4
GridSize: 4
TimelineZoom: 2.2

[Metadata]
Title:Slut Off
TitleUnicode:Slut Off
Artist:Krfawy
ArtistUnicode:Krfawy
Creator:Krfawy
Version:Hard
Source:
Tags:synth pop dance edm Pinksane Treats
BeatmapID:447038
BeatmapSetID:185690

[Difficulty]
HPDrainRate:5.6
CircleSize:4
OverallDifficulty:5.6
ApproachRate:6.5
SliderMultiplier:1.9
SliderTickRate:2

[Events]
//Background and Video events
0,0,"muny.jpg",0,0
//Break Periods
//Storyboard Layer 0 (Background)
//Storyboard Layer 1 (Fail)
//Storyboard Layer 2 (Pass)
//Storyboard Layer 3 (Foreground)
//Storyboard Sound Samples
//Background Colour Transformations
3,100,48,48,48

[TimingPoints]
13,508.474576271186,4,2,1,43,1,0
16284,-100,4,2,1,55,0,1
32555,-100,4,2,1,43,0,0
47301,-100,4,2,1,25,0,0
47809,-100,4,2,1,15,0,0
48318,-100,4,2,1,5,0,0

[Colours]
Combo1 : 190,20,20
Combo2 : 249,170,172
Combo3 : 213,193,249
Combo4 : 224,146,231
Combo5 : 204,49,131
SliderBorder : 250,220,230
SliderTrackOverride : 95,82,103

[HitObjects]
88,144,13,6,0,L|84:276,2,95,4|0|8,0:1|0:0|0:1,0:0:0:0:
48,60,776,2,0,P|132:64|170:189,1,190,2|0,0:0|0:0,0:0:0:0:
180,244,1538,1,8,0:1:0:0:
184,260,2047,6,0,L|82:224,2,95,2|0|8,0:0|0:0|0:1,0:0:0:0:
272,296,2810,2,0,P|271:219|178:165,1,190,2|0,0:0|0:0,0:0:0:0:
84,176,3572,1,8,0:1:0:0:
76,160,4081,6,0,P|88:112|160:92,1,95,2|0,0:0|0:0,0:0:0:0:
218,72,4589,1,8,0:1:0:0:
307,104,4844,2,0,B|274:136|279:190|279:190|270:188|270:188|248:239|201:246,1,190,2|0,0:0|0:0,0:0:0:0:
119,279,5606,1,8,0:1:0:0:
134,293,6115,38,0,P|185:328|221:327,2,95,2|0|8,0:0|0:0|0:1,0:0:0:0:
64,228,6877,2,0,P|48:151|132:92,1,190,2|0,0:0|0:0,0:0:0:0:
225,93,7640,1,8,0:1:0:0:
320,236,8149,6,0,B|312:208|288:196|288:196|274:168|279:143|279:143|284:124|280:113|280:113|255:102|237:80,1,190,4|8,0:1|0:1,0:0:0:0:
163,22,8911,2,0,P|140:112|192:200,1,190,2|0,0:0|0:0,0:0:0:0:
267,240,9674,2,0,L|375:244,1,95,8|0,0:1|0:0,0:0:0:0:
411,324,10183,6,0,L|316:320,1,95,2|0,0:0|0:0,0:0:0:0:
221,326,10691,1,8,0:1:0:0:
134,286,10945,2,0,P|102:243|157:124,1,190,2|0,0:0|0:0,0:0:0:0:
241,105,11708,2,0,B|288:108|288:108|334:96,1,95,8|0,0:1|0:0,0:0:0:0:
426,72,12216,38,0,L|441:183,1,95,2|0,0:0|0:0,0:0:0:0:
450,260,12725,1,8,0:1:0:0:
455,354,12979,2,0,P|362:358|291:298,1,190,2|0,0:0|0:0,0:0:0:0:
218,358,13742,2,0,P|192:319|197:273,1,95,8|0,0:1|0:0,0:0:0:0:
246,191,14250,6,0,B|260:144|236:100|236:100|228:84,2,95,2|0|8,0:0|0:0|0:1,0:0:0:0:
196,272,15013,2,0,P|112:304|28:226,1,190,2|0,0:0|0:0,0:0:0:0:
122,210,15776,1,8,0:1:0:0:
469,252,16284,22,0,P|409:226|396:185,1,95,4|0,0:1|0:0,0:0:0:0:
382,157,16666,1,0,0:0:0:0:
346,122,16793,2,0,P|324:112|299:106,1,47.5,8|0,0:1|0:0,0:0:0:0:
164,64,17301,2,0,L|141:159,1,95,2|0,0:0|0:0,0:0:0:0:
142,203,17683,2,0,P|146:231|143:258,2,47.5,0|8|0,0:0|0:1|0:0,0:0:0:0:
95,337,18318,6,0,P|171:345|193:333,1,95,2|0,0:0|0:0,0:0:0:0:
225,312,18699,1,0,0:0:0:0:
267,290,18827,2,0,P|288:282|324:277,1,47.5,8|0,0:1|0:0,0:0:0:0:
454,262,19335,1,2,0:0:0:0:
470,218,19462,1,0,0:0:0:0:
460,171,19589,2,0,P|405:153|377:124,1,95,0|8,0:0|0:1,0:0:0:0:
352,88,19971,1,0,0:0:0:0:
217,42,20352,54,0,L|123:84,1,95,2|2,0:0|0:0,0:0:0:0:
92,109,20733,1,0,0:0:0:0:
74,153,20861,2,0,P|74:180|66:213,1,47.5,8|0,0:1|0:0,0:0:0:0:
112,335,21369,2,0,P|131:315|160:298,1,47.5,2|0,0:0|0:0,0:0:0:0:
193,289,21623,1,2,0:0:0:0:
288,280,21877,2,0,P|307:266|323:248,1,47.5,8|0,0:1|0:0,0:0:0:0:
413,141,22386,5,2,0:0:0:0:
403,94,22513,1,0,0:0:0:0:
370,59,22640,2,0,B|326:44|326:44|274:45,1,95,2|8,0:0|0:1,0:0:0:0:
230,48,23022,1,0,0:0:0:0:
89,68,23403,2,0,P|89:117|84:130,1,47.5,2|0,0:0|0:0,0:0:0:0:
91,162,23657,2,0,B|82:204|82:204|91:260,1,95,2|8,0:0|0:1,0:0:0:0:
117,294,24038,1,0,0:0:0:0:
257,342,24420,54,0,P|265:271|256:242,1,95,4|2,0:1|0:0,0:0:0:0:
236,207,24801,1,0,0:0:0:0:
227,160,24928,2,0,P|220:141|217:112,1,47.5,8|0,0:1|0:0,0:0:0:0:
358,101,25437,2,0,P|387:108|406:122,1,47.5,2|0,0:0|0:0,0:0:0:0:
410,164,25691,2,0,P|425:189|429:212,1,47.5,2|0,0:0|0:0,0:0:0:0:
426,254,25945,1,8,0:1:0:0:
412,299,26072,1,0,0:0:0:0:
278,347,26454,6,0,L|181:341,1,95,2|2,0:0|0:0,0:0:0:0:
137,325,26835,1,0,0:0:0:0:
96,300,26962,2,0,P|79:273|73:238,1,47.5,8|0,0:1|0:0,0:0:0:0:
220,230,27471,2,0,P|227:198|247:169,1,47.5,2|0,0:0|0:0,0:0:0:0:
271,155,27725,2,0,B|281:111|281:111|266:63,1,95,2|8,0:0|0:1,0:0:0:0:
274,15,28106,1,0,0:0:0:0:
131,17,28488,54,0,P|83:43|67:82,1,95,2|2,0:0|0:0,0:0:0:0:
61,125,28869,1,0,0:0:0:0:
67,172,28996,2,0,P|73:194|73:221,1,47.5,8|0,0:1|0:0,0:0:0:0:
75,360,29505,1,2,0:0:0:0:
121,353,29632,1,0,0:0:0:0:
167,362,29759,2,0,P|216:374|266:365,1,95,2|8,0:0|0:1,0:0:0:0:
304,351,30140,1,0,0:0:0:0:
410,278,30522,6,0,P|420:256|423:233,1,47.5,2|0,0:0|0:0,0:0:0:0:
418,185,30776,2,0,P|404:114|413:88,1,95,2|8,0:0|0:1,0:0:0:0:
407,46,31157,1,0,0:0:0:0:
264,46,31538,2,0,B|248:89|248:89|251:137,1,95,2|0,0:0|0:0,0:0:0:0:
255,185,31920,1,0,0:0:0:0:
247,231,32047,2,0,P|239:255|214:285,1,47.5,8|0,0:1|0:0,0:0:0:0:
83,283,32555,6,0,B|62:265|60:240|60:240|59:214|40:201,1,95,4|0,0:1|0:0,0:0:0:0:
6,112,33064,2,0,B|50:114|93:100|93:100|96:108|96:108|146:104|184:132,1,190,8|2,0:1|0:0,0:0:0:0:
256,193,33827,1,4,0:0:0:0:
264,287,34081,2,0,P|282:306|304:313,1,47.5,8|0,0:1|0:0,0:0:0:0:
444,293,34589,6,0,P|397:215|430:127,1,190,2|8,0:0|0:1,0:0:0:0:
502,67,35352,1,0,0:0:0:0:
408,46,35606,2,0,P|367:57|317:48,1,95,2|4,0:0|0:0,0:0:0:0:
225,19,36115,2,0,P|237:43|241:77,1,47.5,8|0,0:1|0:0,0:0:0:0:
88,68,36623,6,0,P|103:161|79:253,1,190,2|8,0:0|0:1,0:0:0:0:
44,340,37386,1,0,0:0:0:0:
138,330,37640,2,0,P|188:325|246:342,1,95,2|4,0:0|0:0,0:0:0:0:
275,251,38149,2,0,P|300:266|317:306,1,47.5,8|0,0:1|0:0,0:0:0:0:
435,299,38657,38,0,B|460:254|453:216|453:216|458:210|458:210|434:174|439:118,1,190,2|8,0:0|0:1,0:0:0:0:
467,27,39420,1,0,0:0:0:0:
373,45,39674,2,0,P|327:57|280:50,1,95,2|4,0:0|0:0,0:0:0:0:
184,44,40183,2,0,P|195:65|199:89,1,47.5,8|0,0:1|0:0,0:0:0:0:
82,105,40691,6,0,B|58:152|83:186|83:186|77:195|77:195|86:233|68:253|68:253|68:271|55:288,2,190,4|8|2,0:1|0:1|0:0,0:0:0:0:
177,104,41962,1,4,0:0:0:0:
263,144,42216,1,8,0:1:0:0:
263,144,42344,1,0,0:0:0:0:
394,271,42725,6,0,B|348:275|348:275|308:303|308:303|258:309|258:309|223:336,2,190,2|8|2,0:0|0:1|0:0,0:0:0:0:
485,242,43996,1,4,0:0:0:0:
471,148,44250,1,8,0:1:0:0:
471,148,44377,1,0,0:0:0:0:
307,78,44759,38,0,P|212:84|122:58,2,190,2|8|2,0:0|0:1|0:0,0:0:0:0:
402,78,46030,1,4,0:0:0:0:
356,161,46284,1,8,0:1:0:0:
356,161,46411,1,0,0:0:0:0:
156,223,46793,5,2,0:0:0:0:
256,192,46920,12,4,48827,0:1:0:0:
