osu file format v13

[General]
AudioFilename: Slut Off.mp3
AudioLeadIn: 2000
PreviewTime: 16284
Countdown: 0
SampleSet: Soft
StackLeniency: 0.7
Mode: 0
LetterboxInBreaks: 0
WidescreenStoryboard: 0

[Editor]
DistanceSpacing: 0.8
BeatDivisor: 4
GridSize: 4
TimelineZoom: 2.4

[Metadata]
Title:Slut Off
TitleUnicode:Slut Off
Artist:Krfawy
ArtistUnicode:Krfawy
Creator:Krfawy
Version:Extreme
Source:
Tags:synth pop dance edm Pinksane Treats
BeatmapID:542479
BeatmapSetID:185690

[Difficulty]
HPDrainRate:7.7
CircleSize:4.5
OverallDifficulty:7.7
ApproachRate:8.7
SliderMultiplier:3
SliderTickRate:2

[Events]
//Background and Video events
0,0,"muny.jpg",0,0
//Break Periods
//Storyboard Layer 0 (Background)
//Storyboard Layer 1 (Fail)
//Storyboard Layer 2 (Pass)
//Storyboard Layer 3 (Foreground)
//Storyboard Sound Samples
//Background Colour Transformations
3,100,48,48,48

[TimingPoints]
13,508.474576271186,4,2,1,43,1,0
775,-142.857142857143,4,2,1,43,0,0
2046,-100,4,2,1,43,0,0
2809,-142.857142857143,4,2,1,43,0,0
4080,-100,4,2,1,43,0,0
4843,-142.857142857143,4,2,1,43,0,0
6114,-100,4,2,1,43,0,0
7385,-142.857142857143,4,2,1,43,0,0
8148,-100,4,2,1,43,0,0
8911,-142.857142857143,4,2,1,43,0,0
10182,-100,4,2,1,43,0,0
10690,-142.857142857143,4,2,1,43,0,0
12216,-100,4,2,1,43,0,0
13487,-142.857142857143,4,2,1,43,0,0
14250,-100,4,2,1,43,0,0
14758,-142.857142857143,4,2,1,43,0,0
16284,-90.9090909090909,4,2,1,55,0,1
32555,-142.857142857143,4,2,1,43,0,0
47301,-142.857142857143,4,2,1,25,0,0
47809,-142.857142857143,4,2,1,15,0,0
48318,-142.857142857143,4,2,1,5,0,0

[Colours]
Combo1 : 190,20,20
Combo2 : 249,170,172
Combo3 : 213,193,249
Combo4 : 224,146,231
Combo5 : 204,49,131
SliderBorder : 250,220,230
SliderTrackOverride : 95,82,103

[HitObjects]
484,112,13,70,0,P|481:186|440:248,1,150,4|0,0:1|0:0,0:0:0:0:
332,296,522,1,8,0:1:0:0:
220,256,776,6,0,B|189:244|189:244|156:235|119:249|119:249|82:237|63:202|63:202|48:189|19:179,1,209.999993591309,2|0,0:0|0:0,0:0:0:0:
49,103,1538,2,0,B|110:114|132:164,1,104.999996795654,8|0,0:1|0:0,0:0:0:0:
380,65,2047,38,0,P|351:129|277:130,1,150,2|0,0:0|0:0,0:0:0:0:
312,71,2555,1,8,0:1:0:0:
372,196,2810,38,0,B|312:228|236:188|236:188|204:208|168:192,1,209.999993591309,2|0,0:0|0:0,0:0:0:0:
91,167,3572,2,0,P|118:125|191:115,1,104.999996795654,8|0,0:1|0:0,0:0:0:0:
412,64,4081,22,0,P|328:128|336:176,1,150,2|0,0:0|0:0,0:0:0:0:
373,270,4589,1,8,0:1:0:0:
415,199,4844,54,0,P|316:210|302:314,1,209.999993591309,2|0,0:0|0:1,0:0:0:0:
220,344,5606,2,0,L|92:323,1,104.999996795654,8|0,0:1|0:0,0:0:0:0:
297,305,6115,22,0,B|276:237|276:237|294:146,1,150,2|0,0:0|0:0,0:0:0:0:
321,43,6623,1,8,0:1:0:0:
413,119,6877,1,2,0:0:0:0:
413,119,7386,6,0,L|381:267,2,104.999996795654,0|8|0,0:0|0:1|0:0,0:0:0:0:
245,174,8149,38,0,P|221:186|201:210,3,37.5,4|0|0|0,0:1|0:0|0:0|0:0,0:0:0:0:
273,189,8403,2,0,P|305:231|260:307,1,150,2|8,0:0|0:1,0:0:0:0:
214,376,8911,38,0,P|307:332|416:355,1,209.999993591309,2|0,0:0|0:0,0:0:0:0:
476,134,9674,2,0,P|451:180|453:232,1,104.999996795654,8|0,0:1|0:0,0:0:0:0:
486,370,10183,22,0,P|490:298|446:226,1,150,2|0,0:0|0:0,0:0:0:0:
328,139,10691,54,0,L|340:248,2,104.999996795654,8|2|0,0:1|0:0|0:0,0:0:0:0:
354,59,11454,2,0,P|270:78|245:133,1,104.999996795654,0|8,0:0|0:1,0:0:0:0:
424,108,11962,1,0,0:0:0:0:
360,212,12216,22,0,B|353:241|364:279|364:279|332:310|325:349,1,150,2|0,0:0|0:0,0:0:0:0:
186,349,12725,2,0,B|179:310|147:279|147:279|158:241|152:212,1,150,8|2,0:1|0:0,0:0:0:0:
256,64,13233,5,0,0:0:0:0:
256,64,13488,2,0,L|256:169,2,104.999996795654,0|8|0,0:0|0:1|0:0,0:0:0:0:
352,136,14250,38,0,P|440:168|452:217,1,150,2|0,0:0|0:0,0:0:0:0:
376,208,14759,22,0,P|291:182|276:128,1,104.999996795654,8|2,0:1|0:0,0:0:0:0:
100,184,15267,1,0,0:0:0:0:
188,324,15522,1,0,0:0:0:0:
128,264,15776,1,8,0:1:0:0:
316,352,16284,38,0,B|337:358|359:373|359:373|368:361|368:361|430:358|457:317,1,165.000005035401,4|2,0:1|0:0,0:0:0:0:
474,221,16666,1,0,0:0:0:0:
376,230,16793,1,8,0:1:0:0:
348,211,16920,1,0,0:0:0:0:
327,192,17047,2,0,P|286:199|245:183,1,82.5000025177003,2|0,0:0|0:0,0:0:0:0:
163,69,17301,6,0,B|181:66|191:53|191:53|199:60|199:60|266:58|295:119,1,165.000005035401,2|2,0:0|0:0,0:0:0:0:
386,254,17683,1,0,0:0:0:0:
292,286,17809,2,0,P|221:273|206:256,1,82.5000025177003,8|0,0:1|0:0,0:0:0:0:
169,181,18064,1,2,0:0:0:0:
216,93,18191,1,0,0:0:0:0:
343,109,18318,53,2,0:0:0:0:
334,122,18445,1,0,0:0:0:0:
322,133,18572,2,0,B|302:158|247:145|247:145|192:132|165:153,1,165.000005035401,2|8,0:0|0:1,0:0:0:0:
212,227,18953,1,0,0:0:0:0:
324,215,19081,2,0,P|342:207|413:210,1,82.5000025177003,2|0,0:0|0:0,0:0:0:0:
324,216,19335,6,0,B|296:235|292:292|292:292|288:348|258:360,2,165.000005035401,2|0|8,0:0|0:0|0:1,0:0:0:0:
251,172,19971,1,0,0:0:0:0:
195,111,20098,1,2,0:0:0:0:
184,123,20352,54,0,P|168:203|208:273,1,165.000005035401,2|2,0:0|0:0,0:0:0:0:
260,192,20733,1,0,0:0:0:0:
272,160,20861,2,0,P|387:111|385:77,1,165.000005035401,8|2,0:1|0:0,0:0:0:0:
312,95,21242,1,0,0:0:0:0:
312,95,21369,6,0,P|272:83|233:93,1,82.5000025177003,2|0,0:0|0:0,0:0:0:0:
119,243,21623,2,0,P|158:254|197:244,1,82.5000025177003,2|0,0:0|0:0,0:0:0:0:
80,91,21877,2,0,B|82:113|82:113|97:135|89:167|89:167|96:169|96:169|90:204|109:228|109:228|119:243,1,165.000005035401,8|0,0:1|0:0,0:0:0:0:
175,300,22259,1,0,0:0:0:0:
256,292,22386,53,2,0:0:0:0:
337,300,22513,1,0,0:0:0:0:
393,243,22640,2,0,B|403:228|403:228|422:204|416:169|416:169|423:167|423:167|415:135|430:113|430:113|432:91,1,165.000005035401,2|8,0:0|0:1,0:0:0:0:
408,13,23022,1,0,0:0:0:0:
336,60,23149,2,0,B|324:58|324:58|296:66|296:66|270:58|270:58|256:60,1,82.5000025177003,2|0,0:0|0:0,0:0:0:0:
81,91,23403,6,0,P|43:109|27:144,1,82.5000025177003,2|0,0:0|0:0,0:0:0:0:
118,178,23657,2,0,P|153:197|192:190,1,82.5000025177003,2|0,0:0|0:0,0:0:0:0:
273,228,23911,2,0,P|284:192|271:150,2,82.5000025177003,8|0|0,0:1|0:0|0:0,0:0:0:0:
432,196,24420,54,0,P|461:284|402:358,1,165.000005035401,4|2,0:1|0:0,0:0:0:0:
364,268,24801,1,0,0:0:0:0:
191,212,24928,2,0,L|273:228,1,82.5000025177003,8|0,0:1|0:0,0:0:0:0:
207,113,25183,2,0,L|125:97,1,82.5000025177003,2|0,0:0|0:0,0:0:0:0:
104,208,25437,5,2,0:0:0:0:
112,240,25564,1,0,0:0:0:0:
128,268,25691,1,2,0:0:0:0:
152,288,25818,1,0,0:0:0:0:
180,304,25945,2,0,B|205:277|200:238|200:238|213:236|213:236|206:192|228:157,1,165.000005035401,8|0,0:1|0:0,0:0:0:0:
292,119,26327,1,0,0:0:0:0:
292,119,26454,54,0,P|328:83|372:79,1,82.5000025177003,0|0,0:0|0:0,0:0:0:0:
208,207,26708,2,0,P|157:206|123:178,1,82.5000025177003,2|0,0:0|0:0,0:0:0:0:
328,223,26962,2,0,P|364:259|368:303,1,82.5000025177003,8|0,0:1|0:0,0:0:0:0:
190,316,27216,2,0,L|272:303,1,82.5000025177003,2|0,0:0|0:0,0:0:0:0:
449,201,27471,6,0,L|368:215,1,82.5000025177003,0|0,0:0|0:0,0:0:0:0:
162,180,27725,2,0,L|244:167,1,82.5000025177003,2|0,0:0|0:0,0:0:0:0:
393,37,27979,2,0,L|312:51,1,82.5000025177003,8|0,0:1|0:0,0:0:0:0:
152,106,28233,1,2,0:0:0:0:
136,112,28487,54,0,B|120:112|104:120|104:120|80:104|80:104|25:97|5:41,1,165.000005035401,2|2,0:0|0:0,0:0:0:0:
87,22,28869,1,2,0:0:0:0:
117,220,28996,2,0,P|109:312|65:348,1,82.5000025177003,8|0,0:1|0:0,0:0:0:0:
277,279,29250,2,0,P|318:270|358:280,1,82.5000025177003,2|2,0:0|0:0,0:0:0:0:
299,81,29505,6,0,P|276:115|241:136,1,82.5000025177003,0|0,0:0|0:0,0:0:0:0:
60,276,29759,2,0,P|82:241|117:220,1,82.5000025177003,2|0,0:0|0:0,0:0:0:0:
254,261,30013,54,0,P|220:238|199:203,1,82.5000025177003,8|0,0:1|0:0,0:0:0:0:
91,72,30267,2,0,P|126:94|147:129,1,82.5000025177003,2|0,0:0|0:0,0:0:0:0:
308,300,30522,6,0,P|220:264|200:192,1,165.000005035401,2|2,0:0|0:0,0:0:0:0:
188,72,30903,1,0,0:0:0:0:
308,128,31030,2,0,P|416:136|448:128,1,82.5000025177003,8|0,0:1|0:0,0:0:0:0:
236,324,31284,2,0,P|208:293|186:258,1,82.5000025177003,2|0,0:0|0:0,0:0:0:0:
108,112,31538,53,2,0:0:0:0:
136,152,31666,1,0,0:0:0:0:
156,200,31793,1,2,0:0:0:0:
164,248,31920,1,0,0:0:0:0:
164,296,32047,2,0,P|156:336|128:376,1,82.5000025177003,8|0,0:1|0:0,0:0:0:0:
64,256,32301,2,0,P|41:222|32:173,1,82.5000025177003,0|0,0:0|0:0,0:0:0:0:
44,84,32555,22,0,L|95:95,1,52.4999983978272,4|0,0:1|0:0,0:0:0:0:
224,168,32810,2,0,L|196:124,1,52.4999983978272,0|0,0:0|0:0,0:0:0:0:
288,72,33064,1,8,0:1:0:0:
296,112,33191,1,0,0:0:0:0:
304,152,33318,1,2,0:0:0:0:
312,192,33445,1,0,0:0:0:0:
316,232,33572,6,0,L|280:308,1,52.4999983978272,0|0,0:0|0:0,0:0:0:0:
173,331,33827,2,0,L|196:284,1,52.4999983978272,4|0,0:0|0:0,0:0:0:0:
138,208,34081,1,8,0:1:0:0:
138,208,34208,1,0,0:0:0:0:
138,208,34335,1,0,0:0:0:0:
138,208,34462,1,0,0:0:0:0:
138,208,34589,6,0,P|168:183|243:179,1,104.999996795654,2|0,0:0|0:0,0:0:0:0:
360,204,34971,1,0,0:0:0:0:
411,314,35098,2,0,L|426:258,1,52.4999983978272,8|0,0:1|0:0,0:0:0:0:
352,120,35352,2,0,L|337:176,1,52.4999983978272,2|0,0:0|0:0,0:0:0:0:
280,288,35606,37,0,0:0:0:0:
260,324,35733,1,0,0:0:0:0:
236,356,35861,2,0,P|176:376|104:356,1,104.999996795654,4|8,0:0|0:1,0:0:0:0:
96,356,36242,1,0,0:0:0:0:
64,332,36369,1,0,0:0:0:0:
40,296,36496,1,0,0:0:0:0:
0,176,36623,6,0,P|-4:120|60:60,1,104.999996795654,2|0,0:0|0:0,0:0:0:0:
122,25,37005,1,0,0:0:0:0:
224,84,37132,2,0,L|260:152,1,52.4999983978272,8|0,0:1|0:0,0:0:0:0:
356,260,37386,2,0,L|326:204,1,52.4999983978272,2|0,0:0|0:0,0:0:0:0:
364,92,37640,5,0,0:0:0:0:
388,124,37767,1,0,0:0:0:0:
404,164,37894,1,4,0:0:0:0:
416,204,38022,1,0,0:0:0:0:
423,245,38149,2,0,P|422:273|402:312,1,52.4999983978272,8|0,0:1|0:0,0:0:0:0:
287,245,38403,2,0,P|262:230|238:193,1,52.4999983978272,0|0,0:0|0:0,0:0:0:0:
297,338,38657,38,0,P|246:324|203:295,1,104.999996795654,2|0,0:0|0:0,0:0:0:0:
150,223,39038,1,2,0:0:0:0:
136,112,39166,1,8,0:1:0:0:
152,76,39293,1,0,0:0:0:0:
180,44,39420,1,0,0:0:0:0:
216,24,39547,1,0,0:0:0:0:
260,20,39674,6,0,L|320:124,1,104.999996795654,2|4,0:0|0:0,0:0:0:0:
224,252,40183,1,8,0:1:0:0:
188,272,40310,2,0,P|104:284|60:260,1,104.999996795654
52,256,40691,5,4,0:1:0:0:
96,92,40945,1,0,0:0:0:0:
240,176,41199,1,8,0:1:0:0:
280,192,41327,2,0,P|316:182|360:156,2,52.4999983978272,2|0|0,0:0|0:0|0:0,0:0:0:0:
168,132,41708,37,2,0:0:0:0:
156,300,41962,1,4,0:0:0:0:
320,268,42216,1,8,0:1:0:0:
356,248,42344,2,0,P|404:204|396:132,1,104.999996795654,0|0,0:0|0:0,0:0:0:0:
419,83,42725,6,0,P|361:95|335:129,1,104.999996795654,2|0,0:0|0:0,0:0:0:0:
324,169,43106,1,0,0:0:0:0:
292,196,43233,1,8,0:1:0:0:
256,216,43361,1,0,0:0:0:0:
216,216,43488,1,2,0:0:0:0:
180,196,43615,1,0,0:0:0:0:
144,172,43742,6,0,P|96:160|32:172,2,104.999996795654,0|4|8,0:0|0:0|0:1,0:0:0:0:
180,196,44377,2,0,P|205:241|211:293,1,104.999996795654,0|0,0:0|0:0,0:0:0:0:
115,266,44759,38,0,L|80:226,1,52.4999983978272,2|0,0:0|0:0,0:0:0:0:
210,293,45013,2,0,L|244:332,1,52.4999983978272,0|0,0:0|0:0,0:0:0:0:
211,182,45267,1,8,0:1:0:0:
211,182,45394,1,0,0:0:0:0:
211,182,45522,2,0,P|254:133|248:77,1,104.999996795654,0|2,0:0|0:0,0:0:0:0:
79,54,45903,5,0,0:0:0:0:
79,54,46030,2,0,L|179:114,1,104.999996795654,4|8,0:0|0:1,0:0:0:0:
268,184,46411,2,0,P|277:234|254:280,1,104.999996795654
169,374,46793,5,2,0:0:0:0:
256,192,46856,12,4,48826,0:1:0:0:
