osu file format v13

[General]
AudioFilename: Slut Off.mp3
AudioLeadIn: 2000
PreviewTime: 16284
Countdown: 0
SampleSet: Soft
StackLeniency: 0.7
Mode: 0
LetterboxInBreaks: 0
WidescreenStoryboard: 0

[Editor]
DistanceSpacing: 1.2
BeatDivisor: 2
GridSize: 4
TimelineZoom: 1.5

[Metadata]
Title:Slut Off
TitleUnicode:Slut Off
Artist:Krfawy
ArtistUnicode:Krfawy
Creator:Krfawy
Version:Easy
Source:
Tags:synth pop dance edm Pinksane Treats
BeatmapID:443801
BeatmapSetID:185690

[Difficulty]
HPDrainRate:2.7
CircleSize:3
OverallDifficulty:2.7
ApproachRate:2.7
SliderMultiplier:0.799999999999999
SliderTickRate:2

[Events]
//Background and Video events
0,0,"muny.jpg",0,0
//Break Periods
//Storyboard Layer 0 (Background)
//Storyboard Layer 1 (Fail)
//Storyboard Layer 2 (Pass)
//Storyboard Layer 3 (Foreground)
//Storyboard Sound Samples
//Background Colour Transformations
3,100,48,48,48

[TimingPoints]
13,508.474576271186,4,2,1,43,1,0
16284,-100,4,2,1,55,0,1
32555,-100,4,2,1,43,0,0
47301,-100,4,2,1,25,0,0
47809,-100,4,2,1,15,0,0
48318,-100,4,2,1,5,0,0

[Colours]
Combo1 : 190,20,20
Combo2 : 249,170,172
Combo3 : 213,193,249
Combo4 : 224,146,231
Combo5 : 204,49,131
SliderBorder : 250,220,230
SliderTrackOverride : 95,82,103

[HitObjects]
136,311,13,6,0,P|175:303|208:281,1,79.9999999999999,4|8,0:1|0:1,0:0:0:0:
304,281,1030,2,0,P|337:304|376:312,1,79.9999999999999,2|8,0:0|0:1,0:0:0:0:
472,304,2047,2,0,L|484:220,1,79.9999999999999,2|8,0:0|0:1,0:0:0:0:
495,129,3064,1,2,0:0:0:0:
421,67,3572,1,8,0:1:0:0:
324,64,4081,6,0,P|277:62|230:104,2,79.9999999999999,2|8|2,0:0|0:1|0:0,0:0:0:0:
308,160,5606,1,8,0:1:0:0:
256,240,6114,2,0,P|260:279|247:317,2,79.9999999999999,2|8|2,0:0|0:1|0:0,0:0:0:0:
164,268,7640,1,8,0:1:0:0:
75,231,8148,6,0,P|81:162|160:110,1,160,4|2,0:1|0:0,0:0:0:0:
246,103,9674,1,8,0:1:0:0:
316,168,10182,2,0,P|332:196|336:248,1,79.9999999999999,2|8,0:0|0:1,0:0:0:0:
304,332,11199,1,2,0:0:0:0:
208,332,11708,1,8,0:1:0:0:
175,242,12216,38,0,P|177:203|196:168,1,79.9999999999999,2|8,0:0|0:1,0:0:0:0:
264,100,13233,2,0,P|300:85|340:88,1,79.9999999999999,2|8,0:0|0:1,0:0:0:0:
436,84,14250,2,0,P|433:122|408:156,1,79.9999999999999,2|8,0:0|0:1,0:0:0:0:
336,220,15267,1,2,0:0:0:0:
256,272,15775,1,8,0:1:0:0:
176,220,16284,38,0,P|148:184|141:147,2,79.9999999999999,4|8|2,0:1|0:1|0:0,0:0:0:0:
256,272,17809,1,8,0:1:0:0:
336,216,18318,2,0,P|372:196|418:199,1,79.9999999999999,2|8,0:0|0:1,0:0:0:0:
492,144,19335,2,0,P|499:105|487:67,1,79.9999999999999,2|8,0:0|0:1,0:0:0:0:
404,17,20352,6,0,B|366:28|366:28|331:54,1,79.9999999999999,2|8,0:0|0:1,0:0:0:0:
332,148,21369,1,2,0:0:0:0:
256,208,21877,1,8,0:1:0:0:
180,148,22386,2,0,B|155:115|155:115|144:77,1,79.9999999999999,2|8,0:0|0:1,0:0:0:0:
60,28,23403,2,0,P|48:64|58:120,1,79.9999999999999,2|8,0:0|0:1,0:0:0:0:
88,192,24420,53,4,0:1:0:0:
164,252,24928,1,8,0:1:0:0:
256,280,25436,1,2,0:0:0:0:
348,252,25945,1,8,0:1:0:0:
424,192,26453,2,0,P|470:127|452:65,1,79.9999999999999,2|8,0:0|0:1,0:0:0:0:
424,48,27470,2,0,P|377:112|395:174,1,79.9999999999999,2|8,0:0|0:1,0:0:0:0:
356,204,28487,6,0,L|300:296,1,79.9999999999999,2|8,0:0|0:1,0:0:0:0:
240,336,29504,1,2,0:0:0:0:
144,352,30013,1,8,0:1:0:0:
48,336,30521,2,0,L|32:244,1,79.9999999999999,2|8,0:0|0:1,0:0:0:0:
40,160,31538,2,0,P|79:169|112:212,1,79.9999999999999,2|8,0:0|0:1,0:0:0:0:
176,264,32555,6,0,L|273:268,1,79.9999999999999,4|8,0:1|0:1,0:0:0:0:
305,185,33572,2,0,L|402:189,1,79.9999999999999,2|8,0:0|0:1,0:0:0:0:
472,148,34589,2,0,P|484:112|480:56,2,79.9999999999999,2|8|2,0:0|0:1|0:0,0:0:0:0:
428,236,36114,1,8,0:1:0:0:
336,212,36623,6,0,P|308:172|316:108,1,79.9999999999999,2|8,0:0|0:1,0:0:0:0:
207,141,37640,2,0,P|200:181|176:212,1,79.9999999999999,2|8,0:0|0:1,0:0:0:0:
93,259,38657,2,0,B|57:233|65:174,1,79.9999999999999,2|8,0:0|0:1,0:0:0:0:
112,104,39674,2,0,B|152:95|173:57,1,79.9999999999999,2|8,0:0|0:1,0:0:0:0:
264,20,40691,6,0,P|311:40|352:37,1,79.9999999999999,4|8,0:1|0:1,0:0:0:0:
404,112,41708,2,0,B|396:212,1,79.9999999999999,2|8,0:0|0:1,0:0:0:0:
336,267,42725,2,0,L|255:286,1,79.9999999999999,2|8,0:0|0:1,0:0:0:0:
196,211,43742,2,0,L|115:230,1,79.9999999999999,2|8,0:0|0:1,0:0:0:0:
64,148,44758,38,0,P|64:100|88:56,1,79.9999999999999,2|8,0:0|0:1,0:0:0:0:
164,28,45775,2,0,P|200:48|264:48,1,79.9999999999999,2|8,0:0|0:1,0:0:0:0:
256,192,46792,12,4,48826,0:1:0:0:
