osu file format v14

[General]
AudioFilename: Kac.mp3
AudioLeadIn: 2690
PreviewTime: 14
Countdown: 0
SampleSet: Soft
StackLeniency: 0.7
Mode: 0
LetterboxInBreaks: 0
WidescreenStoryboard: 0

[Editor]
DistanceSpacing: 1.2
BeatDivisor: 4
GridSize: 4
TimelineZoom: 1

[Metadata]
Title:Kac (TV Size)
TitleUnicode:Kac (TV Size)
Artist:Krfawy
ArtistUnicode:Krfawy
Creator:Krfawy
Version:Advanced
Source:
Tags:Pinksane Treats National Hangover Anthem troll ambient Bathory Witch Gero Irreversible BoberOfDarkness streeteelf - Magic Bomb - Tidek -Kamikaze-
BeatmapID:622461
BeatmapSetID:273355

[Difficulty]
HPDrainRate:4.5
CircleSize:3.5
OverallDifficulty:4.5
ApproachRate:5.5
SliderMultiplier:1.3
SliderTickRate:1

[Events]
//Background and Video events
0,0,"Douz Kalez.jpg",0,0
//Break Periods
//Storyboard Layer 0 (Background)
//Storyboard Layer 1 (Fail)
//Storyboard Layer 2 (Pass)
//Storyboard Layer 3 (Foreground)
//Storyboard Sound Samples

[TimingPoints]
14,535.714285714286,4,2,1,37,1,0

[Colours]
Combo1 : 242,225,11
Combo2 : 119,248,3
Combo3 : 3,197,237
Combo4 : 249,119,181
SliderBorder : 240,240,240
SliderTrackOverride : 251,57,57

[HitObjects]
159,138,14,5,2,1:2:0:0:
214,81,281,2,0,P|308:62|402:85,1,195,0|8,0:0|1:0,0:0:0:0:
457,140,1353,1,8,1:0:0:0:
430,212,1621,2,0,P|418:243|415:275,1,65,2|2,0:0|0:0,0:0:0:0:
447,345,2156,2,0,B|417:362|378:344|378:344|354:357|354:357|345:296|294:294|294:294|267:309|232:302,1,260,2|8,1:2|1:0,0:0:0:0:
159,270,3496,1,8,1:0:0:0:
85,245,3763,2,0,P|71:235|59:224,3,32.5,2|0|2|0,0:0|0:0|0:0|0:0,0:0:0:0:
38,192,4299,6,0,B|6:126|6:126|23:71|23:71|69:37|69:37|141:43,1,260,2|8,1:2|1:0,0:0:0:0:
218,58,5639,1,8,1:0:0:0:
296,58,5906,2,0,P|328:60|360:57,1,65,2|2,0:0|0:0,0:0:0:0:
438,52,6442,2,0,P|454:114|442:177,1,130,2|4,1:2|0:0,0:0:0:0:
402,328,7514,1,8,1:0:0:0:
325,342,7782,1,8,1:0:0:0:
287,274,8049,2,0,P|266:270|241:271,3,32.5,2|0|2|0,0:0|0:0|0:0|0:0,0:0:0:0:
215,264,8585,6,0,B|174:245|154:204|154:204|105:203|70:185|70:185|65:146|35:108,1,260,2|8,1:2|1:0,0:0:0:0:
46,30,9924,1,8,1:0:0:0:
124,30,10192,2,0,P|156:26|187:35,1,65,2|2,0:0|0:0,0:0:0:0:
265,32,10728,2,0,B|280:69|235:124|181:118|181:118|200:129|210:151|210:151|199:165|199:165|200:193|183:219,1,260,2|8,1:2|1:0,0:0:0:0:
127,272,12067,1,8,1:0:0:0:
152,345,12335,2,0,L|199:352,3,32.5,2|0|2|0,0:0|0:0|0:0|0:0,0:0:0:0:
223,355,12871,6,0,P|331:294|336:170,1,260,2|8,1:2|1:0,0:0:0:0:
299,101,14210,1,8,1:0:0:0:
222,84,14478,2,0,P|187:83|142:74,1,65,2|2,0:0|0:0,0:0:0:0:
96,28,15013,2,0,B|74:44|69:90|87:118|87:118|58:167|68:198|68:198|63:211|63:211|86:230|93:265,1,260,2|8,1:2|1:0,0:0:0:0:
122,338,16353,1,8,1:0:0:0:
199,346,16621,2,0,P|220:351|242:347,3,32.5,4|0|4|0,0:0|0:0|0:0|0:0,0:0:0:0:
266,335,17156,6,0,P|310:229|199:203,1,260,2|8,1:2|1:0,0:0:0:0:
157,269,18496,1,8,1:0:0:0:
124,339,18764,2,0,P|155:347|186:340,1,65,2|2,0:0|0:0,0:0:0:0:
266,335,19299,2,0,B|294:329|325:344|325:344|341:334|317:287|317:287|332:224|332:224|308:155,1,260,2|8,1:2|1:0,0:0:0:0:
268,88,20638,1,8,1:0:0:0:
209,36,20906,2,0,P|190:39|171:39,3,32.5,2|0|2|0,0:0|0:0|0:0|0:0,0:0:0:0:
139,53,21442,6,0,P|149:181|75:291,1,260,4|8,1:2|1:0,0:0:0:0:
54,361,22781,1,8,1:0:0:0:
131,355,23049,2,0,P|166:350|203:360,1,65,2|2,0:0|0:0,0:0:0:0:
272,367,23585,2,0,P|365:329|291:216,1,260,2|8,1:2|1:0,0:0:0:0:
227,228,24924,1,8,1:0:0:0:
165,275,25192,2,0,P|141:274|119:262,3,32.5,2|0|2|0,0:0|0:0|0:0|0:0,0:0:0:0:
100,250,25728,6,0,B|57:221|26:175|44:125|64:98|64:98|93:79|108:56|108:56|126:42,1,260,2|8,1:2|1:0,0:0:0:0:
197,11,27067,1,8,1:0:0:0:
253,65,27335,2,0,P|263:95|262:130,1,65,2|2,0:0|0:0,0:0:0:0:
269,206,27871,2,0,B|237:230|237:230|199:240|199:240|203:284|178:337|116:351|81:341,1,260,2|8,1:2|1:0,0:0:0:0:
18,294,29210,1,8,1:0:0:0:
29,216,29478,2,0,P|36:201|47:189,3,32.5,2|0|2|0,0:0|0:0|0:0|0:0,0:0:0:0:
81,170,30013,6,0,B|110:173|110:173|202:134,1,130,2|4,1:2|0:0,0:0:0:0:
258,79,30817,1,0,0:0:0:0:
335,90,31085,2,0,P|367:89|398:99,1,65,8|8,1:0|1:0,0:0:0:0:
415,175,31621,2,0,P|382:175|351:165,1,65,2|2,0:0|0:0,0:0:0:0:
273,163,32156,2,0,P|238:280|334:357,1,260,2|8,1:2|1:0,0:0:0:0:
412,364,33496,1,8,1:0:0:0:
469,311,33763,6,0,P|470:294|469:279,3,32.5,2|0|2|0,0:0|0:0|0:0|0:0,0:0:0:0:
461,241,34299,1,2,0:0:0:0:
