osu file format v14

[General]
AudioFilename: Kac.mp3
AudioLeadIn: 0
PreviewTime: 14
Countdown: 0
SampleSet: Soft
StackLeniency: 0.7
Mode: 0
LetterboxInBreaks: 0
WidescreenStoryboard: 0

[Editor]
DistanceSpacing: 1.35
BeatDivisor: 2
GridSize: 4
TimelineZoom: 1

[Metadata]
Title:Kac (TV Size)
TitleUnicode:Kac (TV Size)
Artist:Krfawy
ArtistUnicode:Krfawy
Creator:Bathory Witch
Version:Normal
Source:
Tags:Pinksane Treats National Hangover Anthem troll ambient
BeatmapID:838655
BeatmapSetID:383680

[Difficulty]
HPDrainRate:4
CircleSize:3
OverallDifficulty:4
ApproachRate:5.5
SliderMultiplier:1.35
SliderTickRate:1

[Events]
//Background and Video events
0,0,"Jebane kolory.jpg",0,0
//Break Periods
//Storyboard Layer 0 (Background)
//Storyboard Layer 1 (Fail)
//Storyboard Layer 2 (Pass)
//Storyboard Layer 3 (Foreground)
//Storyboard Sound Samples

[TimingPoints]
14,535.714285714286,4,2,1,40,1,0

[Colours]
Combo1 : 242,225,11
Combo2 : 119,248,3
Combo3 : 3,197,237
Combo4 : 249,119,181
SliderBorder : 240,240,240
SliderTrackOverride : 251,57,57

[HitObjects]
44,40,14,5,2,1:2:0:0:
44,130,281,2,0,B|44:265|44:265|86:317,1,202.5,2|8,0:0|1:0,0:0:0:0:
177,317,1353,1,8,1:0:0:0:
256,271,1621,2,0,L|256:203,1,67.5,2|2,0:0|0:0,0:0:0:0:
255,112,2156,2,0,P|364:178|343:303,1,270,2|8,1:2|1:0,0:0:0:0:
256,333,3496,1,8,1:0:0:0:
169,303,3764,1,2,0:0:0:0:
82,333,4031,1,2,0:0:0:0:
32,256,4299,6,0,B|32:120|32:120|110:11,1,270,2|8,1:2|1:0,0:0:0:0:
191,54,5639,1,8,1:0:0:0:
270,96,5906,2,0,L|320:146,1,67.5,2|2,0:0|0:0,0:0:0:0:
396,185,6442,2,0,B|395:252|395:252|356:306,2,135,2|4|8,1:2|0:0|1:0,1:2:0:0:
423,98,7781,1,8,1:0:0:0:
365,26,8049,1,2,0:0:0:0:
273,26,8317,1,2,0:0:0:0:
203,85,8585,6,0,P|178:209|285:277,1,270,2|8,1:2|1:0,0:0:0:0:
376,272,9924,1,8,1:0:0:0:
442,210,10192,2,0,L|489:157,1,67.5,2|2,0:0|0:0,0:0:0:0:
485,66,10728,2,0,B|349:66|349:66|240:144,1,270,2|8,1:2|1:0,0:0:0:0:
166,198,12067,1,8,1:0:0:0:
151,288,12335,1,2,0:0:0:0:
210,356,12603,1,2,0:0:0:0:
302,356,12871,6,0,B|303:220|303:220|256:95,1,270,2|8,1:2|1:0,0:0:0:0:
217,11,14210,1,8,1:0:0:0:
126,23,14478,2,0,L|58:23,1,67.5,2|2,0:0|0:0,0:0:0:0:
6,98,15014,2,0,B|4:233|4:233|80:343,1,270,2|8,1:2|1:0,0:0:0:0:
168,319,16353,1,8,1:0:0:0:
256,342,16621,1,4,0:0:0:0:
344,319,16889,1,4,0:0:0:0:
431,344,17156,6,0,B|508:233|508:233|506:98,1,270,2|8,1:2|1:0,0:0:0:0:
458,19,18496,1,8,1:0:0:0:
366,19,18764,1,2,0:0:0:0:
302,83,19031,1,2,0:0:0:0:
209,83,19299,2,0,P|184:212|255:323,1,270,2|8,1:2|1:0,0:0:0:0:
344,348,20639,1,8,1:0:0:0:
432,323,20906,2,0,L|509:302,1,67.5,2|2,0:0|0:0,0:0:0:0:
508,214,21442,6,0,P|459:92|337:43,1,270,4|8,1:2|1:0,0:0:0:0:
256,87,22781,1,8,1:0:0:0:
185,29,23049,1,2,0:0:0:0:
94,29,23317,1,2,0:0:0:0:
23,87,23585,2,0,B|23:268|23:268|80:337,1,270,2|8,1:2|1:0,0:0:0:0:
167,314,24924,1,8,1:0:0:0:
256,337,25192,2,0,L|324:337,1,67.5,2|2,0:0|0:0,0:0:0:0:
410,314,25728,6,0,P|487:217|403:125,1,270,2|8,1:2|1:0,0:0:0:0:
312,126,27067,1,8,1:0:0:0:
256,199,27335,2,0,L|256:275,1,67.5,2|2,0:0|0:0,0:0:0:0:
255,358,27871,2,0,P|124:368|31:277,1,270,2|8,1:2|1:0,0:0:0:0:
62,192,29210,1,8,1:0:0:0:
31,106,29478,1,2,0:0:0:0:
97,40,29746,1,2,0:0:0:0:
184,66,30014,6,0,P|249:78|315:66,2,135,2|4|8,1:2|0:0|1:0,0:0:0:0:
97,40,31353,1,8,1:0:0:0:
31,106,31621,1,2,0:0:0:0:
62,192,31889,1,2,0:0:0:0:
31,277,32156,2,0,P|125:368|255:358,1,270,2|8,1:2|1:0,0:0:0:0:
331,305,33496,1,8,1:0:0:0:
285,225,33764,1,2,0:0:0:0:
331,145,34031,1,2,0:0:0:0:
285,65,34299,5,2,0:0:0:0:
