osu file format v9

[General]
AudioFilename: Krewella - Killin It.mp3
AudioLeadIn: 0
PreviewTime: -1
Countdown: 0
SampleSet: Normal
StackLeniency: 0.7
Mode: 1
LetterboxInBreaks: 0

[Editor]
DistanceSpacing: 0.9
BeatDivisor: 4
GridSize: 4

[Metadata]
Title:Killin It
Artist:Krewella
Creator:[Te][Amo]
Version:Taiko Oni
Source:
Tags:Ylinestra44 GamerX4life Gabe raimoncortese dubstep

[Difficulty]
HPDrainRate:5
CircleSize:5
OverallDifficulty:5
ApproachRate:5
SliderMultiplier:1.4
SliderTickRate:1

[Events]
//Background and Video events
0,0,"Bass.jpg"
//Break Periods
//Storyboard Layer 0 (Background)
//Storyboard Layer 1 (Fail)
//Storyboard Layer 2 (Pass)
//Storyboard Layer 3 (Foreground)
//Storyboard Sound Samples
//Background Colour Transformations
3,100,163,162,255

[TimingPoints]
95,375,4,1,0,50,1,0
48095,-90.9090909090909,4,1,0,50,0,1
60095,-100,4,1,0,50,0,0
60845,-90.9090909090909,4,1,0,50,0,1
69095,-100,4,1,0,50,0,0
72095,-90.9090909090909,4,1,0,50,0,1
84095,-100,4,1,0,50,0,0
84845,-90.9090909090909,4,1,0,50,0,1
93095,-100,4,1,0,50,0,0
120095,-90.9090909090909,4,1,0,50,0,1
132095,-100,4,1,0,50,0,0
132845,-90.9090909090909,4,1,0,50,0,1
141095,-100,4,1,0,50,0,0

[Colours]
Combo1 : 0,210,255
Combo2 : 254,1,108
Combo3 : 172,255,0
Combo4 : 255,191,0

[HitObjects]
224,188,12095,1,2
252,196,12470,1,2
252,196,12657,1,0
252,196,12845,1,2
252,196,13407,1,0
252,196,13595,1,0
300,180,13782,1,2
300,180,13970,1,0
300,180,14345,1,0
300,180,14720,1,2
300,180,15095,1,2
296,212,15470,1,2
296,212,15845,1,2
296,212,16220,1,0
296,212,16407,1,2
296,212,16595,1,0
296,212,16782,1,2
296,212,16970,1,0
296,212,17345,1,0
296,212,17720,1,0
296,212,18095,1,2
296,212,18470,1,2
296,212,18657,1,0
296,212,18845,1,2
296,212,19407,1,2
296,212,19595,1,2
332,228,19782,1,0
332,228,19970,1,2
332,228,20345,1,0
332,228,20720,1,2
332,228,21095,1,2
220,220,21845,1,0
220,220,22220,1,0
220,220,22407,1,2
220,220,22595,1,0
220,220,22782,1,2
220,220,22970,1,2
220,220,23157,1,0
220,220,23345,1,2
220,220,23532,1,2
220,220,23720,1,2
220,220,23907,1,2
252,224,24095,1,0
252,224,24470,1,0
252,224,24845,1,0
252,224,25220,1,0
252,224,25595,1,0
252,224,25970,1,0
252,224,26345,1,2
280,212,27470,1,0
280,212,27845,1,0
280,212,28220,1,0
280,212,28595,1,0
280,212,28970,1,0
280,212,29345,1,2
280,212,29532,1,0
280,212,29720,1,2
296,232,30470,1,0
296,232,30845,1,2
296,232,31220,1,0
296,232,31595,1,2
296,232,31970,1,0
296,232,32345,1,2
248,188,33470,1,0
248,188,33845,1,0
248,188,34220,1,0
248,188,34595,1,2
248,188,34970,1,2
248,188,35345,1,2
260,116,35720,1,2
280,200,36095,1,0
280,200,36282,1,2
280,200,36470,1,2
280,200,36657,1,2
280,200,36751,1,2
280,200,36845,1,0
280,200,37032,1,0
280,200,37220,1,2
280,200,37407,1,2
280,200,37501,1,2
280,200,37595,1,0
280,200,37782,1,2
280,200,37876,1,2
280,200,37970,1,0
280,200,38157,1,0
280,200,38251,1,2
280,200,38345,1,2
280,200,38532,1,0
280,200,38720,1,2
280,200,38907,1,0
280,200,39001,1,2
280,200,39095,1,2
280,200,39282,1,0
280,200,39470,1,0
280,200,39657,1,0
280,200,39751,1,2
280,200,39845,1,2
280,200,40032,1,0
168,224,40220,1,2
168,224,40407,1,2
168,224,40501,1,2
168,224,40595,1,0
168,224,40782,1,2
168,224,40970,1,0
188,176,41157,1,0
188,176,41251,1,2
188,176,41345,1,2
188,176,41532,1,0
188,176,41720,1,2
188,176,41907,1,0
188,176,42001,1,2
188,176,42095,1,2
188,176,42282,1,0
280,152,42470,1,0
280,152,42563,1,0
280,152,42657,1,2
280,152,42751,1,2
280,152,42845,1,2
280,152,43032,1,0
280,152,43220,1,0
280,152,43313,1,0
280,152,43407,1,2
280,152,43501,1,2
280,152,43595,1,0
280,152,43782,1,2
280,152,43970,1,2
280,152,44063,1,2
280,152,44157,1,0
280,152,44251,1,0
280,152,44345,1,2
280,152,44532,1,0
280,152,44720,1,0
176,112,44813,1,0
228,188,44907,1,0
228,188,45001,1,0
228,188,45095,1,2
176,112,45188,1,0
228,188,45282,1,2
228,188,45376,1,0
228,188,45470,1,2
228,188,45563,1,0
228,188,45657,1,2
228,188,45751,1,0
228,188,45845,1,2
228,188,45938,1,0
228,188,46032,1,0
228,188,46126,1,0
228,188,46220,1,2
228,188,46313,1,0
228,188,46407,1,0
228,188,46501,1,0
228,188,46595,1,2
168,228,46970,1,0
160,144,47157,1,2
160,144,47251,1,0
160,144,47345,1,2
160,144,47532,1,0
160,144,47720,1,6
160,144,48095,1,2
212,164,48470,1,2
232,148,48657,1,0
212,164,48845,1,2
212,164,49220,1,2
212,164,49595,1,0
212,164,49782,1,0
212,164,49970,1,2
212,164,50157,1,0
248,156,50251,1,0
212,164,50345,1,2
212,164,50532,1,0
196,112,50626,1,0
212,164,50720,1,2
212,164,50907,1,2
212,164,51095,1,0
224,120,51470,1,0
224,120,51657,1,0
224,120,51845,1,0
224,120,52032,1,0
224,120,52220,1,2
224,120,52313,1,0
224,120,52407,1,0
224,120,52595,1,2
232,188,52782,1,2
232,188,52970,1,0
232,188,53157,1,0
232,188,53345,1,2
232,188,53438,1,0
232,188,53532,1,0
232,188,53720,1,2
232,188,53813,1,0
232,188,53907,1,0
232,188,54095,1,0
272,108,54470,1,0
272,108,54657,1,2
272,108,54845,1,0
272,108,55220,1,0
272,108,55595,1,2
300,116,55970,1,0
264,120,56063,1,2
300,116,56157,1,0
300,116,56345,1,2
256,88,56438,1,0
300,116,56532,1,2
300,116,56720,1,0
300,116,56907,1,2
224,100,57095,1,2
300,116,57188,1,0
288,72,57282,1,2
288,72,57470,1,0
288,72,57657,1,0
288,72,57845,1,2
300,116,57938,1,0
288,72,58032,1,0
280,148,58220,1,2
288,72,58407,1,0
280,148,58595,1,0
300,116,58688,1,0
280,148,58782,1,2
280,148,58970,1,0
212,152,59157,1,2
212,152,59251,1,0
212,152,59345,1,2
212,152,59532,1,2
212,104,59720,1,2
212,104,59907,1,0
212,104,60001,1,0
212,152,60095,1,0
212,152,60845,1,4
272,136,61032,1,4
272,136,61220,1,4
176,84,61595,1,0
176,84,61970,1,2
208,96,62063,1,0
176,84,62157,1,0
176,84,62345,1,2
176,84,62438,1,0
176,84,62532,1,2
176,84,62720,1,0
176,84,62907,1,2
176,84,63095,1,0
176,84,63470,1,0
176,84,63657,1,0
176,84,63845,1,2
248,168,64032,1,0
248,168,64220,1,2
224,136,64313,1,0
248,168,64407,1,0
248,168,64595,1,0
248,168,64782,1,0
248,168,64970,1,2
248,168,65157,1,2
248,168,65345,1,0
248,168,65532,1,0
248,168,65720,1,0
248,116,65813,1,0
224,156,65907,1,2
224,156,66095,1,0
212,128,66470,1,2
212,128,66657,1,0
212,128,66845,1,2
212,128,67220,1,0
212,128,67595,1,0
212,128,67970,1,0
176,124,68063,1,2
212,128,68157,1,0
212,128,68345,1,2
160,204,68438,1,0
212,128,68532,1,2
212,128,68720,1,0
244,120,68813,1,2
212,128,68907,1,0
212,128,69095,1,0
212,128,69282,1,0
212,128,69470,1,2
212,128,69657,1,0
212,128,69845,1,0
260,316,69937,1,2
212,128,70032,1,2
212,128,70220,1,2
212,128,70313,1,0
212,128,70407,1,0
212,128,70501,1,0
212,128,70595,1,2
212,128,70688,1,0
212,128,70782,1,0
212,128,70876,1,0
212,128,70970,1,2
212,128,71063,1,0
212,128,71157,1,2
212,128,71251,1,0
212,128,71345,1,2
212,128,71532,1,2
212,128,71720,1,2
212,128,71907,1,0
212,128,72095,1,0
168,128,72470,1,0
232,144,72657,1,0
232,144,72845,1,0
108,208,72938,1,2
232,144,73032,1,0
232,144,73220,1,2
208,264,73595,1,0
208,264,73970,1,2
208,264,74157,1,2
208,264,74345,1,0
120,180,74438,1,0
208,264,74532,1,2
208,264,74720,1,0
120,180,74907,1,2
120,180,75095,1,0
120,180,75470,1,0
120,180,75845,1,2
120,180,76032,1,0
120,180,76220,1,2
120,180,76407,1,0
120,180,76595,1,2
120,180,76782,1,2
120,180,76970,1,0
156,176,77063,1,0
120,180,77157,1,2
120,180,77345,1,0
120,180,77532,1,2
120,180,77720,1,2
156,176,77813,1,0
120,180,77907,1,2
156,176,78095,1,0
156,176,78470,1,2
156,176,78657,1,0
156,176,78845,1,2
156,176,78938,1,0
156,176,79032,1,0
156,176,79220,1,2
156,176,79595,1,0
156,176,79970,1,2
188,168,80063,1,0
156,176,80157,1,0
156,176,80345,1,2
216,144,80532,1,0
216,144,80720,1,0
216,144,80907,1,0
216,144,81095,1,2
156,76,81188,1,0
216,144,81282,1,0
216,144,81470,1,2
216,144,81657,1,0
200,88,81845,1,2
228,84,81938,1,0
200,88,82032,1,2
200,88,82220,1,2
200,88,82407,1,0
200,88,82501,1,0
200,88,82595,1,2
200,88,82688,1,0
200,88,82782,1,0
200,88,82876,1,0
200,88,82970,1,2
200,88,83063,1,0
200,88,83157,1,0
200,88,83251,1,0
200,88,83345,1,2
224,72,83532,1,0
224,72,83720,1,0
272,132,83813,1,0
224,72,83907,1,2
224,72,84095,1,2
148,300,84282,1,0
148,300,84470,1,2
300,144,84845,1,6
300,144,85032,1,4
300,144,85220,1,6
300,144,85595,1,0
300,144,85970,1,2
216,144,86157,1,2
216,144,86345,1,2
216,144,86438,1,0
216,144,86532,1,0
216,144,86720,1,0
216,144,86813,1,0
216,144,86907,1,2
216,144,87095,1,2
216,144,87470,1,0
216,144,87657,1,0
216,144,87845,1,2
216,144,87938,1,0
216,144,88032,1,0
216,144,88220,1,2
216,144,88407,1,0
216,144,88595,1,2
216,144,88782,1,2
216,144,88970,1,2
216,144,89157,1,2
216,144,89345,1,0
216,144,89438,1,0
216,144,89532,1,2
216,144,89720,1,0
216,144,89813,1,0
216,144,89907,1,2
216,144,90095,1,0
216,144,90470,1,0
216,144,90657,1,0
216,144,90845,1,2
216,144,90938,1,0
216,144,91032,1,0
216,144,91220,1,2
244,228,91595,1,0
244,228,91970,1,2
244,228,92157,1,2
244,228,92345,1,2
244,228,92438,1,0
244,228,92532,1,2
244,228,92720,1,0
244,228,92813,1,2
244,228,92907,1,0
256,192,93095,8,0,95907
232,128,96095,5,2
232,128,96470,1,0
232,128,96657,1,2
232,128,96751,1,2
232,128,96845,1,0
232,128,97032,1,0
232,128,97220,1,0
232,128,97407,1,2
232,128,97595,1,0
232,128,97782,1,2
232,128,97876,1,2
232,128,97970,1,0
232,128,98157,1,0
232,128,98345,1,2
244,152,98532,1,0
244,152,98720,1,2
244,152,99095,1,0
244,152,99470,1,2
244,152,99657,1,0
244,152,99751,1,2
244,152,99845,1,2
244,152,100032,1,0
244,152,100220,1,2
244,152,100407,1,0
244,152,100595,1,2
244,152,100688,1,2
244,152,100782,1,0
244,152,100970,1,0
244,152,101157,1,2
244,152,101345,1,0
244,152,101532,1,2
244,152,101720,1,2
180,152,101907,1,0
244,152,102095,1,0
304,148,102470,1,2
304,148,102657,1,2
304,148,102751,1,2
304,148,102845,1,0
304,148,103220,1,2
304,148,103407,1,0
304,148,103595,1,2
304,148,103782,1,0
244,128,103970,1,0
244,128,104157,1,0
244,128,104345,1,2
244,128,104532,1,0
244,128,104720,1,2
244,128,104907,1,0
244,128,105001,1,2
244,128,105095,1,2
268,116,105282,1,0
268,116,105470,1,2
268,116,105845,1,2
268,116,106220,1,0
268,116,106313,1,0
268,116,106407,1,2
268,116,106501,1,2
268,116,106595,1,0
268,116,106782,1,0
268,116,106970,1,0
268,116,107157,1,0
268,116,107345,1,2
268,116,107438,1,2
268,116,107532,1,0
268,116,107720,1,2
268,116,108095,1,2
188,156,108470,1,0
188,156,108657,1,0
188,156,108751,1,2
188,156,108845,1,2
188,156,109032,1,0
188,156,109220,1,2
188,156,109407,1,2
188,156,109501,1,2
188,156,109595,1,0
188,156,109782,1,2
188,156,109970,1,0
188,156,110157,1,2
224,116,110251,1,2
188,156,110345,1,0
188,156,110532,1,0
188,156,110720,1,2
248,128,110907,1,0
248,128,111001,1,2
248,128,111095,1,2
188,204,111282,1,0
188,204,111470,1,2
188,204,111657,1,0
188,204,111751,1,2
188,204,111845,1,2
188,204,112032,1,0
188,204,112220,1,2
188,204,112407,1,0
188,204,112501,1,2
188,204,112595,1,2
232,204,112782,1,0
232,204,112970,1,0
232,204,113157,1,2
232,204,113251,1,2
232,204,113345,1,0
260,156,113532,1,0
260,156,113720,1,2
260,156,113907,1,0
260,156,114001,1,2
260,156,114095,1,2
260,156,114282,1,0
128,120,114470,1,0
128,120,114563,1,0
128,120,114657,1,2
128,120,114751,1,2
128,120,114845,1,2
128,120,115032,1,0
208,136,115220,1,0
208,136,115313,1,0
208,136,115407,1,2
208,136,115501,1,2
208,136,115595,1,0
208,136,115782,1,0
208,136,115970,1,0
208,136,116063,1,0
208,136,116157,1,2
208,136,116251,1,2
208,136,116345,1,0
208,136,116532,1,0
168,120,116720,1,0
168,84,116813,1,0
168,84,116907,1,0
168,84,117001,1,0
168,84,117095,1,2
264,168,117188,1,0
264,168,117282,1,2
264,168,117376,1,0
264,168,117470,1,2
264,168,117563,1,0
264,168,117657,1,2
264,168,117751,1,0
264,168,117845,1,2
264,168,117938,1,0
264,168,118032,1,0
264,168,118126,1,0
264,168,118220,1,2
264,168,118313,1,0
264,168,118407,1,0
264,168,118501,1,0
264,168,118595,1,2
188,132,118782,1,0
188,132,118970,1,2
188,132,119157,1,2
188,132,119251,1,2
188,132,119345,1,0
232,104,119438,1,0
188,132,119532,1,2
188,132,119720,1,0
188,132,119907,1,2
188,132,120095,1,6
216,128,120470,1,2
216,128,120845,1,0
216,128,121032,1,0
216,128,121220,1,2
216,128,121595,1,0
216,128,121970,1,2
216,128,122157,1,0
216,128,122345,1,2
216,128,122532,1,2
216,128,122720,1,0
196,48,122813,1,2
216,128,122907,1,0
216,128,123095,1,2
240,108,123470,1,0
240,108,123845,1,0
240,108,124032,1,0
240,108,124220,1,2
336,168,124313,1,0
240,108,124407,1,0
240,108,124595,1,0
240,108,124782,1,0
288,76,124970,1,2
288,76,125157,1,2
288,76,125345,1,0
200,192,125438,1,0
288,76,125532,1,2
288,76,125720,1,0
288,76,125907,1,2
288,76,126095,1,0
200,192,126470,1,0
268,116,126845,1,0
268,116,127032,1,0
268,116,127220,1,2
144,112,127595,1,0
144,112,127970,1,0
144,112,128157,1,0
144,112,128345,1,2
144,112,128438,1,0
144,112,128532,1,2
144,112,128720,1,2
176,124,128907,1,2
144,112,129095,1,2
144,112,129188,1,0
144,112,129282,1,0
144,112,129470,1,2
176,124,129657,1,0
176,124,129845,1,2
196,108,129938,1,0
196,108,130032,1,0
196,108,130220,1,2
196,108,130313,1,0
176,124,130407,1,2
176,124,130501,1,0
176,124,130595,1,2
228,268,130782,1,0
176,124,130970,1,2
176,124,131157,1,2
176,124,131251,1,0
176,124,131345,1,2
196,108,131532,1,0
196,108,131720,1,2
196,108,131907,1,0
176,124,132095,1,0
220,280,132470,1,0
176,124,132845,1,6
220,280,133032,1,6
220,280,133220,1,6
220,280,133595,1,0
232,224,133970,1,2
232,224,134063,1,0
232,224,134157,1,0
232,224,134345,1,2
232,224,134532,1,0
232,224,134720,1,0
232,224,134907,1,2
232,224,135095,1,0
232,224,135470,1,0
232,224,135657,1,0
232,224,135845,1,2
304,140,135938,1,0
232,224,136032,1,2
232,224,136220,1,0
304,140,136407,1,0
304,140,136595,1,2
304,140,136782,1,0
304,140,136970,1,2
304,140,137157,1,2
304,140,137345,1,2
304,140,137438,1,0
304,140,137532,1,0
304,140,137720,1,2
304,140,137813,1,0
304,140,137907,1,0
304,140,138095,1,0
304,140,138470,1,0
244,124,138845,1,0
244,124,139032,1,0
244,124,139220,1,2
244,124,139595,1,0
244,124,139970,1,2
244,124,140157,1,2
244,124,140345,1,2
244,124,140438,1,0
244,124,140532,1,0
244,124,140720,1,0
244,124,140907,1,2
232,152,141095,1,2
232,152,141282,1,2
232,152,141470,1,0
232,152,141657,1,0
232,152,141845,1,2
208,72,142220,1,0
208,72,142595,1,0
208,72,142720,1,0
208,72,142845,1,0
208,72,142970,1,2
116,148,143095,1,0
116,148,143220,1,0
116,148,143345,1,2
116,148,143470,1,0
116,148,143595,1,0
116,148,143720,1,2
316,92,144095,1,0
316,92,144470,1,0
316,92,144657,1,0
316,92,144845,1,2
232,184,145032,1,0
232,184,145220,1,2
188,152,145595,1,0
188,152,145970,1,0
188,152,146157,1,2
188,152,146251,1,2
188,152,146345,1,0
188,152,146532,1,2
188,152,146720,1,2
160,96,146907,1,2
160,96,147095,1,0
160,96,147470,1,2
160,96,147657,1,2
160,96,147845,1,0
160,96,148220,1,0
160,96,148407,1,0
160,96,148595,1,2
192,168,148782,1,0
192,168,148970,1,2
192,168,149063,1,2
192,168,149157,1,0
192,168,149345,1,0
192,168,149532,1,2
192,168,149720,1,2
192,168,149813,1,2
192,168,149907,1,0
192,168,150095,1,2
192,168,150470,1,0
192,168,150657,1,0
192,168,150845,1,2
192,168,151032,1,0
192,168,151220,1,2
192,168,151595,1,0
192,168,151970,1,0
192,168,152157,1,0
192,168,152251,1,2
192,168,152345,1,2
192,168,152532,1,0
192,168,152720,1,2
192,168,152907,1,2
192,168,153095,1,2
192,168,153282,1,0
192,168,153470,1,0
192,168,153563,1,2
224,88,153657,1,2
224,88,153845,1,0
224,88,154032,1,0
224,88,154126,1,2
224,88,154220,1,2
248,152,154407,1,0
248,152,154595,1,0
248,152,154688,1,0
248,152,154782,1,0
248,152,154876,1,0
248,152,154970,1,0
248,152,155063,1,0
248,152,155157,1,0
248,152,155251,1,0
248,152,155345,1,2
312,164,155532,1,0
312,164,155720,1,2
312,164,155907,1,0
312,164,156095,1,0
264,200,156282,1,0
264,200,156470,1,0
264,200,156845,1,6
264,200,157032,1,4
264,200,157220,1,6
264,200,157595,1,0
264,200,157970,1,2
212,152,158063,1,2
264,200,158157,1,0
264,200,158345,1,2
264,200,158532,1,0
264,200,158720,1,2
264,200,158907,1,0
264,200,159095,1,2
264,200,159470,1,0
264,200,159657,1,0
264,200,159845,1,2
264,200,160032,1,0
308,216,160126,1,2
264,200,160220,1,2
204,128,160407,1,0
264,200,160595,1,2
264,200,160782,1,2
264,200,160970,1,2
264,200,161157,1,2
264,200,161345,1,0
264,200,161532,1,0
264,200,161720,1,0
264,200,161907,1,0
264,200,162095,1,2
264,200,162470,1,2
264,200,162657,1,2
264,200,162845,1,2
256,168,162938,1,2
264,200,163032,1,0
264,200,163220,1,2
324,224,163595,1,0
324,224,163970,1,0
324,224,164063,1,2
324,224,164157,1,2
324,224,164345,1,0
324,224,164532,1,2
324,224,164720,1,0
324,224,164907,1,2
256,192,165095,12,0,167907
148,88,168095,5,4
148,88,168470,1,0
184,184,168657,1,0
184,184,168845,1,2
184,184,169407,1,0
184,184,169595,1,2
184,184,169782,1,0
184,184,169970,1,2
184,184,170345,1,0
184,184,170720,1,2
184,184,171095,1,2
184,184,171845,1,0
184,184,172220,1,2
184,184,172407,1,0
184,184,172595,1,2
184,184,172782,1,0
184,184,172970,1,0
184,184,173345,1,0
172,160,174095,1,2
172,160,174470,1,2
172,160,174657,1,0
172,160,174845,1,2
172,160,175407,1,0
172,160,175595,1,0
172,160,175782,1,2
172,160,175970,1,0
172,160,176345,1,0
172,160,176720,1,2
172,160,177095,1,2
172,160,177845,1,0
172,160,178220,1,2
172,160,178407,1,0
172,160,178595,1,2
172,188,178782,1,0
172,188,178970,1,2
172,188,179157,1,2
172,188,179345,1,0
172,188,179532,1,0
172,188,179720,1,0
172,160,179907,1,0
172,160,180095,1,2
172,188,180470,1,2
172,188,180657,1,0
172,188,180845,1,2
200,156,181407,1,0
200,156,181595,1,0
200,156,181782,1,2
200,156,181970,1,0
200,156,182345,1,0
200,156,182720,1,2
200,156,183095,1,2
176,136,183845,1,0
176,136,184220,1,2
176,136,184407,1,0
176,136,184595,1,2
176,136,184782,1,0
176,136,184970,1,0
196,100,185345,1,0
176,136,186095,1,2
176,136,186470,1,2
176,136,186657,1,0
176,136,186845,1,2
224,152,187407,1,0
224,152,187595,1,0
224,152,187782,1,2
224,152,187970,1,0
224,152,188345,1,0
224,152,188720,1,0
224,152,189095,1,2
256,172,189845,1,0
256,172,190220,1,2
256,172,190407,1,0
256,172,190595,1,2
256,172,190782,1,0
256,172,190970,1,0
256,172,191157,1,2
160,188,191345,1,2
160,188,191532,1,2
160,140,191720,1,2
160,140,191907,1,2
280,208,192095,1,0
